  0
SECTION
  2
HEADER
  9
$ACADVER
  1
AC1015
  9
$ACADMAINTVER
 70
    20
  9
$DWGCODEPAGE
  3
ANSI_932
  9
$INSBASE
 10
0.0
 20
0.0
 30
0.0
  9
$EXTMIN
 10
-0.005889443221804
 20
-0.0085442699590885
 30
-0.0000000000000153
  9
$EXTMAX
 10
193.0058903419481
 20
280.0085455738108
 30
0.0
  9
$LIMMIN
 10
0.0
 20
0.0
  9
$LIMMAX
 10
193.0
 20
280.0000000000001
  9
$ORTHOMODE
 70
     1
  9
$REGENMODE
 70
     1
  9
$FILLMODE
 70
     1
  9
$QTEXTMODE
 70
     0
  9
$MIRRTEXT
 70
     1
  9
$LTSCALE
 40
1.0
  9
$ATTMODE
 70
     1
  9
$TEXTSIZE
 40
73.98571745357912
  9
$TRACEWID
 40
1.0
  9
$TEXTSTYLE
  7
STANDARD
  9
$CLAYER
  8
0
  9
$CELTYPE
  6
ByLayer
  9
$CECOLOR
 62
   256
  9
$CELTSCALE
 40
1.0
  9
$DISPSILH
 70
     0
  9
$DIMSCALE
 40
1.0
  9
$DIMASZ
 40
2.5
  9
$DIMEXO
 40
1.0
  9
$DIMDLI
 40
10.0
  9
$DIMRND
 40
0.0
  9
$DIMDLE
 40
0.0
  9
$DIMEXE
 40
1.0
  9
$DIMTP
 40
0.1
  9
$DIMTM
 40
0.1
  9
$DIMTXT
 40
3.5
  9
$DIMCEN
 40
0.0
  9
$DIMTSZ
 40
0.0
  9
$DIMTOL
 70
     0
  9
$DIMLIM
 70
     0
  9
$DIMTIH
 70
     0
  9
$DIMTOH
 70
     0
  9
$DIMSE1
 70
     0
  9
$DIMSE2
 70
     0
  9
$DIMTAD
 70
     1
  9
$DIMZIN
 70
     8
  9
$DIMBLK
  1
Open30
  9
$DIMASO
 70
     1
  9
$DIMSHO
 70
     1
  9
$DIMPOST
  1

  9
$DIMAPOST
  1
"
  9
$DIMALT
 70
     0
  9
$DIMALTD
 70
     2
  9
$DIMALTF
 40
0.0393701
  9
$DIMLFAC
 40
1.0
  9
$DIMTOFL
 70
     1
  9
$DIMTVP
 40
0.0
  9
$DIMTIX
 70
     0
  9
$DIMSOXD
 70
     0
  9
$DIMSAH
 70
     0
  9
$DIMBLK1
  1

  9
$DIMBLK2
  1

  9
$DIMSTYLE
  2
AM_ISO
  9
$DIMCLRD
 70
   256
  9
$DIMCLRE
 70
   256
  9
$DIMCLRT
 70
     2
  9
$DIMTFAC
 40
0.71
  9
$DIMGAP
 40
1.5
  9
$DIMJUST
 70
     0
  9
$DIMSD1
 70
     0
  9
$DIMSD2
 70
     0
  9
$DIMTOLJ
 70
     0
  9
$DIMTZIN
 70
     8
  9
$DIMALTZ
 70
     0
  9
$DIMALTTZ
 70
     0
  9
$DIMUPT
 70
     0
  9
$DIMDEC
 70
     2
  9
$DIMTDEC
 70
     2
  9
$DIMALTU
 70
     2
  9
$DIMALTTD
 70
     2
  9
$DIMTXSTY
  7
STANDARD
  9
$DIMAUNIT
 70
     0
  9
$DIMADEC
 70
     0
  9
$DIMALTRND
 40
0.0
  9
$DIMAZIN
 70
     2
  9
$DIMDSEP
 70
    46
  9
$DIMATFIT
 70
     3
  9
$DIMFRAC
 70
     0
  9
$DIMLDRBLK
  1
Open30
  9
$DIMLUNIT
 70
     2
  9
$DIMLWD
 70
    -1
  9
$DIMLWE
 70
    -1
  9
$DIMTMOVE
 70
     0
  9
$LUNITS
 70
     2
  9
$LUPREC
 70
     2
  9
$SKETCHINC
 40
1.0
  9
$FILLETRAD
 40
6.5
  9
$AUNITS
 70
     0
  9
$AUPREC
 70
     0
  9
$MENU
  1
.
  9
$ELEVATION
 40
0.0
  9
$PELEVATION
 40
0.0
  9
$THICKNESS
 40
0.0
  9
$LIMCHECK
 70
     0
  9
$CHAMFERA
 40
2.5
  9
$CHAMFERB
 40
2.5
  9
$CHAMFERC
 40
20.0
  9
$CHAMFERD
 40
0.0
  9
$SKPOLY
 70
     0
  9
$TDCREATE
 40
2453343.614744642
  9
$TDUCREATE
 40
2453343.239744642
  9
$TDUPDATE
 40
2456111.556975208
  9
$TDUUPDATE
 40
2456111.181975208
  9
$TDINDWG
 40
0.1037053241
  9
$TDUSRTIMER
 40
0.1037053241
  9
$USRTIMER
 70
     1
  9
$ANGBASE
 50
0.0
  9
$ANGDIR
 70
     0
  9
$PDMODE
 70
     0
  9
$PDSIZE
 40
0.0
  9
$PLINEWID
 40
0.0
  9
$SPLFRAME
 70
     0
  9
$SPLINETYPE
 70
     6
  9
$SPLINESEGS
 70
     8
  9
$HANDSEED
  5
1E19
  9
$SURFTAB1
 70
     6
  9
$SURFTAB2
 70
     6
  9
$SURFTYPE
 70
     6
  9
$SURFU
 70
     6
  9
$SURFV
 70
     6
  9
$UCSBASE
  2

  9
$UCSNAME
  2

  9
$UCSORG
 10
0.0
 20
0.0
 30
0.0
  9
$UCSXDIR
 10
1.0
 20
0.0
 30
0.0
  9
$UCSYDIR
 10
0.0
 20
1.0
 30
0.0
  9
$UCSORTHOREF
  2

  9
$UCSORTHOVIEW
 70
     0
  9
$UCSORGTOP
 10
0.0
 20
0.0
 30
0.0
  9
$UCSORGBOTTOM
 10
0.0
 20
0.0
 30
0.0
  9
$UCSORGLEFT
 10
0.0
 20
0.0
 30
0.0
  9
$UCSORGRIGHT
 10
0.0
 20
0.0
 30
0.0
  9
$UCSORGFRONT
 10
0.0
 20
0.0
 30
0.0
  9
$UCSORGBACK
 10
0.0
 20
0.0
 30
0.0
  9
$PUCSBASE
  2

  9
$PUCSNAME
  2

  9
$PUCSORG
 10
0.0
 20
0.0
 30
0.0
  9
$PUCSXDIR
 10
1.0
 20
0.0
 30
0.0
  9
$PUCSYDIR
 10
0.0
 20
1.0
 30
0.0
  9
$PUCSORTHOREF
  2

  9
$PUCSORTHOVIEW
 70
     0
  9
$PUCSORGTOP
 10
0.0
 20
0.0
 30
0.0
  9
$PUCSORGBOTTOM
 10
0.0
 20
0.0
 30
0.0
  9
$PUCSORGLEFT
 10
0.0
 20
0.0
 30
0.0
  9
$PUCSORGRIGHT
 10
0.0
 20
0.0
 30
0.0
  9
$PUCSORGFRONT
 10
0.0
 20
0.0
 30
0.0
  9
$PUCSORGBACK
 10
0.0
 20
0.0
 30
0.0
  9
$USERI1
 70
     0
  9
$USERI2
 70
     0
  9
$USERI3
 70
     0
  9
$USERI4
 70
     0
  9
$USERI5
 70
     0
  9
$USERR1
 40
0.0
  9
$USERR2
 40
0.0
  9
$USERR3
 40
0.0
  9
$USERR4
 40
0.0
  9
$USERR5
 40
0.0
  9
$WORLDVIEW
 70
     1
  9
$SHADEDGE
 70
     3
  9
$SHADEDIF
 70
    70
  9
$TILEMODE
 70
     1
  9
$MAXACTVP
 70
    64
  9
$PINSBASE
 10
0.0
 20
0.0
 30
0.0
  9
$PLIMCHECK
 70
     0
  9
$PEXTMIN
 10
1.000000000000000E+20
 20
1.000000000000000E+20
 30
1.000000000000000E+20
  9
$PEXTMAX
 10
-1.000000000000000E+20
 20
-1.000000000000000E+20
 30
-1.000000000000000E+20
  9
$PLIMMIN
 10
-6.350006103515625
 20
-6.349999904632568
  9
$PLIMMAX
 10
273.0499877929688
 20
209.5499939918518
  9
$UNITMODE
 70
     0
  9
$VISRETAIN
 70
     1
  9
$PLINEGEN
 70
     0
  9
$PSLTSCALE
 70
     1
  9
$TREEDEPTH
 70
  3020
  9
$CMLSTYLE
  2
Standard
  9
$CMLJUST
 70
     0
  9
$CMLSCALE
 40
20.0
  9
$PROXYGRAPHICS
 70
     1
  9
$MEASUREMENT
 70
     1
  9
$CELWEIGHT
370
    -1
  9
$ENDCAPS
280
     0
  9
$JOINSTYLE
280
     0
  9
$LWDISPLAY
290
     0
  9
$INSUNITS
 70
     4
  9
$HYPERLINKBASE
  1

  9
$STYLESHEET
  1
takachi-2.ctb
  9
$XEDIT
290
     1
  9
$CEPSNTYPE
380
     0
  9
$PSTYLEMODE
290
     1
  9
$FINGERPRINTGUID
  2
{FDEAD578-A652-11D2-9A35-0060089B3A3F}
  9
$VERSIONGUID
  2
{E0379FBB-8201-48A8-90A9-1F9E7E569461}
  9
$EXTNAMES
290
     1
  9
$PSVPSCALE
 40
0.0
  9
$OLESTARTUP
290
     0
  0
ENDSEC
  0
SECTION
  2
CLASSES
  0
CLASS
  1
ACDBDICTIONARYWDFLT
  2
AcDbDictionaryWithDefault
  3
ObjectDBX Classes
 90
        0
280
     0
281
     0
  0
CLASS
  1
ACDBPLACEHOLDER
  2
AcDbPlaceHolder
  3
ObjectDBX Classes
 90
        0
280
     0
281
     0
  0
CLASS
  1
LAYOUT
  2
AcDbLayout
  3
ObjectDBX Classes
 90
        0
280
     0
281
     0
  0
CLASS
  1
ACME_DOCUMENT
  2
AcMeDbDoc
  3
AcMeServices
 90
     1024
280
     0
281
     0
  0
CLASS
  1
AMGSETTINGSOBJ
  2
AmgSettingsObj
  3
"AcadM|Product Description: AutoCAD Mechanical|Company: Autodesk, Inc."
 90
     1024
280
     0
281
     0
  0
CLASS
  1
ACMESCOPE
  2
AcMeScope
  3
AcMeServices
 90
     1024
280
     0
281
     0
  0
CLASS
  1
ACMECOMMANDHISTORY
  2
AcMeCommandHistory
  3
AcMeServices
 90
     1024
280
     0
281
     0
  0
CLASS
  1
ACIMSYSVARMAN
  2
AcImSysVarManager
  3
AcMeServices
 90
     1024
280
     0
281
     0
  0
CLASS
  1
ACIMREALSYSVAR
  2
AcImRealSysVar
  3
AcMeServices
 90
     1024
280
     0
281
     0
  0
CLASS
  1
ACIMINTSYSVAR
  2
AcImIntSysVar
  3
AcMeServices
 90
     1024
280
     0
281
     0
  0
CLASS
  1
ACMEDRAWINGMAN
  2
AcMeDrawingMan
  3
AcMeServices
 90
    33792
280
     0
281
     0
  0
CLASS
  1
ACMEVIEW
  2
AcMeView
  3
AcMeServices
 90
    33792
280
     0
281
     0
  0
CLASS
  1
ACDBENTITYCACHE
  2
AcMeEntityCache
  3
AcMeServices
 90
     1024
280
     0
281
     0
  0
CLASS
  1
GSMANAGER
  2
AcMeGSManager
  3
AcMeServices
 90
    32768
280
     0
281
     0
  0
CLASS
  1
AMDTINTERNALREACTOR
  2
AmdtInternalReactor
  3
AcMeServices
 90
     1024
280
     0
281
     0
  0
CLASS
  1
ACMESTATEMGR
  2
AcMeStateMgr
  3
AcMeServices
 90
     1024
280
     0
281
     0
  0
CLASS
  1
ACGREFMASTER
  2
AcGrefMaster
  3
AcAttribServices
 90
     1024
280
     0
281
     0
  0
CLASS
  1
ACME_DATABASE
  2
AcMeDbDatabase
  3
AcMeServices
 90
     1024
280
     0
281
     0
  0
CLASS
  1
ACRFINSADJUSTERMGR
  2
AcRfInsAdjusterMgr
  3
AcMeServices
 90
     1024
280
     0
281
     0
  0
CLASS
  1
ACGREFACADMASTER
  2
AcGrefacadMaster
  3
AcGrefServices
 90
     1024
280
     0
281
     0
  0
CLASS
  1
AMIMASTER
  2
AmiMaster
  3
AmiServices
 90
     1024
280
     0
281
     0
  0
CLASS
  1
ACMDATADICTIONARY
  2
AcmDataDictionary
  3
"AcmSymBB|Product Description: AutoCAD Mechanical|Company: Autodesk, Inc."
 90
     1024
280
     0
281
     0
  0
CLASS
  1
ACMDATAENTRYBLOCK
  2
AcmDataEntryBlock
  3
AcmSymBB|Product Description: AutoCAD Mechanical|Company: Autodesk, Inc.
 90
     1024
280
     0
281
     0
  0
CLASS
  1
ACIMSTRSYSVAR
  2
AcImStrSysVar
  3
AcMeServices
 90
     1024
280
     0
281
     0
  0
CLASS
  1
ACMSTANDARDISO
  2
AcmStandardISO
  3
"Amdt_StdImp|Product Description: AutoCAD Mechanical|Company: Autodesk, Inc."
 90
     1024
280
     0
281
     0
  0
CLASS
  1
AMGOBJPROPCFG
  2
AmgObjPropCfg
  3
"AmgLay|Product Description: AutoCAD Mechanical|Company: Autodesk, Inc."
 90
     1025
280
     0
281
     0
  0
CLASS
  1
AMDTEDGESTANDARDISO
  2
AmdtEdgeStdISO
  3
"Amdt_StdImp|Product Description: AutoCAD Mechanical|Company: Autodesk, Inc."
 90
     1024
280
     0
281
     0
  0
CLASS
  1
ACMSURFSTANDARDISO
  2
AcmSurfTextStdISO
  3
"Amdt_StdImp|Product Description: AutoCAD Mechanical|Company: Autodesk, Inc."
 90
     1024
280
     0
281
     0
  0
CLASS
  1
ACMFCFSTANDARDISO
  2
AcmFCFStdISO
  3
"Amdt_StdImp|Product Description: AutoCAD Mechanical|Company: Autodesk, Inc."
 90
     1024
280
     0
281
     0
  0
CLASS
  1
ACMWELDSTANDARDISO
  2
AcmWeldingStdISO
  3
"Amdt_StdImp|Product Description: AutoCAD Mechanical|Company: Autodesk, Inc."
 90
     1024
280
     0
281
     0
  0
CLASS
  1
ACMIDSTANDARDISO
  2
AcmIdStdISO
  3
"Amdt_StdImp|Product Description: AutoCAD Mechanical|Company: Autodesk, Inc."
 90
     1024
280
     0
281
     0
  0
CLASS
  1
ACMDATUMSTANDARDISO
  2
AcmDatumStdISO
  3
"Amdt_StdImp|Product Description: AutoCAD Mechanical|Company: Autodesk, Inc."
 90
     1024
280
     0
281
     0
  0
CLASS
  1
ACMBOMSTANDARDISO
  2
AcmBOMStdISO
  3
"Amdt_StdImp|Product Description: AutoCAD Mechanical|Company: Autodesk, Inc."
 90
     1024
280
     0
281
     0
  0
CLASS
  1
ACMDETAILSTANDARDISO
  2
AmdtDetailSymStdISO
  3
"Amdt_StdImp|Product Description: AutoCAD Mechanical|Company: Autodesk, Inc."
 90
     1024
280
     0
281
     0
  0
CLASS
  1
ACMSECTIONSTANDARDISO
  2
AmdtSectionSymStdISO
  3
"Amdt_StdImp|Product Description: AutoCAD Mechanical|Company: Autodesk, Inc."
 90
     1024
280
     0
281
     0
  0
CLASS
  1
ACMCENTERLINESTANDARDISO
  2
AmdtCenterLineStdISO
  3
"Amdt_StdImp|Product Description: AutoCAD Mechanical|Company: Autodesk, Inc."
 90
     1024
280
     0
281
     0
  0
CLASS
  1
ACMNOTESTANDARDISO
  2
AmdtNoteStdISO
  3
"Amdt_StdImp|Product Description: AutoCAD Mechanical|Company: Autodesk, Inc."
 90
     1024
280
     0
281
     0
  0
CLASS
  1
ACAMGLAYSTD
  2
AcAmgLayStd
  3
"AmgLay|Product Description: AutoCAD Mechanical|Company: Autodesk, Inc."
 90
     1024
280
     0
281
     0
  0
CLASS
  1
ACAMGDIMSTD
  2
AcAmgDimStd
  3
"AmgDim|Product Description: AutoCAD Mechanical|Company: Autodesk, Inc."
 90
     1024
280
     0
281
     0
  0
CLASS
  1
ACAMGHOLECHARTSTDISO
  2
AcAmgHoleChartStdISO
  3
AmgDim|Product Description: AutoCAD Mechanical|Company: Autodesk, Inc.
 90
     1024
280
     0
281
     0
  0
CLASS
  1
ACAMGTITLESTD
  2
AcAmgTitleStd
  3
"AmgTitle|Product Description: AutoCAD Mechanical|Company: Autodesk, Inc."
 90
     4095
280
     0
281
     0
  0
CLASS
  1
LAYER_INDEX
  2
AcDbLayerIndex
  3
ObjectDBX Classes
 90
    32768
280
     0
281
     0
  0
CLASS
  1
IDBUFFER
  2
AcDbIdBuffer
  3
ObjectDBX Classes
 90
    32768
280
     0
281
     0
  0
CLASS
  1
DICTIONARYVAR
  2
AcDbDictionaryVar
  3
ObjectDBX Classes
 90
        0
280
     0
281
     0
  0
CLASS
  1
AM_DRAWING_MGR
  2
AcDmDwgMgr
  3
AcMechDwgViewMgmt
 90
     1024
280
     0
281
     0
  0
CLASS
  1
AM_DWG_DOCUMENT
  2
AcDmDwgDocument
  3
AcMechDwgViewMgmt
 90
     1024
280
     0
281
     0
  0
CLASS
  1
AM_DWG_SHEET
  2
AcDmSheet
  3
AcMechDwgViewMgmt
 90
     1024
280
     0
281
     0
  0
CLASS
  1
AM_VIEWDIMPARMAP
  2
AcDmViewDimParMap
  3
AcMechDwgViewMgmt
 90
     1024
280
     0
281
     0
  0
CLASS
  1
AM_DWGMGR_NAME
  2
AcDmDwgMgrName
  3
AcMechDwgViewMgmt
 90
     1024
280
     0
281
     0
  0
CLASS
  1
AMDTMENUSTATEMGR
  2
AmdtMenuStateMgr
  3
McadcomServices
 90
     1024
280
     0
281
     0
  0
CLASS
  1
AMDTMCOMMENUSTATE
  2
AmdtMcomMenuState
  3
McadcomServices
 90
     1024
280
     0
281
     0
  0
CLASS
  1
MAPIAMMOUDLE
  2
MApiAmModule
  3
MApiAmServices
 90
     1024
280
     0
281
     0
  0
CLASS
  1
AMDTADMENUSTATE
  2
AmdtAdMenuState
  3
DesignerServices
 90
    32768
280
     0
281
     0
  0
CLASS
  1
ADAPPL
  2
AcAdAppl
  3
DesignerAssemblies
 90
    33792
280
     0
281
     0
  0
CLASS
  1
DEPMGR
  2
AcAdDepMgr
  3
DesignerAssemblies
 90
    33792
280
     0
281
     0
  0
CLASS
  1
PARAMMGR
  2
AcAdParamMgr
  3
DesignerAssemblies
 90
    33792
280
     0
281
     0
  0
CLASS
  1
PARAMSCOPE
  2
AcAdParamScope
  3
DesignerAssemblies
 90
    33792
280
     0
281
     0
  0
CLASS
  1
NAMEDAPPL
  2
AcAdNamedAppl
  3
DesignerAssemblies
 90
    33792
280
     0
281
     0
  0
CLASS
  1
AMDTDMMENUSTATE
  2
AmdtDmMenuState
  3
AcMechDwgViewMgmt
 90
     1024
280
     0
281
     0
  0
CLASS
  1
AMDTAMMENUSTATE
  2
AmdtAmMenuState
  3
DesignerAssemblies
 90
     1024
280
     0
281
     0
  0
CLASS
  1
ACAMPROJECT
  2
AcAmProject
  3
DesignerAssemblies
 90
     1024
280
     0
281
     0
  0
CLASS
  1
ACAMGRCOMPDEF
  2
AcAmGrCompDef
  3
DesignerAssemblies
 90
     1024
280
     0
281
     0
  0
CLASS
  1
ACCMCONTEXT
  2
AcCmContext
  3
DesignerAssemblies
 90
     1024
280
     0
281
     0
  0
CLASS
  1
ACAMCOMPDEF
  2
AcAmCompDef
  3
DesignerAssemblies
 90
     1024
280
     0
281
     0
  0
CLASS
  1
ACAMCOMPDEFMGR
  2
AcAmCompDefMgr
  3
DesignerAssemblies
 90
     1024
280
     0
281
     0
  0
CLASS
  1
AMCONTEXTMGR
  2
AcAmContextMgr
  3
DesignerAssemblies
 90
     1024
280
     0
281
     0
  0
CLASS
  1
ACAMCONTEXTMODELER
  2
AcAmContextModeler
  3
DesignerAssemblies
 90
     1024
280
     0
281
     0
  0
CLASS
  1
ACMTHREADLINESTANDARDISO
  2
AmdtThreadLineStdISO
  3
"Amdt_StdImp|Product Description: AutoCAD Mechanical|Company: Autodesk, Inc."
 90
     1024
280
     0
281
     0
  0
CLASS
  1
CATALOGSTATE
  2
AcAmCatalogState
  3
DesignerAssemblies
 90
    33792
280
     0
281
     0
  0
CLASS
  1
ACAMGRCOMPDEFSET
  2
AcAmGrCompDefSet
  3
DesignerAssemblies
 90
     1024
280
     0
281
     0
  0
CLASS
  1
AMDTBROWSERDBTAB
  2
AmdtBrowserDbTab
  3
McadcomServices
 90
     1024
280
     0
281
     0
  0
CLASS
  1
CBROWSERAPPOBJECT
  2
CBrowserAppObject
  3
McadcomServices
 90
     1024
280
     0
281
     0
  0
CLASS
  1
DM_PLACEHOLDER
  2
AcDmSelsetPlaceholder
  3
AcMechDwgViewMgmt
 90
     1024
280
     0
281
     0
  0
CLASS
  1
AMDTNOTETEMPLATEDB
  2
AmdtNoteTemplateDB
  3
AcmSymBB|Product Description: AutoCAD Mechanical|Company: Autodesk, Inc.
 90
     1024
280
     0
281
     0
  0
CLASS
  1
ACAMGFILTERDAT
  2
AcAmgFilterDat
  3
"AcadM|Product Description: AutoCAD Mechanical|Company: Autodesk, Inc."
 90
     1024
280
     0
281
     0
  0
CLASS
  1
AMDTNOTE
  2
AmdtNote
  3
"AcmSymBB|Product Description: AutoCAD Mechanical|Company: Autodesk, Inc."
 90
    36863
280
     0
281
     1
  0
CLASS
  1
AMDTFORMULAUPDATEDISPATCHER
  2
AmdtFormulaUpdateDispatcher
  3
AcMeServices
 90
     1024
280
     0
281
     0
  0
CLASS
  1
AMDTSECTIONSYM
  2
AmdtSectionSym
  3
"AcmSymBB|Product Description: AutoCAD Mechanical|Company: Autodesk, Inc."
 90
    36863
280
     0
281
     1
  0
CLASS
  1
AMDTSECTIONSYMLABEL
  2
AmdtSectionSymLabel
  3
"AcmSymBB|Product Description: AutoCAD Mechanical|Company: Autodesk, Inc."
 90
    36863
280
     0
281
     1
  0
CLASS
  1
AMDTDETAILSYM
  2
AmdtDetailSym
  3
"AcmSymBB|Product Description: AutoCAD Mechanical|Company: Autodesk, Inc."
 90
    36863
280
     0
281
     1
  0
CLASS
  1
AMDTDETAILSYMLABEL
  2
AmdtDetailSymLabel
  3
"AcmSymBB|Product Description: AutoCAD Mechanical|Company: Autodesk, Inc."
 90
    36863
280
     0
281
     1
  0
CLASS
  1
ACMBOM
  2
AcmBom
  3
"AcmSymBB|Product Description: AutoCAD Mechanical|Company: Autodesk, Inc."
 90
     1024
280
     0
281
     0
  0
CLASS
  1
ACMPARTLIST
  2
AcmPartList
  3
"AcmSymBB|Product Description: AutoCAD Mechanical|Company: Autodesk, Inc."
 90
     4095
280
     0
281
     1
  0
CLASS
  1
ACDBLINERES
  2
AcDbLineRes
  3
AcGrefServices
 90
    33792
280
     0
281
     0
  0
CLASS
  1
ACRFINSADJ
  2
AcRfInsAdjuster
  3
AcMeServices
 90
     1024
280
     0
281
     0
  0
CLASS
  1
DIMASSOC
  2
AcDbDimAssoc
  3
"AcDbDimAssoc|Product Desc:     AcDim ARX App For Dimension|Company:          Autodesk, Inc.|WEB Address:      www.autodesk.com"
 90
        0
280
     0
281
     0
  0
CLASS
  1
ACMDATAENTRYPART
  2
AcmDataEntryPart
  3
AcmSymBB|Product Description: AutoCAD Mechanical|Company: Autodesk, Inc.
 90
     1024
280
     0
281
     0
  0
CLASS
  1
ACMPARTREF
  2
AcmPartRef
  3
"AcmSymBB|Product Description: AutoCAD Mechanical|Company: Autodesk, Inc."
 90
     4095
280
     0
281
     1
  0
CLASS
  1
ACMBOMROW
  2
AcmBomRow
  3
"AcmSymBB|Product Description: AutoCAD Mechanical|Company: Autodesk, Inc."
 90
     1024
280
     0
281
     0
  0
CLASS
  1
ACMDATAENTRY
  2
AcmDataEntry
  3
AcmSymBB|Product Description: AutoCAD Mechanical|Company: Autodesk, Inc.
 90
     1024
280
     0
281
     0
  0
CLASS
  1
ACMBALLOON
  2
AcmBalloon
  3
"AcmSymBB|Product Description: AutoCAD Mechanical|Company: Autodesk, Inc."
 90
     4095
280
     0
281
     1
  0
CLASS
  1
MATERIAL
  2
AcDbMaterial
  3
ObjectDBX Classes
 90
     1153
280
     0
281
     0
  0
CLASS
  1
VISUALSTYLE
  2
AcDbVisualStyle
  3
ObjectDBX Classes
 90
     4095
280
     0
281
     0
  0
CLASS
  1
TABLESTYLE
  2
AcDbTableStyle
  3
ObjectDBX Classes
 90
     4095
280
     0
281
     0
  0
CLASS
  1
SCALE
  2
AcDbScale
  3
ObjectDBX Classes
 90
     1153
280
     0
281
     0
  0
CLASS
  1
MLEADERSTYLE
  2
AcDbMLeaderStyle
  3
ACDB_MLEADERSTYLE_CLASS
 90
     4095
280
     0
281
     0
  0
CLASS
  1
ACRFATTGENMGR
  2
AcRfAttGeneralMgr
  3
AcAttribServices
 90
     1024
280
     0
281
     0
  0
CLASS
  1
ACRFOBJATTMGR
  2
AcRfObjAttGroupMgr
  3
AcAttribServices
 90
     1024
280
     0
281
     0
  0
CLASS
  1
ACRFMCADAPIATTHOLDER
  2
AcRfMCADAPIAttHolder
  3
AcAttribServices
 90
     1024
280
     0
281
     0
  0
CLASS
  1
AMDTSYSATTR
  2
AmdtSystemAttribute
  3
AcAttribServices
 90
     1024
280
     0
281
     0
  0
CLASS
  1
ACMTAPERSTANDARDISO
  2
AcmTaperStdISO
  3
"Amdt_StdImp|Product Description: AutoCAD Mechanical|Company: Autodesk, Inc."
 90
     1024
280
     0
281
     0
  0
CLASS
  1
ACMANOOTATIONVIEWSTANDARDISO
  2
AmdtAnViewStdISO
  3
"Amdt_StdImp|Product Description: AutoCAD Mechanical|Company: Autodesk, Inc."
 90
     1024
280
     0
281
     0
  0
CLASS
  1
CAMSSTRUCTBTNSTATE
  2
StructBtnState
  3
DesignerAssemblies
 90
     1024
280
     0
281
     0
  0
CLASS
  1
SORTENTSTABLE
  2
AcDbSortentsTable
  3
ObjectDBX Classes
 90
        0
280
     0
281
     0
  0
CLASS
  1
ACDBOPPOLYLINERES
  2
AcDbOpPolylineRes
  3
AcGrefServices
 90
     1024
280
     0
281
     0
  0
CLASS
  1
CELLSTYLEMAP
  2
AcDbCellStyleMap
  3
ObjectDBX Classes
 90
     1152
280
     0
281
     0
  0
ENDSEC
  0
SECTION
  2
TABLES
  0
TABLE
  2
VPORT
  5
8
330
0
100
AcDbSymbolTable
 70
     1
  0
VPORT
  5
BCE
330
8
100
AcDbSymbolTableRecord
100
AcDbViewportTableRecord
  2
*Active
 70
     0
 10
0.0
 20
0.0
 11
1.0
 21
1.0
 12
96.50000044936314
 22
140.0000006519258
 13
0.0
 23
0.0
 14
2.5
 24
2.5
 15
10.0
 25
10.0
 16
0.0
 26
0.0
 36
1.0
 17
0.0
 27
0.0
 37
0.0
 40
281.8579355660425
 41
1.590668080593849
 42
50.0
 43
0.0
 44
0.0
 50
0.0
 51
0.0
 71
     0
 72
   100
 73
     1
 74
     3
 75
     0
 76
     0
 77
     0
 78
     0
281
     0
 65
     1
110
0.0
120
0.0
130
0.0
111
1.0
121
0.0
131
0.0
112
0.0
122
1.0
132
0.0
 79
     0
146
0.0
  0
ENDTAB
  0
TABLE
  2
LTYPE
  5
5
330
0
100
AcDbSymbolTable
 70
    21
  0
LTYPE
  5
14
330
5
100
AcDbSymbolTableRecord
100
AcDbLinetypeTableRecord
  2
ByBlock
 70
     0
  3

 72
    65
 73
     0
 40
0.0
  0
LTYPE
  5
15
330
5
100
AcDbSymbolTableRecord
100
AcDbLinetypeTableRecord
  2
ByLayer
 70
     0
  3

 72
    65
 73
     0
 40
0.0
  0
LTYPE
  5
16
330
5
100
AcDbSymbolTableRecord
100
AcDbLinetypeTableRecord
  2
Continuous
 70
     0
  3
Solid line
 72
    65
 73
     0
 40
0.0
  0
LTYPE
  5
64
330
5
100
AcDbSymbolTableRecord
100
AcDbLinetypeTableRecord
  2
AM_ISO02W050
 70
     0
  3
__ __ __ __ __ __ __ __ __ __ __ __ __ __ __
 72
    65
 73
     2
 40
7.5
 49
6.0
 74
     0
 49
-1.5
 74
     0
  0
LTYPE
  5
65
330
5
100
AcDbSymbolTableRecord
100
AcDbLinetypeTableRecord
  2
AM_ISO08W050
 70
     0
  3
____ . ____ . ____ . ____ . ____ . ____ . ____
 72
    65
 73
     4
 40
18.0
 49
12.0
 74
     0
 49
-1.5
 74
     0
 49
3.0
 74
     0
 49
-1.5
 74
     0
  0
LTYPE
  5
66
330
5
100
AcDbSymbolTableRecord
100
AcDbLinetypeTableRecord
  2
AM_ISO09W050
 70
     0
  3
_____ . . _____ . . _____ . . ____ .. ____
 72
    65
 73
     6
 40
22.5
 49
12.0
 74
     0
 49
-1.5
 74
     0
 49
3.0
 74
     0
 49
-1.5
 74
     0
 49
3.0
 74
     0
 49
-1.5
 74
     0
  0
LTYPE
  5
67
330
5
100
AcDbSymbolTableRecord
100
AcDbLinetypeTableRecord
  2
Amconstr
 70
     0
  3
_______________________
 72
    65
 73
     2
 40
9999.0
 49
9999.0
 74
     0
 49
0.0
 74
     0
  0
LTYPE
  5
68
330
5
100
AcDbSymbolTableRecord
100
AcDbLinetypeTableRecord
  2
AM_ISO08W050x2
 70
     0
  3
__ . __ . __ . __ . __ . __
 72
    65
 73
     4
 40
9.0
 49
6.0
 74
     0
 49
-0.75
 74
     0
 49
1.5
 74
     0
 49
-0.75
 74
     0
  0
LTYPE
  5
69
330
5
100
AcDbSymbolTableRecord
100
AcDbLinetypeTableRecord
  2
AM_ISO02W050x2
 70
     0
  3
 _ _ _ _ _ _ _ _ _ _ _ _
 72
    65
 73
     2
 40
3.75
 49
3.0
 74
     0
 49
-0.75
 74
     0
  0
LTYPE
  5
6C
330
5
100
AcDbSymbolTableRecord
100
AcDbLinetypeTableRecord
  2
Amzigzag
 70
     0
  3
/\/-/\/-/\/-/\/-/\/-/\/
 72
    65
 73
     2
 40
11.0001
 49
0.0001
 74
     4
 75
   135
340
6B
 46
0.04
 50
0.0
 44
0.0
 45
0.0
 49
-11.0
 74
     0
  0
LTYPE
  5
7A
330
5
100
AcDbSymbolTableRecord
100
AcDbLinetypeTableRecord
  2
ACISOWELD
 70
     0
  3
_ _ _ _ _
 72
    65
 73
     2
 40
2.0
 49
2.0
 74
     0
 49
-1.0
 74
     0
  0
LTYPE
  5
7B
330
5
100
AcDbSymbolTableRecord
100
AcDbLinetypeTableRecord
  2
ACISOTGB
 70
     0
  3
__ . . __ . .
 72
    65
 73
     6
 40
9.0
 49
4.0
 74
     0
 49
-1.0
 74
     0
 49
1.0
 74
     0
 49
-1.0
 74
     0
 49
1.0
 74
     0
 49
-1.0
 74
     0
  0
LTYPE
  5
7C
330
5
100
AcDbSymbolTableRecord
100
AcDbLinetypeTableRecord
  2
ACISOTGL
 70
     0
  3
_ _ _ _ _
 72
    65
 73
     2
 40
3.0
 49
2.0
 74
     0
 49
-1.0
 74
     0
  0
LTYPE
  5
7E
330
5
100
AcDbSymbolTableRecord
100
AcDbLinetypeTableRecord
  2
CENTER
 70
     0
  3
__ . __
 72
    65
 73
     4
 40
7.0
 49
4.0
 74
     0
 49
-1.0
 74
     0
 49
1.0
 74
     0
 49
-1.0
 74
     0
  0
LTYPE
  5
D8
330
5
100
AcDbSymbolTableRecord
100
AcDbLinetypeTableRecord
  2
HIDDEN
 70
     0
  3
Hidden __ __ __ __ __ __ __ __ __ __ __ __ __ _
 72
    65
 73
     2
 40
9.524999999999998
 49
6.349999999999999
 74
     0
 49
-3.174999999999999
 74
     0
  0
LTYPE
  5
D9
330
5
100
AcDbSymbolTableRecord
100
AcDbLinetypeTableRecord
  2
PHANTOM2
 70
     0
  3
Phantom (.5x) ___ _ _ ___ _ _ ___ _ _ ___ _ _
 72
    65
 73
     6
 40
31.75
 49
15.875
 74
     0
 49
-3.174999999999999
 74
     0
 49
3.174999999999999
 74
     0
 49
-3.174999999999999
 74
     0
 49
3.174999999999999
 74
     0
 49
-3.174999999999999
 74
     0
  0
LTYPE
  5
200
330
5
100
AcDbSymbolTableRecord
100
AcDbLinetypeTableRecord
  2
gen3
 70
     0
  3
-- -- -- -- -- -- -- -- -- -- -- -- -- -- --
 72
    65
 73
     2
 40
6.25
 49
4.75
 74
     0
 49
-1.5
 74
     0
  0
LTYPE
  5
201
330
5
100
AcDbSymbolTableRecord
100
AcDbLinetypeTableRecord
  2
gen7
 70
     0
  3
____ . ____ . ____ . ____ . ____ . ____ . ____
 72
    65
 73
     4
 40
13.75
 49
9.75
 74
     0
 49
-1.5
 74
     0
 49
1.0
 74
     0
 49
-1.5
 74
     0
  0
LTYPE
  5
202
330
5
100
AcDbSymbolTableRecord
100
AcDbLinetypeTableRecord
  2
gen3a
 70
     0
  3
 - - - - -
 72
    65
 73
     2
 40
3.125
 49
2.25
 74
     0
 49
-0.875
 74
     0
  0
LTYPE
  5
203
330
5
100
AcDbSymbolTableRecord
100
AcDbLinetypeTableRecord
  2
gen7a
 70
     0
  3
__ . __ . __
 72
    65
 73
     4
 40
6.875
 49
4.75
 74
     0
 49
-0.875
 74
     0
 49
0.375
 74
     0
 49
-0.875
 74
     0
  0
LTYPE
  5
204
330
5
100
AcDbSymbolTableRecord
100
AcDbLinetypeTableRecord
  2
gen4a
 70
     0
  3
_____ . . _____ . . _____ . . ____ .. ____
 72
    65
 73
     6
 40
16.25
 49
9.75
 74
     0
 49
-1.5
 74
     0
 49
1.0
 74
     0
 49
-1.5
 74
     0
 49
1.0
 74
     0
 49
-1.5
 74
     0
  0
LTYPE
  5
205
330
5
100
AcDbSymbolTableRecord
100
AcDbLinetypeTableRecord
  2
genzigzag
 70
     0
  3
/\/-/\/-/\/-/\/-/\/-/\/
 72
    65
 73
     2
 40
12.0001
 49
0.0001
 74
     4
 75
   135
340
208
 46
2.0
 50
0.0
 44
0.0
 45
0.0
 49
-12.0
 74
     0
  0
ENDTAB
  0
TABLE
  2
LAYER
  5
2
102
{ACAD_XDICTIONARY
360
35D
102
}
330
0
100
AcDbSymbolTable
 70
    12
  0
LAYER
  5
10
102
{ACAD_XDICTIONARY
360
C3C
102
}
330
2
100
AcDbSymbolTableRecord
100
AcDbLayerTableRecord
  2
0
 70
     0
 62
     7
  6
Continuous
370
    -3
390
F
  0
LAYER
  5
1E1
330
2
100
AcDbSymbolTableRecord
100
AcDbLayerTableRecord
  2
Defpoints
 70
     0
 62
     7
  6
Continuous
290
     0
370
    -3
390
F
  0
LAYER
  5
206
102
{ACAD_XDICTIONARY
360
C3E
102
}
330
2
100
AcDbSymbolTableRecord
100
AcDbLayerTableRecord
  2
RAHM2
 70
     0
 62
     1
  6
Continuous
370
    -3
390
F
  0
LAYER
  5
22C
102
{ACAD_XDICTIONARY
360
C40
102
}
330
2
100
AcDbSymbolTableRecord
100
AcDbLayerTableRecord
  2
7A
 70
     0
 62
     4
  6
gen7a
370
    -3
390
F
  0
LAYER
  5
307
102
{ACAD_XDICTIONARY
360
C42
102
}
330
2
100
AcDbSymbolTableRecord
100
AcDbLayerTableRecord
  2
AM_5
 70
     0
 62
     3
  6
Continuous
370
    18
390
F
  0
LAYER
  5
A1F
102
{ACAD_XDICTIONARY
360
C44
102
}
330
2
100
AcDbSymbolTableRecord
100
AcDbLayerTableRecord
  2
ﾍﾞﾙﾄｸﾘｯﾌﾟ
 70
     0
 62
     7
  6
Continuous
370
    50
390
F
  0
LAYER
  5
A20
102
{ACAD_XDICTIONARY
360
C46
102
}
330
2
100
AcDbSymbolTableRecord
100
AcDbLayerTableRecord
  2
ﾍﾞﾙﾄｸﾘｯﾌﾟ0
 70
     0
 62
     7
  6
AM_ISO02W050
370
    50
390
F
  0
LAYER
  5
E60
330
2
100
AcDbSymbolTableRecord
100
AcDbLayerTableRecord
  2
AM_7
 70
     0
 62
     4
  6
AM_ISO08W050
370
    25
390
F
1001
AcAecLayerStandard
1000

1000

  0
LAYER
  5
1240
330
2
100
AcDbSymbolTableRecord
100
AcDbLayerTableRecord
  2
AM_12
 70
     0
 62
     7
  6
Continuous
290
     0
370
    50
390
F
1001
AcAecLayerStandard
1000

1000

  0
LAYER
  5
1241
330
2
100
AcDbSymbolTableRecord
100
AcDbLayerTableRecord
  2
AM_PAREF
 70
     0
 62
     4
  6
Continuous
290
     0
370
    25
390
F
1001
AcAecLayerStandard
1000

1000

  0
ENDTAB
  0
TABLE
  2
STYLE
  5
3
330
0
100
AcDbSymbolTable
 70
    10
  0
STYLE
  5
11
330
3
100
AcDbSymbolTableRecord
100
AcDbTextStyleTableRecord
  2
STANDARD
 70
     0
 40
0.0
 41
1.0
 50
0.0
 71
     0
 42
73.98571745357912
  3
ISOCP.SHX
  4
bigfont.shx
  0
STYLE
  5
6B
330
3
100
AcDbSymbolTableRecord
100
AcDbTextStyleTableRecord
  2

 70
     1
 40
0.0
 41
1.0
 50
0.0
 71
     0
 42
2.5
  3
ltypeshp.shx
  4

  0
STYLE
  5
6D
330
3
100
AcDbSymbolTableRecord
100
AcDbTextStyleTableRecord
  2
ACISOTS
 70
     0
 40
1.0
 41
1.0
 50
0.0
 71
     0
 42
2.5
  3
isocp.shx
  4
extfont.shx
  0
STYLE
  5
79
330
3
100
AcDbSymbolTableRecord
100
AcDbTextStyleTableRecord
  2
ACISOGDT
 70
     0
 40
0.0
 41
1.0
 50
0.0
 71
     0
 42
2.5
  3
amgdt.shx
  4

  0
STYLE
  5
133
330
3
100
AcDbSymbolTableRecord
100
AcDbTextStyleTableRecord
  2
USER1
 70
     0
 40
0.0
 41
1.0
 50
0.0
 71
     0
 42
2.5
  3
TXT.SHX
  4

  0
STYLE
  5
134
330
3
100
AcDbSymbolTableRecord
100
AcDbTextStyleTableRecord
  2
USER2
 70
     0
 40
0.0
 41
1.0
 50
0.0
 71
     0
 42
2.5
  3
SIMPLEX.SHX
  4

  0
STYLE
  5
135
330
3
100
AcDbSymbolTableRecord
100
AcDbTextStyleTableRecord
  2
USER3
 70
     0
 40
0.0
 41
1.0
 50
0.0
 71
     0
 42
2.5
  3
ITALIC.SHX
  4

  0
STYLE
  5
1F8
330
3
100
AcDbSymbolTableRecord
100
AcDbTextStyleTableRecord
  2
ACJISTS
 70
     0
 40
1.0
 41
1.0
 50
0.0
 71
     0
 42
2.5
  3
isocp.shx
  4
bigfont.shx
  0
STYLE
  5
1F9
330
3
100
AcDbSymbolTableRecord
100
AcDbTextStyleTableRecord
  2
ACJISGDT
 70
     0
 40
0.0
 41
1.0
 50
0.0
 71
     0
 42
2.5
  3
amgdt.shx
  4

  0
STYLE
  5
208
330
3
100
AcDbSymbolTableRecord
100
AcDbTextStyleTableRecord
  2

 70
     1
 40
0.0
 41
1.0
 50
0.0
 71
     0
 42
2.5
  3
genltshp.shx
  4

  0
ENDTAB
  0
TABLE
  2
VIEW
  5
6
330
0
100
AcDbSymbolTable
 70
     9
  0
VIEW
  5
291
330
6
100
AcDbSymbolTableRecord
100
AcDbViewTableRecord
  2
AM_VIEW1
 70
     0
 40
140.0
 10
111.3029661016949
 20
210.0
 41
222.6059322033899
 11
0.0
 21
0.0
 31
1.0
 12
0.0
 22
0.0
 32
0.0
 42
50.0
 43
0.0
 44
0.0
 50
0.0
 71
     0
281
     0
 72
     0
  0
VIEW
  5
292
330
6
100
AcDbSymbolTableRecord
100
AcDbViewTableRecord
  2
AM_VIEW2
 70
     0
 40
140.0
 10
81.69703389830507
 20
210.0
 41
222.6059322033899
 11
0.0
 21
0.0
 31
1.0
 12
0.0
 22
0.0
 32
0.0
 42
50.0
 43
0.0
 44
0.0
 50
0.0
 71
     0
281
     0
 72
     0
  0
VIEW
  5
293
330
6
100
AcDbSymbolTableRecord
100
AcDbViewTableRecord
  2
AM_VIEW3
 70
     0
 40
140.0
 10
111.3029661016949
 20
70.00000000000001
 41
222.6059322033899
 11
0.0
 21
0.0
 31
1.0
 12
0.0
 22
0.0
 32
0.0
 42
50.0
 43
0.0
 44
0.0
 50
0.0
 71
     0
281
     0
 72
     0
  0
VIEW
  5
294
330
6
100
AcDbSymbolTableRecord
100
AcDbViewTableRecord
  2
AM_VIEW4
 70
     0
 40
140.0
 10
81.69703389830507
 20
70.00000000000001
 41
222.6059322033899
 11
0.0
 21
0.0
 31
1.0
 12
0.0
 22
0.0
 32
0.0
 42
50.0
 43
0.0
 44
0.0
 50
0.0
 71
     0
281
     0
 72
     0
  0
VIEW
  5
295
330
6
100
AcDbSymbolTableRecord
100
AcDbViewTableRecord
  2
AM_VIEW5
 70
     0
 40
140.0
 10
96.5
 20
140.0
 41
222.6059322033899
 11
0.0
 21
0.0
 31
1.0
 12
0.0
 22
0.0
 32
0.0
 42
50.0
 43
0.0
 44
0.0
 50
0.0
 71
     0
281
     0
 72
     0
  0
VIEW
  5
296
330
6
100
AcDbSymbolTableRecord
100
AcDbViewTableRecord
  2
AM_VIEW6
 70
     0
 40
279.9972000000001
 10
96.49999999999998
 20
140.0
 41
445.2074122881356
 11
0.0
 21
0.0
 31
1.0
 12
0.0
 22
0.0
 32
0.0
 42
50.0
 43
0.0
 44
0.0
 50
0.0
 71
     0
281
     0
 72
     0
  0
ENDTAB
  0
TABLE
  2
UCS
  5
7
330
0
100
AcDbSymbolTable
 70
     0
  0
ENDTAB
  0
TABLE
  2
APPID
  5
9
330
0
100
AcDbSymbolTable
 70
    44
  0
APPID
  5
12
330
9
100
AcDbSymbolTableRecord
100
AcDbRegAppTableRecord
  2
ACAD
 70
     0
  0
APPID
  5
46
330
9
100
AcDbSymbolTableRecord
100
AcDbRegAppTableRecord
  2
MCAD_NO_VIS
 70
     0
  0
APPID
  5
47
330
9
100
AcDbSymbolTableRecord
100
AcDbRegAppTableRecord
  2
ACAD_TEMP_GRAPHIC
 70
     0
  0
APPID
  5
58
330
9
100
AcDbSymbolTableRecord
100
AcDbRegAppTableRecord
  2
ACATTRIBSERVICES
 70
     0
  0
APPID
  5
EE
330
9
100
AcDbSymbolTableRecord
100
AcDbRegAppTableRecord
  2
AD_DRAW
 70
     0
  0
APPID
  5
10C
330
9
100
AcDbSymbolTableRecord
100
AcDbRegAppTableRecord
  2
DESIGNERASSEMBLIES
 70
     0
  0
APPID
  5
111
330
9
100
AcDbSymbolTableRecord
100
AcDbRegAppTableRecord
  2
ACADM_DIM_EDIT
 70
     0
  0
APPID
  5
112
330
9
100
AcDbSymbolTableRecord
100
AcDbRegAppTableRecord
  2
AMDT_DM_ADJ
 70
     0
  0
APPID
  5
1E2
330
9
100
AcDbSymbolTableRecord
100
AcDbRegAppTableRecord
  2
GENIUS_GENREC_14
 70
     0
  0
APPID
  5
1E3
330
9
100
AcDbSymbolTableRecord
100
AcDbRegAppTableRecord
  2
GENIUS_GENODEF_13
 70
     0
  0
APPID
  5
1E4
330
9
100
AcDbSymbolTableRecord
100
AcDbRegAppTableRecord
  2
GENIUS_GENOBJ-N-REC_13
 70
     0
  0
APPID
  5
1E5
330
9
100
AcDbSymbolTableRecord
100
AcDbRegAppTableRecord
  2
GENIUS_GENDIMSH_14
 70
     0
  0
APPID
  5
1E6
330
9
100
AcDbSymbolTableRecord
100
AcDbRegAppTableRecord
  2
GENIUS_GENCFG_13
 70
     0
  0
APPID
  5
1E7
330
9
100
AcDbSymbolTableRecord
100
AcDbRegAppTableRecord
  2
GENIUS_GENCFG0_13
 70
     0
  0
APPID
  5
1E8
330
9
100
AcDbSymbolTableRecord
100
AcDbRegAppTableRecord
  2
GENIUS_GENCFG1_13
 70
     0
  0
APPID
  5
1E9
330
9
100
AcDbSymbolTableRecord
100
AcDbRegAppTableRecord
  2
GENIUS_GENCFG2_13
 70
     0
  0
APPID
  5
1EA
330
9
100
AcDbSymbolTableRecord
100
AcDbRegAppTableRecord
  2
GENIUS_GENCFG3_13
 70
     0
  0
APPID
  5
1EB
330
9
100
AcDbSymbolTableRecord
100
AcDbRegAppTableRecord
  2
GENIUS_GENCFG4_13
 70
     0
  0
APPID
  5
1EC
330
9
100
AcDbSymbolTableRecord
100
AcDbRegAppTableRecord
  2
GENIUS_GEVCFG0_13
 70
     0
  0
APPID
  5
1ED
330
9
100
AcDbSymbolTableRecord
100
AcDbRegAppTableRecord
  2
GENIUS_GENOENT_13
 70
     0
  0
APPID
  5
1EE
330
9
100
AcDbSymbolTableRecord
100
AcDbRegAppTableRecord
  2
GENIUS_GENOBJ-N-CRS_13
 70
     0
  0
APPID
  5
1EF
330
9
100
AcDbSymbolTableRecord
100
AcDbRegAppTableRecord
  2
GENIUS_GENOREF_13
 70
     0
  0
APPID
  5
1F0
330
9
100
AcDbSymbolTableRecord
100
AcDbRegAppTableRecord
  2
GENIUS_GENOLIS_13
 70
     0
  0
APPID
  5
1F1
330
9
100
AcDbSymbolTableRecord
100
AcDbRegAppTableRecord
  2
GENIUS_GENOBJ-N-TIT_13
 70
     0
  0
APPID
  5
1F2
330
9
100
AcDbSymbolTableRecord
100
AcDbRegAppTableRecord
  2
GENIUS_GENTITLE_13
 70
     0
  0
APPID
  5
1F3
330
9
100
AcDbSymbolTableRecord
100
AcDbRegAppTableRecord
  2
GENIUS_GENSCREG_15
 70
     0
  0
APPID
  5
1F4
330
9
100
AcDbSymbolTableRecord
100
AcDbRegAppTableRecord
  2
GENIUS_GENOBJ-N-SDF_13
 70
     0
  0
APPID
  5
1F5
330
9
100
AcDbSymbolTableRecord
100
AcDbRegAppTableRecord
  2
GENIUS_GENOBJ-N-CEN_13
 70
     0
  0
APPID
  5
1F6
330
9
100
AcDbSymbolTableRecord
100
AcDbRegAppTableRecord
  2
GENIUS_GENOBJ-N-HTC_13
 70
     0
  0
APPID
  5
1F7
330
9
100
AcDbSymbolTableRecord
100
AcDbRegAppTableRecord
  2
GENIUS_GENHATCH_13
 70
     0
  0
APPID
  5
484
330
9
100
AcDbSymbolTableRecord
100
AcDbRegAppTableRecord
  2
GENIUS_GENOBJ-N-ZOO_13
 70
     0
  0
APPID
  5
485
330
9
100
AcDbSymbolTableRecord
100
AcDbRegAppTableRecord
  2
GENIUS_GENZOO_17
 70
     0
  0
APPID
  5
9F9
330
9
100
AcDbSymbolTableRecord
100
AcDbRegAppTableRecord
  2
GEV_VCCNULL_SWITCH_OFF
 70
     0
  0
APPID
  5
9FA
330
9
100
AcDbSymbolTableRecord
100
AcDbRegAppTableRecord
  2
GENIUS_GENDTOL_13
 70
     0
  0
APPID
  5
A21
330
9
100
AcDbSymbolTableRecord
100
AcDbRegAppTableRecord
  2
GENIUS_GENOBJ-N-FIL_13
 70
     0
  0
APPID
  5
D96
330
9
100
AcDbSymbolTableRecord
100
AcDbRegAppTableRecord
  2
AcAecLayerStandard
 70
     0
  0
APPID
  5
E62
330
9
100
AcDbSymbolTableRecord
100
AcDbRegAppTableRecord
  2
GENIUS_GENCEN_19
 70
     0
  0
APPID
  5
F33
330
9
100
AcDbSymbolTableRecord
100
AcDbRegAppTableRecord
  2
ACAD_EXEMPT_FROM_CAD_STANDARDS
 70
     0
  0
APPID
  5
F3A
330
9
100
AcDbSymbolTableRecord
100
AcDbRegAppTableRecord
  2
ACAD_DSTYLE_DIMBREAK
 70
     0
  0
APPID
  5
F3B
330
9
100
AcDbSymbolTableRecord
100
AcDbRegAppTableRecord
  2
ACAD_DSTYLE_DIMJAG
 70
     0
  0
APPID
  5
F5A
330
9
100
AcDbSymbolTableRecord
100
AcDbRegAppTableRecord
  2
ACAD_DSTYLE_DIMINSPECT
 70
     0
  0
APPID
  5
108A
330
9
100
AcDbSymbolTableRecord
100
AcDbRegAppTableRecord
  2
ACAD_DSTYLE_DIMRADIAL_EXTENSION
 70
     0
  0
APPID
  5
1366
330
9
100
AcDbSymbolTableRecord
100
AcDbRegAppTableRecord
  2
ACAD_PSEXT
 70
     0
  0
APPID
  5
1E14
330
9
100
AcDbSymbolTableRecord
100
AcDbRegAppTableRecord
  2
ACAD_MLEADERVER
 70
     0
  0
ENDTAB
  0
TABLE
  2
DIMSTYLE
  5
A
330
0
100
AcDbSymbolTable
 70
    18
100
AcDbDimStyleTable
 71
     5
340
81
340
27
340
20D
340
20F
340
20E
  0
DIMSTYLE
105
27
330
A
100
AcDbSymbolTableRecord
100
AcDbDimStyleTableRecord
  2
ISO-25
 70
     0
 41
2.5
 42
0.625
 43
3.75
 44
1.25
 73
     0
 74
     0
 77
     1
 78
     8
140
2.5
141
2.5
143
0.03937007874016
147
0.625
171
     3
172
     1
271
     2
272
     2
274
     3
278
    44
283
     0
284
     8
340
11
341
407
342
407
  0
DIMSTYLE
105
81
330
A
100
AcDbSymbolTableRecord
100
AcDbDimStyleTableRecord
  2
AM_ISO
 70
     0
  4
"
 41
2.5
 42
1.0
 43
10.0
 44
1.0
 47
0.1
 48
0.1
 73
     0
 74
     0
 77
     1
 78
     8
 79
     2
140
3.5
141
0.0
143
0.0393701
146
0.71
147
1.5
172
     1
176
   256
177
   256
178
     2
271
     2
272
     2
283
     0
284
     8
340
11
341
407
342
407
371
    -1
372
    -1
  0
DIMSTYLE
105
82
102
{ACAD_REACTORS
330
1AC7
330
1AF3
102
}
330
A
100
AcDbSymbolTableRecord
100
AcDbDimStyleTableRecord
  2
AM_ISO$3
 70
     0
  4
"
 41
2.5
 42
1.0
 43
10.0
 44
1.0
 47
0.1
 48
0.1
 73
     0
 77
     1
 78
     8
 79
     2
140
3.5
141
0.0
143
0.0393701
146
0.71
147
1.5
176
   256
177
   256
178
     2
271
     2
272
     2
283
     0
284
     8
288
     1
289
     0
340
11
341
407
342
407
371
    -1
372
    -1
  0
DIMSTYLE
105
83
102
{ACAD_REACTORS
330
1BED
330
1C6E
330
1C95
102
}
330
A
100
AcDbSymbolTableRecord
100
AcDbDimStyleTableRecord
  2
AM_ISO$4
 70
     0
  4
"
 41
2.5
 42
1.0
 43
10.0
 44
1.0
 47
0.1
 48
0.1
 73
     0
 77
     1
 78
     8
 79
     2
140
3.5
141
0.0
143
0.0393701
146
0.71
147
1.5
176
   256
177
   256
178
     2
271
     2
272
     2
283
     0
284
     8
288
     1
289
     0
340
11
341
407
342
407
371
    -1
372
    -1
  0
DIMSTYLE
105
84
330
A
100
AcDbSymbolTableRecord
100
AcDbDimStyleTableRecord
  2
AM_ISO$6
 70
     0
  4
"
 41
2.5
 42
1.0
 43
10.0
 44
1.0
 47
0.1
 48
0.1
 73
     0
 74
     0
 78
     8
 79
     2
140
3.5
141
0.0
143
0.0393701
146
0.71
147
1.5
172
     1
176
   256
177
   256
178
     2
271
     2
272
     2
283
     0
284
     8
340
11
341
407
342
407
371
    -1
372
    -1
  0
DIMSTYLE
105
85
330
A
100
AcDbSymbolTableRecord
100
AcDbDimStyleTableRecord
  2
AM_ISO$7
 70
     0
  4
"
 41
2.5
 42
1.0
 43
10.0
 44
1.0
 47
0.1
 48
0.1
 73
     0
 74
     0
 77
     1
 78
     8
 79
     2
140
5.0
141
0.0
143
0.0393701
146
0.71
147
1.5
172
     1
176
   256
177
   256
178
     2
271
     2
272
     2
283
     0
284
     8
340
11
341
407
342
407
371
    -1
372
    -1
  0
DIMSTYLE
105
86
330
A
100
AcDbSymbolTableRecord
100
AcDbDimStyleTableRecord
  2
AM_ISO$SF
 70
     0
  4
"
 41
2.5
 42
1.0
 43
10.0
 44
1.0
 47
0.1
 48
0.1
 73
     0
 74
     0
 75
     1
 76
     1
 77
     1
 78
     8
 79
     2
140
3.5
141
0.0
143
0.0393701
146
0.71
147
1.5
172
     1
176
   256
177
   256
178
     2
271
     2
272
     2
283
     0
284
     8
340
11
341
407
342
407
371
    -1
372
    -1
  0
DIMSTYLE
105
8B
330
A
100
AcDbSymbolTableRecord
100
AcDbDimStyleTableRecord
  2
AM_ISO$SH
 70
     0
  4
"
 41
2.5
 42
1.0
 43
10.0
 44
1.0
 47
0.1
 48
0.1
 73
     0
 74
     0
 75
     1
 76
     1
 77
     1
 78
     8
 79
     2
140
3.5
141
0.0
143
0.0393701
144
2.0
146
0.71
147
1.5
172
     1
173
     1
176
   256
177
   256
178
     2
271
     2
272
     2
283
     0
284
     8
340
11
341
407
343
87
344
407
371
    -1
372
    -1
  0
DIMSTYLE
105
209
330
A
100
AcDbSymbolTableRecord
100
AcDbDimStyleTableRecord
  2
GEN-ISO
 70
     0
  4
"
 41
2.5
 42
1.0
 43
10.0
 44
1.0
 47
0.1
 48
0.1
 73
     0
 74
     0
 77
     1
 78
     8
140
3.5
141
0.0
143
0.0393701
146
0.71
147
1.5
172
     1
176
   256
177
   256
178
     2
271
     2
272
     2
283
     0
340
11
341
407
342
407
  0
DIMSTYLE
105
20A
330
A
100
AcDbSymbolTableRecord
100
AcDbDimStyleTableRecord
  2
GEN-ISO$3
 70
     0
  4
"
 41
2.5
 42
1.0
 43
10.0
 44
1.0
 47
0.1
 48
0.1
 73
     0
 77
     1
 78
     8
140
3.5
141
0.0
143
0.0393701
146
0.71
147
1.5
176
   256
177
   256
178
     2
271
     2
272
     2
283
     0
288
     1
289
     0
340
11
341
407
342
407
  0
DIMSTYLE
105
20B
330
A
100
AcDbSymbolTableRecord
100
AcDbDimStyleTableRecord
  2
GEN-ISO$4
 70
     0
  4
"
 41
2.5
 42
1.0
 43
10.0
 44
1.0
 47
0.1
 48
0.1
 73
     0
 77
     1
 78
     8
140
3.5
141
0.0
143
0.0393701
146
0.71
147
1.5
176
   256
177
   256
178
     2
271
     2
272
     2
283
     0
288
     1
289
     0
340
11
341
407
342
407
  0
DIMSTYLE
105
20C
330
A
100
AcDbSymbolTableRecord
100
AcDbDimStyleTableRecord
  2
GEN-ISO$6
 70
     0
  4
"
 41
2.5
 42
1.0
 43
10.0
 44
1.0
 47
0.1
 48
0.1
 73
     0
 74
     0
 78
     8
140
3.5
141
0.0
143
0.0393701
146
0.71
147
1.5
176
   256
177
   256
178
     2
271
     2
272
     2
283
     0
340
11
341
407
342
407
  0
DIMSTYLE
105
20D
330
A
100
AcDbSymbolTableRecord
100
AcDbDimStyleTableRecord
  2
GEN-ISO-POS
 70
     0
  4
"
 41
2.5
 42
1.0
 43
10.0
 44
1.0
 47
0.1
 48
0.1
 73
     0
 74
     0
 78
     8
140
5.0
141
0.0
143
0.0393701
146
0.71
147
1.5
176
   256
177
   256
178
     2
271
     2
272
     2
283
     0
340
11
341
407
342
407
  0
DIMSTYLE
105
20E
330
A
100
AcDbSymbolTableRecord
100
AcDbDimStyleTableRecord
  2
GEN-ISO-AXE-F
 70
     0
  4
"
 41
2.5
 42
1.0
 43
10.0
 44
1.0
 47
0.1
 48
0.1
 73
     0
 74
     0
 75
     1
 76
     1
 77
     1
 78
     8
140
3.5
141
0.0
143
0.0393701
146
0.71
147
1.5
172
     1
176
   256
177
   256
178
     2
271
     2
272
     2
283
     0
340
11
341
407
342
407
  0
DIMSTYLE
105
20F
330
A
100
AcDbSymbolTableRecord
100
AcDbDimStyleTableRecord
  2
GEN-ISO-AXE-H
 70
     0
  4
"
 41
2.5
 42
1.0
 43
10.0
 44
1.0
 47
0.1
 48
0.1
 73
     0
 74
     0
 75
     1
 76
     1
 77
     1
 78
     8
140
3.5
141
0.0
143
0.0393701
144
2.0
146
0.71
147
1.5
172
     1
176
   256
177
   256
178
     2
271
     2
272
     2
283
     0
340
11
341
407
342
407
  0
DIMSTYLE
105
C50
330
A
100
AcDbSymbolTableRecord
100
AcDbDimStyleTableRecord
  2
AM_ANSI
 70
     0
  4
mm
 41
0.1
 42
0.05
 43
0.5
 44
0.1
 47
0.1
 48
0.1
 78
     7
 79
     2
140
0.12
141
0.0
146
0.71
147
0.06
176
   256
177
   256
178
     2
274
     4
284
     7
340
11
371
    -1
372
    -1
  0
DIMSTYLE
105
F3C
102
{ACAD_REACTORS
330
187F
330
18A6
330
18D0
330
18F1
330
1912
330
1986
330
19C3
330
19E4
330
1A0E
330
1A38
330
1A59
330
1B13
330
1B71
102
}
330
A
100
AcDbSymbolTableRecord
100
AcDbDimStyleTableRecord
  2
AM_ISO$0
 70
     0
  4
"
 41
2.5
 42
1.0
 43
10.0
 44
1.0
 47
0.1
 48
0.1
 73
     0
 74
     0
 77
     1
 78
     8
 79
     2
140
3.5
141
0.0
143
0.0393701
146
0.71
147
1.5
172
     1
176
   256
177
   256
178
     2
271
     2
272
     2
283
     0
284
     8
340
11
341
407
342
407
371
    -1
372
    -1
1001
ACAD_DSTYLE_DIMBREAK
1070
   391
1040
3.75
1001
ACAD_DSTYLE_DIMJAG
1070
   388
1040
1.5
  0
ENDTAB
  0
TABLE
  2
BLOCK_RECORD
  5
1
330
0
100
AcDbSymbolTable
 70
    61
  0
BLOCK_RECORD
  5
1F
102
{ACAD_XDICTIONARY
360
8F
102
}
330
1
100
AcDbSymbolTableRecord
100
AcDbBlockTableRecord
  2
*Model_Space
340
22
  0
BLOCK_RECORD
  5
23
330
1
100
AcDbSymbolTableRecord
100
AcDbBlockTableRecord
  2
*Paper_Space
340
26
  0
BLOCK_RECORD
  5
1B
330
1
100
AcDbSymbolTableRecord
100
AcDbBlockTableRecord
  2
*Paper_Space0
340
1E
  0
BLOCK_RECORD
  5
87
330
1
100
AcDbSymbolTableRecord
100
AcDbBlockTableRecord
  2
GENAXEH
340
0
  0
BLOCK_RECORD
  5
407
330
1
100
AcDbSymbolTableRecord
100
AcDbBlockTableRecord
  2
_Open30
340
0
102
{BLKREFS
331
1CC3
331
1CC4
331
1CCC
331
1CCD
331
1CD5
331
1CD6
331
1CDE
331
1CDF
331
1CE7
331
1CE8
331
1CF2
331
1CF3
331
1CFB
331
1CFC
331
1D04
331
1D05
331
1D0D
331
1D0E
331
1D16
331
1D17
331
1D5E
331
1D5F
331
1D66
331
1D6D
331
1D6E
331
1D75
331
1D7B
331
1D81
331
1D87
331
1D90
331
1D91
102
}
  0
BLOCK_RECORD
  5
8B9
102
{ACAD_XDICTIONARY
360
8C2
102
}
330
1
100
AcDbSymbolTableRecord
100
AcDbBlockTableRecord
  2
TAKACHI-A3
340
0
  0
BLOCK_RECORD
  5
8CE
102
{ACAD_XDICTIONARY
360
923
102
}
330
1
100
AcDbSymbolTableRecord
100
AcDbBlockTableRecord
  2
TAKACHI-TITLE
340
0
  0
BLOCK_RECORD
  5
9FB
102
{ACAD_XDICTIONARY
360
A07
102
}
330
1
100
AcDbSymbolTableRecord
100
AcDbBlockTableRecord
  2
TAKACHI-A4
340
0
  0
BLOCK_RECORD
  5
C51
102
{ACAD_XDICTIONARY
360
C59
102
}
330
1
100
AcDbSymbolTableRecord
100
AcDbBlockTableRecord
  2
TK-A4
340
0
102
{BLKREFS
331
A11
102
}
  0
BLOCK_RECORD
  5
C61
102
{ACAD_XDICTIONARY
360
CBA
102
}
330
1
100
AcDbSymbolTableRecord
100
AcDbBlockTableRecord
  2
TK-製作図面
340
0
  0
BLOCK_RECORD
  5
1284
102
{ACAD_XDICTIONARY
360
12AD
102
}
330
1
100
AcDbSymbolTableRecord
100
AcDbBlockTableRecord
  2
TK-仕様書
340
0
102
{BLKREFS
331
A13
102
}
  0
BLOCK_RECORD
  5
1880
330
1
100
AcDbSymbolTableRecord
100
AcDbBlockTableRecord
  2
*D36
340
0
  0
BLOCK_RECORD
  5
18A7
330
1
100
AcDbSymbolTableRecord
100
AcDbBlockTableRecord
  2
*D37
340
0
  0
BLOCK_RECORD
  5
18D1
330
1
100
AcDbSymbolTableRecord
100
AcDbBlockTableRecord
  2
*D38
340
0
  0
BLOCK_RECORD
  5
18F2
330
1
100
AcDbSymbolTableRecord
100
AcDbBlockTableRecord
  2
*D39
340
0
  0
BLOCK_RECORD
  5
1913
330
1
100
AcDbSymbolTableRecord
100
AcDbBlockTableRecord
  2
*D40
340
0
  0
BLOCK_RECORD
  5
1987
330
1
100
AcDbSymbolTableRecord
100
AcDbBlockTableRecord
  2
*D43
340
0
  0
BLOCK_RECORD
  5
19C4
330
1
100
AcDbSymbolTableRecord
100
AcDbBlockTableRecord
  2
*D44
340
0
  0
BLOCK_RECORD
  5
19E5
330
1
100
AcDbSymbolTableRecord
100
AcDbBlockTableRecord
  2
*D45
340
0
  0
BLOCK_RECORD
  5
1A0F
330
1
100
AcDbSymbolTableRecord
100
AcDbBlockTableRecord
  2
*D46
340
0
  0
BLOCK_RECORD
  5
1A39
330
1
100
AcDbSymbolTableRecord
100
AcDbBlockTableRecord
  2
*D47
340
0
  0
BLOCK_RECORD
  5
1A5A
330
1
100
AcDbSymbolTableRecord
100
AcDbBlockTableRecord
  2
*D48
340
0
  0
BLOCK_RECORD
  5
1AC8
330
1
100
AcDbSymbolTableRecord
100
AcDbBlockTableRecord
  2
*D50
340
0
  0
BLOCK_RECORD
  5
1AF4
330
1
100
AcDbSymbolTableRecord
100
AcDbBlockTableRecord
  2
*D51
340
0
  0
BLOCK_RECORD
  5
1B14
330
1
100
AcDbSymbolTableRecord
100
AcDbBlockTableRecord
  2
*D52
340
0
  0
BLOCK_RECORD
  5
1B72
330
1
100
AcDbSymbolTableRecord
100
AcDbBlockTableRecord
  2
*D53
340
0
  0
BLOCK_RECORD
  5
1BEE
330
1
100
AcDbSymbolTableRecord
100
AcDbBlockTableRecord
  2
*D54
340
0
  0
BLOCK_RECORD
  5
1C6F
330
1
100
AcDbSymbolTableRecord
100
AcDbBlockTableRecord
  2
*D56
340
0
  0
BLOCK_RECORD
  5
1C96
330
1
100
AcDbSymbolTableRecord
100
AcDbBlockTableRecord
  2
*D57
340
0
  0
BLOCK_RECORD
  5
1DA4
330
1
100
AcDbSymbolTableRecord
100
AcDbBlockTableRecord
  2
*S58
340
0
  0
BLOCK_RECORD
  5
1DAB
330
1
100
AcDbSymbolTableRecord
100
AcDbBlockTableRecord
  2
*S59
340
0
  0
BLOCK_RECORD
  5
1DC9
330
1
100
AcDbSymbolTableRecord
100
AcDbBlockTableRecord
  2
*S60
340
0
  0
ENDTAB
  0
ENDSEC
  0
SECTION
  2
BLOCKS
  0
BLOCK
  5
20
330
1F
100
AcDbEntity
  8
0
100
AcDbBlockBegin
  2
*Model_Space
 70
     0
 10
0.0
 20
0.0
 30
0.0
  3
*Model_Space
  1

  0
ENDBLK
  5
21
330
1F
100
AcDbEntity
  8
0
100
AcDbBlockEnd
  0
BLOCK
  5
24
330
23
100
AcDbEntity
 67
     1
  8
0
100
AcDbBlockBegin
  2
*Paper_Space
 70
     0
 10
0.0
 20
0.0
 30
0.0
  3
*Paper_Space
  1

  0
ENDBLK
  5
25
330
23
100
AcDbEntity
 67
     1
  8
0
100
AcDbBlockEnd
  0
BLOCK
  5
1C
330
1B
100
AcDbEntity
 67
     1
  8
0
100
AcDbBlockBegin
  2
*Paper_Space0
 70
     0
 10
0.0
 20
0.0
 30
0.0
  3
*Paper_Space0
  1

  0
VIEWPORT
  5
178
102
{ACAD_XDICTIONARY
360
1DDC
102
}
330
1B
100
AcDbEntity
 67
     1
  8
0
100
AcDbViewport
 10
133.3499908447265
 20
101.5999970436096
 30
0.0
 40
370.2266912936524
 41
228.4221935424805
 68
     0
 69
     0
 12
133.3499908447265
 22
101.5999970436096
 13
0.0
 23
0.0
 14
10.0
 24
10.0
 15
10.0
 25
10.0
 16
0.0
 26
0.0
 36
1.0
 17
0.0
 27
0.0
 37
0.0
 42
50.0
 43
0.0
 44
0.0
 45
228.4221935424805
 50
0.0
 51
0.0
 72
   100
 90
    32800
  1

281
     0
 71
     1
 74
     0
110
0.0
120
0.0
130
0.0
111
1.0
121
0.0
131
0.0
112
0.0
122
1.0
132
0.0
 79
     0
146
0.0
  0
ENDBLK
  5
1D
330
1B
100
AcDbEntity
 67
     1
  8
0
100
AcDbBlockEnd
  0
BLOCK
  5
89
330
87
100
AcDbEntity
  8
0
100
AcDbBlockBegin
  2
GENAXEH
 70
     0
 10
0.0
 20
0.0
 30
0.0
  3
GENAXEH
  1

  0
LINE
  5
88
330
87
100
AcDbEntity
  8
0
100
AcDbLine
 10
-1.0
 20
0.0
 30
0.0
 11
1.0
 21
0.0
 31
0.0
  0
ENDBLK
  5
8A
330
87
100
AcDbEntity
  8
0
100
AcDbBlockEnd
  0
BLOCK
  5
40B
330
407
100
AcDbEntity
  8
0
100
AcDbBlockBegin
  2
_Open30
 70
     0
 10
0.0
 20
0.0
 30
0.0
  3
_Open30
  1

  0
LINE
  5
408
330
407
100
AcDbEntity
  8
0
  6
ByBlock
 62
     0
370
    -2
100
AcDbLine
 10
-1.0
 20
0.26794919
 30
0.0
 11
0.0
 21
0.0
 31
0.0
  0
LINE
  5
409
330
407
100
AcDbEntity
  8
0
  6
ByBlock
 62
     0
370
    -2
100
AcDbLine
 10
0.0
 20
0.0
 30
0.0
 11
-1.0
 21
-0.26794919
 31
0.0
  0
LINE
  5
40A
330
407
100
AcDbEntity
  8
0
  6
ByBlock
 62
     0
370
    -2
100
AcDbLine
 10
0.0
 20
0.0
 30
0.0
 11
-1.0
 21
0.0
 31
0.0
  0
ENDBLK
  5
40C
330
407
100
AcDbEntity
  8
0
100
AcDbBlockEnd
  0
BLOCK
  5
8C3
330
8B9
100
AcDbEntity
  8
0
100
AcDbBlockBegin
  2
TAKACHI-A3
 70
     0
 10
0.0
 20
0.0
 30
0.0
  3
TAKACHI-A3
  1

  0
LWPOLYLINE
  5
8BA
330
8B9
100
AcDbEntity
  8
0
100
AcDbPolyline
 90
        4
 70
     1
 43
0.0
 10
10.0
 20
0.0
 10
410.0
 20
0.0
 10
410.0
 20
280.0
 10
10.00000000000003
 20
280.0
1001
GENIUS_GENREC_14
1002
{
1000
PYDIR
1011
10.00000000000001
1021
280.0
1031
0.0
1002
}
1002
{
1000
PXDIR
1011
410.0
1021
0.0
1031
0.0
1002
}
1002
{
1000
PORI
1011
10.0
1021
0.0
1031
0.0
1002
}
1002
{
1000
PINS
1011
210.0
1021
139.9999999999999
1031
0.0
1002
}
1002
{
1000
HVAL
1000
280
1002
}
1002
{
1000
H
1070
     2
1002
}
1002
{
1000
WVAL
1000
400
1002
}
1002
{
1000
W
1070
     2
1002
}
1002
{
1000
C
1070
     4
1002
}
1001
GENIUS_GENODEF_13
1002
{
1000
HIER
1070
     0
1002
}
1002
{
1000
MANEDIT
1070
     0
1002
}
1002
{
1000
NOSEL
1070
     0
1002
}
1002
{
1000
BEHIND
1070
     0
1002
}
1002
{
1000
REACTOR
1002
}
1001
GENIUS_GENOBJ-N-REC_13
1002
{
1000
OWNER
1000
GEN
1002
}
  0
TEXT
  5
8BB
330
8B9
100
AcDbEntity
  8
0
 60
     1
100
AcDbText
 10
15.00000000000003
 20
50.0
 30
0.0
 40
2.5
  1
!GENTITLE-LL
100
AcDbText
  0
TEXT
  5
8BC
330
8B9
100
AcDbEntity
  8
0
 60
     1
100
AcDbText
 10
410.0
 20
0.0
 30
0.0
 40
2.5
  1
!GENTITLE-INSERT
100
AcDbText
  0
TEXT
  5
8BD
330
8B9
100
AcDbEntity
  8
0
 60
     1
100
AcDbText
 10
405.0
 20
275.0
 30
0.0
 40
2.5
  1
!GENTITLE-RU
100
AcDbText
  0
TEXT
  5
8BE
330
8B9
100
AcDbEntity
  8
0
 60
     1
100
AcDbText
 10
410.0
 20
280.0
 30
0.0
 40
2.5
  1
!GENTITLE-MAX
100
AcDbText
  0
LINE
  5
8BF
330
8B9
100
AcDbEntity
  8
0
100
AcDbLine
 10
366.0
 20
275.0
 30
0.0
 11
410.0
 21
275.0
 31
0.0
  0
MTEXT
  5
8C0
330
8B9
100
AcDbEntity
  8
0
100
AcDbMText
 10
409.3592953827348
 20
276.108542987227
 30
0.0
 40
2.5
 41
43.07840397728298
 71
     9
 72
     5
  1
(文書番号：TY-34)2004.10.29
 73
     1
 44
1.0
1001
ACAD
1000
MTEXTBEGIN
1070
    73
1070
     1
1070
    44
1040
1.0
1070
    74
1070
     0
1000
MTEXTEND
  0
LINE
  5
8C1
330
8B9
100
AcDbEntity
  8
0
100
AcDbLine
 10
366.0
 20
280.0
 30
0.0
 11
366.0
 21
275.0
 31
0.0
  0
ENDBLK
  5
8C4
330
8B9
100
AcDbEntity
  8
0
100
AcDbBlockEnd
  0
BLOCK
  5
924
330
8CE
100
AcDbEntity
  8
0
100
AcDbBlockBegin
  2
TAKACHI-TITLE
 70
     2
 10
0.0
 20
0.0
 30
0.0
  3
TAKACHI-TITLE
  1

  0
LINE
  5
8CF
330
8CE
100
AcDbEntity
  8
RAHM2
100
AcDbLine
 10
-195.0
 20
30.00000000000003
 30
0.0
 11
-94.0
 21
30.00000000000003
 31
0.0
  0
LINE
  5
8D0
330
8CE
100
AcDbEntity
  8
RAHM2
100
AcDbLine
 10
-195.0
 20
35.00000000000003
 30
0.0
 11
-94.0
 21
35.00000000000003
 31
0.0
  0
LINE
  5
8D1
330
8CE
100
AcDbEntity
  8
RAHM2
100
AcDbLine
 10
-195.0
 20
40.00000000000002
 30
0.0
 11
-94.0
 21
40.00000000000002
 31
0.0
  0
LINE
  5
8D2
330
8CE
100
AcDbEntity
  8
RAHM2
100
AcDbLine
 10
-195.0
 20
45.00000000000002
 30
0.0
 11
-94.0
 21
45.00000000000002
 31
0.0
  0
LINE
  5
8D3
330
8CE
100
AcDbEntity
  8
0
100
AcDbLine
 10
-195.0
 20
7.0
 30
0.0
 11
-94.0
 21
7.0
 31
0.0
  0
LINE
  5
8D4
330
8CE
100
AcDbEntity
  8
0
100
AcDbLine
 10
-195.0
 20
19.99999999999997
 30
0.0
 11
-94.0
 21
19.99999999999997
 31
0.0
  0
ATTDEF
  5
8D5
330
8CE
100
AcDbEntity
  8
0
100
AcDbText
 10
-183.2438527145607
 20
8.950850524428082
 30
0.0
 40
2.5
  1

 11
-183.2438527145607
 21
8.617517191094748
 31
0.0
100
AcDbAttributeDefinition
  3
サブタイトル
  2
GEN-TITLE-DES2
 70
     0
 74
     1
  0
ATTDEF
  5
8D6
330
8CE
100
AcDbEntity
  8
0
100
AcDbText
 10
-183.2438527145607
 20
2.017517191094748
 30
0.0
 40
3.0
  1

 11
-183.2438527145607
 21
1.617517191094748
 31
0.0
100
AcDbAttributeDefinition
  3
図番
  2
GEN-TITLE-NR
 70
     0
 74
     1
  0
MTEXT
  5
8D7
330
8CE
100
AcDbEntity
  8
RAHM2
100
AcDbMText
 10
-193.8002551371314
 20
5.801035407279641
 30
0.0
 40
2.5
 41
90.0
 71
     1
 72
     5
  1
図番
 73
     1
 44
1.0
1001
ACAD
1000
MTEXTBEGIN
1070
    73
1070
     1
1070
    44
1040
1.0
1070
    74
1070
     0
1000
MTEXTEND
  0
ATTDEF
  5
8D8
330
8CE
100
AcDbEntity
  8
0
100
AcDbText
 10
-183.2438527145607
 20
14.40728619501834
 30
0.0
 40
4.0
  1

 11
-183.2438527145607
 21
13.87395286168501
 31
0.0
100
AcDbAttributeDefinition
  3
品名
  2
GEN-TITLE-DES1
 70
     0
 74
     1
  0
LINE
  5
8D9
330
8CE
100
AcDbEntity
  8
RAHM2
100
AcDbLine
 10
-187.5751288694036
 20
30.40000000000004
 30
0.0
 11
-190.0
 21
34.60000000000003
 31
0.0
  0
LINE
  5
8DA
330
8CE
100
AcDbEntity
  8
RAHM2
100
AcDbLine
 10
-190.0
 20
34.60000000000003
 30
0.0
 11
-192.4248711305964
 21
30.40000000000004
 31
0.0
  0
LINE
  5
8DB
330
8CE
100
AcDbEntity
  8
RAHM2
100
AcDbLine
 10
-185.0
 20
50.00000000000003
 30
0.0
 11
-185.0
 21
19.99999999999994
 31
0.0
  0
LINE
  5
8DC
330
8CE
100
AcDbEntity
  8
RAHM2
100
AcDbLine
 10
-192.4248711305964
 20
30.40000000000004
 30
0.0
 11
-187.5751288694036
 21
30.40000000000004
 31
0.0
  0
MTEXT
  5
8DD
330
8CE
100
AcDbEntity
  8
RAHM2
100
AcDbMText
 10
-190.0
 20
22.49999999999997
 30
0.0
 40
2.5
 41
10.0
 71
     5
 72
     5
  1
符号
 73
     1
 44
1.0
1001
ACAD
1000
MTEXTBEGIN
1070
    73
1070
     1
1070
    44
1040
1.0
1070
    74
1070
     0
1000
MTEXTEND
  0
MTEXT
  5
8DE
330
8CE
100
AcDbEntity
  8
RAHM2
100
AcDbMText
 10
-193.8002551371314
 20
18.80103540727961
 30
0.0
 40
2.5
 41
90.0
 71
     1
 72
     5
  1
品名
 73
     1
 44
1.0
1001
ACAD
1000
MTEXTBEGIN
1070
    73
1070
     1
1070
    44
1040
1.0
1070
    74
1070
     0
1000
MTEXTEND
  0
LINE
  5
8DF
330
8CE
100
AcDbEntity
  8
RAHM2
100
AcDbLine
 10
-192.4248711305964
 20
45.40000000000003
 30
0.0
 11
-187.5751288694036
 21
45.40000000000003
 31
0.0
  0
LINE
  5
8E0
330
8CE
100
AcDbEntity
  8
RAHM2
100
AcDbLine
 10
-187.5751288694036
 20
45.40000000000003
 30
0.0
 11
-190.0
 21
49.60000000000002
 31
0.0
  0
LINE
  5
8E1
330
8CE
100
AcDbEntity
  8
RAHM2
100
AcDbLine
 10
-192.4248711305964
 20
40.40000000000003
 30
0.0
 11
-187.5751288694036
 21
40.40000000000003
 31
0.0
  0
LINE
  5
8E2
330
8CE
100
AcDbEntity
  8
RAHM2
100
AcDbLine
 10
-187.5751288694036
 20
40.40000000000003
 30
0.0
 11
-190.0
 21
44.60000000000002
 31
0.0
  0
LINE
  5
8E3
330
8CE
100
AcDbEntity
  8
RAHM2
100
AcDbLine
 10
-192.4248711305964
 20
35.40000000000004
 30
0.0
 11
-187.5751288694036
 21
35.40000000000004
 31
0.0
  0
LINE
  5
8E4
330
8CE
100
AcDbEntity
  8
RAHM2
100
AcDbLine
 10
-187.5751288694036
 20
35.40000000000004
 30
0.0
 11
-190.0
 21
39.60000000000002
 31
0.0
  0
LINE
  5
8E5
330
8CE
100
AcDbEntity
  8
RAHM2
100
AcDbLine
 10
-190.0
 20
39.60000000000002
 30
0.0
 11
-192.4248711305964
 21
35.40000000000004
 31
0.0
  0
LINE
  5
8E6
330
8CE
100
AcDbEntity
  8
RAHM2
100
AcDbLine
 10
-190.0
 20
44.60000000000002
 30
0.0
 11
-192.4248711305964
 21
40.40000000000003
 31
0.0
  0
LINE
  5
8E7
330
8CE
100
AcDbEntity
  8
RAHM2
100
AcDbLine
 10
-190.0
 20
49.60000000000002
 30
0.0
 11
-192.4248711305964
 21
45.40000000000003
 31
0.0
  0
LINE
  5
8E8
330
8CE
100
AcDbEntity
  8
RAHM2
100
AcDbLine
 10
-129.0
 20
50.00000000000003
 30
0.0
 11
-129.0
 21
19.99999999999994
 31
0.0
  0
MTEXT
  5
8E9
330
8CE
100
AcDbEntity
  8
RAHM2
100
AcDbMText
 10
-157.1448171868856
 20
22.49999999999997
 30
0.0
 40
2.5
 41
45.0
 71
     5
 72
     5
  1
変更記事
 73
     1
 44
1.0
1001
ACAD
1000
MTEXTBEGIN
1070
    73
1070
     1
1070
    44
1040
1.0
1070
    74
1070
     0
1000
MTEXTEND
  0
LINE
  5
8EA
330
8CE
100
AcDbEntity
  8
0
100
AcDbLine
 10
-34.0
 20
50.0
 30
0.0
 11
-34.0
 21
0.0
 31
0.0
  0
LINE
  5
8EB
330
8CE
100
AcDbEntity
  8
0
100
AcDbLine
 10
-94.0
 20
50.0
 30
0.0
 11
-94.0
 21
0.0
 31
0.0
  0
MTEXT
  5
8EC
330
8CE
100
AcDbEntity
  8
0
100
AcDbMText
 10
-64.0
 20
5.0
 30
0.0
 40
3.5
 41
60.0
 71
     5
 72
     5
  1
\fＭＳ ゴシック|b0|i0|c128|p49;株式会社タカチ電機工業
 73
     1
 44
1.0
1001
ACAD
1000
MTEXTBEGIN
1070
    73
1070
     1
1070
    44
1040
1.0
1070
    74
1070
     0
1000
MTEXTEND
  0
LINE
  5
8ED
330
8CE
100
AcDbEntity
  8
0
100
AcDbLine
 10
-94.0
 20
10.0
 30
0.0
 11
-34.0
 21
10.0
 31
0.0
  0
ATTDEF
  5
8EE
330
8CE
100
AcDbEntity
  8
0
100
AcDbText
 10
-58.01405119799745
 20
39.25500556178349
 30
0.0
 40
3.0
  1

 72
     2
 11
-58.01405119799745
 21
39.25500556178349
 31
0.0
100
AcDbAttributeDefinition
  3
尺度
  2
GEN-TITLE-SCA
 70
     0
  0
ATTDEF
  5
8EF
330
8CE
100
AcDbEntity
  8
0
100
AcDbText
 10
-77.00284966649007
 20
31.02180787943475
 30
0.0
 40
3.0
  1

 11
-77.00284966649007
 21
30.62180787943475
 31
0.0
100
AcDbAttributeDefinition
  3
材質
  2
GEN-TITLE-MAT1
 70
     0
 74
     1
  0
ATTDEF
  5
8F0
330
8CE
100
AcDbEntity
  8
0
100
AcDbText
 10
-77.00284966649007
 20
21.02180787943475
 30
0.0
 40
3.0
  1

 11
-77.00284966649007
 21
20.62180787943475
 31
0.0
100
AcDbAttributeDefinition
  3
表面処理
  2
GEN-TITLE-MAT2
 70
     0
 74
     1
  0
ATTDEF
  5
8F1
330
8CE
100
AcDbEntity
  8
0
100
AcDbText
 10
-77.00284966649007
 20
12.01751719109475
 30
0.0
 40
3.0
  1

 11
-77.00284966649007
 21
11.61751719109475
 31
0.0
100
AcDbAttributeDefinition
  3
日付
  2
GEN-TITLE-DAT
 70
     0
 74
     1
  0
LINE
  5
8F2
330
8CE
100
AcDbEntity
  8
0
100
AcDbLine
 10
-94.0
 20
37.5
 30
0.0
 11
-34.0
 21
37.5
 31
0.0
  0
LINE
  5
8F3
330
8CE
100
AcDbEntity
  8
0
100
AcDbLine
 10
-94.0
 20
27.5
 30
0.0
 11
-34.0
 21
27.5
 31
0.0
  0
LINE
  5
8F4
330
8CE
100
AcDbEntity
  8
0
100
AcDbLine
 10
-94.0
 20
17.5
 30
0.0
 11
-34.0
 21
17.5
 31
0.0
  0
LINE
  5
8F5
330
8CE
100
AcDbEntity
  8
RAHM2
100
AcDbLine
 10
-109.0
 20
50.00000000000003
 30
0.0
 11
-109.0
 21
19.99999999999994
 31
0.0
  0
MTEXT
  5
8F6
330
8CE
100
AcDbEntity
  8
RAHM2
100
AcDbMText
 10
-119.4582894723942
 20
32.50000000000003
 30
0.0
 40
2.5
 41
20.0
 71
     5
 72
     5
  1
・  ・   
 73
     1
 44
1.0
1001
ACAD
1000
MTEXTBEGIN
1070
    73
1070
     1
1070
    44
1040
1.0
1070
    74
1070
     0
1000
MTEXTEND
  0
MTEXT
  5
8F7
330
8CE
100
AcDbEntity
  8
RAHM2
100
AcDbMText
 10
-118.738119805002
 20
22.49999999999997
 30
0.0
 40
2.5
 41
20.0
 71
     5
 72
     5
  1
年・月・日
 73
     1
 44
1.0
1001
ACAD
1000
MTEXTBEGIN
1070
    73
1070
     1
1070
    44
1040
1.0
1070
    74
1070
     0
1000
MTEXTEND
  0
MTEXT
  5
8F8
330
8CE
100
AcDbEntity
  8
RAHM2
100
AcDbMText
 10
-101.5
 20
22.49999999999997
 30
0.0
 40
2.5
 41
15.0
 71
     5
 72
     5
  1
担当
 73
     1
 44
1.0
1001
ACAD
1000
MTEXTBEGIN
1070
    73
1070
     1
1070
    44
1040
1.0
1070
    74
1070
     0
1000
MTEXTEND
  0
MTEXT
  5
8F9
330
8CE
100
AcDbEntity
  8
RAHM2
100
AcDbMText
 10
-119.4582894723942
 20
42.50000000000002
 30
0.0
 40
2.5
 41
20.0
 71
     5
 72
     5
  1
・  ・   
 73
     1
 44
1.0
1001
ACAD
1000
MTEXTBEGIN
1070
    73
1070
     1
1070
    44
1040
1.0
1070
    74
1070
     0
1000
MTEXTEND
  0
MTEXT
  5
8FA
330
8CE
100
AcDbEntity
  8
RAHM2
100
AcDbMText
 10
-119.4582894723942
 20
37.50000000000003
 30
0.0
 40
2.5
 41
20.0
 71
     5
 72
     5
  1
・  ・   
 73
     1
 44
1.0
1001
ACAD
1000
MTEXTBEGIN
1070
    73
1070
     1
1070
    44
1040
1.0
1070
    74
1070
     0
1000
MTEXTEND
  0
MTEXT
  5
8FB
330
8CE
100
AcDbEntity
  8
RAHM2
100
AcDbMText
 10
-119.4582894723942
 20
47.50000000000002
 30
0.0
 40
2.5
 41
20.0
 71
     5
 72
     5
  1
・  ・   
 73
     1
 44
1.0
1001
ACAD
1000
MTEXTBEGIN
1070
    73
1070
     1
1070
    44
1040
1.0
1070
    74
1070
     0
1000
MTEXTEND
  0
MTEXT
  5
8FC
330
8CE
100
AcDbEntity
  8
RAHM2
100
AcDbMText
 10
-92.80025513713145
 20
16.30103540727964
 30
0.0
 40
2.5
 41
60.0
 71
     1
 72
     5
  1
日付
 73
     1
 44
1.0
1001
ACAD
1000
MTEXTBEGIN
1070
    73
1070
     1
1070
    44
1040
1.0
1070
    74
1070
     0
1000
MTEXTEND
  0
MTEXT
  5
8FD
330
8CE
100
AcDbEntity
  8
RAHM2
100
AcDbMText
 10
-92.80025513713145
 20
26.30103540727964
 30
0.0
 40
2.5
 41
60.0
 71
     1
 72
     5
  1
表面処理
 73
     1
 44
1.0
1001
ACAD
1000
MTEXTBEGIN
1070
    73
1070
     1
1070
    44
1040
1.0
1070
    74
1070
     0
1000
MTEXTEND
  0
LINE
  5
8FE
330
8CE
100
AcDbEntity
  8
7A
100
AcDbLine
 10
-89.0
 20
43.75
 30
0.0
 11
-75.2186915997147
 21
43.75
 31
0.0
1001
GENIUS_GENOREF_13
1005
911
  0
LINE
  5
8FF
330
8CE
100
AcDbEntity
  8
0
100
AcDbLine
 10
-84.0
 20
45.75
 30
0.0
 11
-76.0
 21
46.74999999999999
 31
0.0
  0
LINE
  5
900
330
8CE
100
AcDbEntity
  8
0
100
AcDbLine
 10
-76.0
 20
40.75
 30
0.0
 11
-84.0
 21
41.74999999999999
 31
0.0
  0
LINE
  5
901
330
8CE
100
AcDbEntity
  8
7A
100
AcDbLine
 10
-89.0
 20
43.75
 30
0.0
 11
-89.0
 21
47.32478664473148
 31
0.0
1001
GENIUS_GENOREF_13
1005
911
  0
CIRCLE
  5
902
330
8CE
100
AcDbEntity
  8
0
100
AcDbCircle
 10
-89.0
 20
43.75
 30
0.0
 40
2.0
  0
CIRCLE
  5
903
330
8CE
100
AcDbEntity
  8
0
100
AcDbCircle
 10
-89.0
 20
43.75
 30
0.0
 40
3.0
  0
LINE
  5
904
330
8CE
100
AcDbEntity
  8
0
100
AcDbLine
 10
-84.0
 20
41.74999999999999
 30
0.0
 11
-84.0
 21
45.75
 31
0.0
  0
MTEXT
  5
905
330
8CE
100
AcDbEntity
  8
RAHM2
100
AcDbMText
 10
-92.80025513713145
 20
36.30103540727964
 30
0.0
 40
2.5
 41
60.0
 71
     1
 72
     5
  1
材質
 73
     1
 44
1.0
1001
ACAD
1000
MTEXTBEGIN
1070
    73
1070
     1
1070
    44
1040
1.0
1070
    74
1070
     0
1000
MTEXTEND
  0
LINE
  5
906
330
8CE
100
AcDbEntity
  8
7A
100
AcDbLine
 10
-89.0
 20
43.75
 30
0.0
 11
-92.72303737125117
 21
43.75
 31
0.0
1001
GENIUS_GENOREF_13
1005
911
  0
LINE
  5
907
330
8CE
100
AcDbEntity
  8
7A
100
AcDbLine
 10
-89.0
 20
43.75
 30
0.0
 11
-89.0
 21
40.03991724228479
 31
0.0
1001
GENIUS_GENOREF_13
1005
911
  0
LINE
  5
908
330
8CE
100
AcDbEntity
  8
0
100
AcDbLine
 10
-76.0
 20
46.74999999999999
 30
0.0
 11
-76.0
 21
40.75
 31
0.0
  0
LINE
  5
909
330
8CE
100
AcDbEntity
  8
0
100
AcDbLine
 10
-74.0
 20
50.0
 30
0.0
 11
-74.0
 21
37.5
 31
0.0
  0
MTEXT
  5
90A
330
8CE
100
AcDbEntity
  8
RAHM2
100
AcDbMText
 10
-72.80025513713145
 20
48.80103540727964
 30
0.0
 40
2.5
 41
20.0
 71
     1
 72
     5
  1
尺度
 73
     1
 44
1.0
1001
ACAD
1000
MTEXTBEGIN
1070
    73
1070
     1
1070
    44
1040
1.0
1070
    74
1070
     0
1000
MTEXTEND
  0
ATTDEF
  5
90B
330
8CE
100
AcDbEntity
  8
0
100
AcDbText
 10
-37.76317379391503
 20
39.25500556178349
 30
0.0
 40
3.0
  1

 72
     2
 11
-37.76317379391503
 21
39.25500556178349
 31
0.0
100
AcDbAttributeDefinition
  3
数量
  2
GEN-TITLE-QTY
 70
     0
  0
LINE
  5
90C
330
8CE
100
AcDbEntity
  8
0
100
AcDbLine
 10
-34.0
 20
25.0
 30
0.0
 11
0.0
 21
25.0
 31
0.0
  0
LINE
  5
90D
330
8CE
100
AcDbEntity
  8
0
100
AcDbLine
 10
-54.0
 20
50.0
 30
0.0
 11
-54.0
 21
37.5
 31
0.0
  0
MTEXT
  5
90E
330
8CE
100
AcDbEntity
  8
RAHM2
100
AcDbMText
 10
-52.80025513713145
 20
48.80103540727964
 30
0.0
 40
2.5
 41
20.0
 71
     1
 72
     5
  1
数量
 73
     1
 44
1.0
1001
ACAD
1000
MTEXTBEGIN
1070
    73
1070
     1
1070
    44
1040
1.0
1070
    74
1070
     0
1000
MTEXTEND
  0
MTEXT
  5
90F
330
8CE
100
AcDbEntity
  8
RAHM2
100
AcDbMText
 10
-25.5
 20
23.80103540727964
 30
0.0
 40
2.5
 41
17.0
 71
     2
 72
     5
  1
承認
 73
     1
 44
1.0
1001
ACAD
1000
MTEXTBEGIN
1070
    73
1070
     1
1070
    44
1040
1.0
1070
    74
1070
     0
1000
MTEXTEND
  0
MTEXT
  5
910
330
8CE
100
AcDbEntity
  8
RAHM2
100
AcDbMText
 10
-25.5
 20
48.80103540727964
 30
0.0
 40
2.5
 41
17.0
 71
     2
 72
     5
  1
承認
 73
     1
 44
1.0
1001
ACAD
1000
MTEXTBEGIN
1070
    73
1070
     1
1070
    44
1040
1.0
1070
    74
1070
     0
1000
MTEXTEND
  0
POINT
  5
911
330
8CE
100
AcDbEntity
  8
0
 60
     1
100
AcDbPoint
 10
-320.5355579819676
 20
-138.1104841268254
 30
0.0
1001
GENIUS_GENODEF_13
1002
{
1000
HIER
1070
    10
1002
}
1002
{
1000
MANEDIT
1070
     0
1002
}
1002
{
1000
NOSEL
1070
     0
1002
}
1002
{
1000
BEHIND
1070
     0
1002
}
1002
{
1000
REACTOR
1002
}
1001
GENIUS_GENOBJ-N-CRS_13
1002
{
1000
OWNER
1000
GEN
1002
}
1001
GENIUS_GENOENT_13
1002
{
1000
MYREF
1005
911
1002
}
1002
{
1000
GRP
1005
0
1002
}
1001
GENIUS_GENOLIS_13
1002
{
1000
ENT
1005
907
1005
906
1005
901
1005
8FE
1002
}
  0
LINE
  5
912
330
8CE
100
AcDbEntity
  8
RAHM2
100
AcDbLine
 10
-190.0
 20
29.60000000000002
 30
0.0
 11
-192.4248711305964
 21
25.40000000000004
 31
0.0
  0
LINE
  5
913
330
8CE
100
AcDbEntity
  8
RAHM2
100
AcDbLine
 10
-187.5751288694036
 20
25.40000000000004
 30
0.0
 11
-190.0
 21
29.60000000000002
 31
0.0
  0
LINE
  5
914
330
8CE
100
AcDbEntity
  8
RAHM2
100
AcDbLine
 10
-192.4248711305964
 20
25.40000000000004
 30
0.0
 11
-187.5751288694036
 21
25.40000000000004
 31
0.0
  0
LINE
  5
915
330
8CE
100
AcDbEntity
  8
RAHM2
100
AcDbLine
 10
-195.0
 20
25.00000000000003
 30
0.0
 11
-94.0
 21
25.00000000000003
 31
0.0
  0
MTEXT
  5
916
330
8CE
100
AcDbEntity
  8
RAHM2
100
AcDbMText
 10
-119.4582894723942
 20
27.50000000000003
 30
0.0
 40
2.5
 41
20.0
 71
     5
 72
     5
  1
・  ・   
 73
     1
 44
1.0
1001
ACAD
1000
MTEXTBEGIN
1070
    73
1070
     1
1070
    44
1040
1.0
1070
    74
1070
     0
1000
MTEXTEND
  0
TEXT
  5
917
330
8CE
100
AcDbEntity
  8
RAHM2
100
AcDbText
 10
-190.8155863565801
 20
25.98333333333337
 30
0.0
 40
2.5
  1
1
 72
     1
 11
-190.1905863565802
 21
25.65000000000003
 31
0.0
100
AcDbText
 73
     1
  0
TEXT
  5
918
330
8CE
100
AcDbEntity
  8
RAHM2
100
AcDbText
 10
-190.9183316929134
 20
30.98333333333337
 30
0.0
 40
2.5
  1
2
 72
     1
 11
-190.0
 21
30.65000000000003
 31
0.0
100
AcDbText
 73
     1
  0
TEXT
  5
919
330
8CE
100
AcDbEntity
  8
RAHM2
100
AcDbText
 10
-190.9267766952966
 20
35.98333333333334
 30
0.0
 40
2.5
  1
3
 72
     1
 11
-190.0
 21
35.65000000000001
 31
0.0
100
AcDbText
 73
     1
  0
TEXT
  5
91A
330
8CE
100
AcDbEntity
  8
RAHM2
100
AcDbText
 10
-191.0
 20
40.98333333333337
 30
0.0
 40
2.5
  1
4
 72
     1
 11
-190.0
 21
40.65000000000003
 31
0.0
100
AcDbText
 73
     1
  0
TEXT
  5
91B
330
8CE
100
AcDbEntity
  8
RAHM2
100
AcDbText
 10
-190.9267766952966
 20
45.98333333333337
 30
0.0
 40
2.5
  1
5
 72
     1
 11
-190.0
 21
45.65000000000003
 31
0.0
100
AcDbText
 73
     1
  0
LINE
  5
91C
330
8CE
100
AcDbEntity
  8
0
100
AcDbLine
 10
-17.0
 20
50.0
 30
0.0
 11
-17.0
 21
0.0
 31
0.0
  0
LINE
  5
91D
330
8CE
100
AcDbEntity
  8
0
100
AcDbLine
 10
-195.0
 20
0.0
 30
0.0
 11
0.0
 21
0.0
 31
0.0
1001
GENIUS_GENREC_14
1002
{
1000
PYDIR
1011
-184.0
1021
50.0
1031
0.0
1002
}
1002
{
1000
PXDIR
1011
0.0
1021
0.0
1031
0.0
1002
}
1002
{
1000
PORI
1011
-184.0
1021
0.0
1031
0.0
1002
}
1002
{
1000
PINS
1011
-100.5
1021
25.0
1031
0.0
1002
}
1002
{
1000
HVAL
1000
50
1002
}
1002
{
1000
H
1070
     2
1002
}
1002
{
1000
WVAL
1000
167
1002
}
1002
{
1000
W
1070
     2
1002
}
1002
{
1000
C
1070
     4
1002
}
1001
GENIUS_GENODEF_13
1002
{
1000
HIER
1070
     0
1002
}
1002
{
1000
MANEDIT
1070
     0
1002
}
1002
{
1000
NOSEL
1070
     0
1002
}
1002
{
1000
BEHIND
1070
     0
1002
}
1002
{
1000
REACTOR
1002
}
1001
GENIUS_GENOBJ-N-REC_13
1002
{
1000
OWNER
1000
GEN
1002
}
  0
LINE
  5
91E
330
8CE
100
AcDbEntity
  8
0
100
AcDbLine
 10
0.0
 20
0.0
 30
0.0
 11
0.0
 21
50.0
 31
0.0
1001
GENIUS_GENREC_14
1002
{
1000
PYDIR
1011
-184.0
1021
50.0
1031
0.0
1002
}
1002
{
1000
PXDIR
1011
0.0
1021
0.0
1031
0.0
1002
}
1002
{
1000
PORI
1011
-184.0
1021
0.0
1031
0.0
1002
}
1002
{
1000
PINS
1011
-100.5
1021
25.0
1031
0.0
1002
}
1002
{
1000
HVAL
1000
50
1002
}
1002
{
1000
H
1070
     2
1002
}
1002
{
1000
WVAL
1000
167
1002
}
1002
{
1000
W
1070
     2
1002
}
1002
{
1000
C
1070
     4
1002
}
1001
GENIUS_GENODEF_13
1002
{
1000
HIER
1070
     0
1002
}
1002
{
1000
MANEDIT
1070
     0
1002
}
1002
{
1000
NOSEL
1070
     0
1002
}
1002
{
1000
BEHIND
1070
     0
1002
}
1002
{
1000
REACTOR
1002
}
1001
GENIUS_GENOBJ-N-REC_13
1002
{
1000
OWNER
1000
GEN
1002
}
  0
LINE
  5
91F
330
8CE
100
AcDbEntity
  8
0
100
AcDbLine
 10
0.0
 20
50.0
 30
0.0
 11
-195.0
 21
50.00000000000003
 31
0.0
1001
GENIUS_GENREC_14
1002
{
1000
PYDIR
1011
-184.0
1021
50.0
1031
0.0
1002
}
1002
{
1000
PXDIR
1011
0.0
1021
0.0
1031
0.0
1002
}
1002
{
1000
PORI
1011
-184.0
1021
0.0
1031
0.0
1002
}
1002
{
1000
PINS
1011
-100.5
1021
25.0
1031
0.0
1002
}
1002
{
1000
HVAL
1000
50
1002
}
1002
{
1000
H
1070
     2
1002
}
1002
{
1000
WVAL
1000
167
1002
}
1002
{
1000
W
1070
     2
1002
}
1002
{
1000
C
1070
     4
1002
}
1001
GENIUS_GENODEF_13
1002
{
1000
HIER
1070
     0
1002
}
1002
{
1000
MANEDIT
1070
     0
1002
}
1002
{
1000
NOSEL
1070
     0
1002
}
1002
{
1000
BEHIND
1070
     0
1002
}
1002
{
1000
REACTOR
1002
}
1001
GENIUS_GENOBJ-N-REC_13
1002
{
1000
OWNER
1000
GEN
1002
}
  0
LINE
  5
920
330
8CE
100
AcDbEntity
  8
0
100
AcDbLine
 10
-195.0
 20
50.00000000000003
 30
0.0
 11
-195.0
 21
0.0
 31
0.0
1001
GENIUS_GENREC_14
1002
{
1000
PYDIR
1011
-195.0
1021
50.0
1031
0.0
1002
}
1002
{
1000
PXDIR
1011
-11.0
1021
0.0
1031
0.0
1002
}
1002
{
1000
PORI
1011
-195.0
1021
0.0
1031
0.0
1002
}
1002
{
1000
PINS
1011
-111.5
1021
25.0
1031
0.0
1002
}
1002
{
1000
HVAL
1000
50
1002
}
1002
{
1000
H
1070
     2
1002
}
1002
{
1000
WVAL
1000
167
1002
}
1002
{
1000
W
1070
     2
1002
}
1002
{
1000
C
1070
     4
1002
}
1001
GENIUS_GENODEF_13
1002
{
1000
HIER
1070
     0
1002
}
1002
{
1000
MANEDIT
1070
     0
1002
}
1002
{
1000
NOSEL
1070
     0
1002
}
1002
{
1000
BEHIND
1070
     0
1002
}
1002
{
1000
REACTOR
1002
}
1001
GENIUS_GENOBJ-N-REC_13
1002
{
1000
OWNER
1000
GEN
1002
}
  0
MTEXT
  5
921
330
8CE
100
AcDbEntity
  8
RAHM2
100
AcDbMText
 10
-8.5
 20
48.80103540727964
 30
0.0
 40
2.5
 41
17.0
 71
     2
 72
     5
  1
検図
 73
     1
 44
1.0
1001
ACAD
1000
MTEXTBEGIN
1070
    73
1070
     1
1070
    44
1040
1.0
1070
    74
1070
     0
1000
MTEXTEND
  0
MTEXT
  5
922
330
8CE
100
AcDbEntity
  8
RAHM2
100
AcDbMText
 10
-8.5
 20
23.80103540727964
 30
0.0
 40
2.5
 41
17.0
 71
     2
 72
     5
  1
製図
 73
     1
 44
1.0
1001
ACAD
1000
MTEXTBEGIN
1070
    73
1070
     1
1070
    44
1040
1.0
1070
    74
1070
     0
1000
MTEXTEND
  0
ENDBLK
  5
925
330
8CE
100
AcDbEntity
  8
0
100
AcDbBlockEnd
  0
BLOCK
  5
A08
330
9FB
100
AcDbEntity
  8
0
100
AcDbBlockBegin
  2
TAKACHI-A4
 70
     0
 10
0.0
 20
0.0
 30
0.0
  3
TAKACHI-A4
  1

  0
TEXT
  5
9FC
330
9FB
100
AcDbEntity
  8
0
 60
     1
100
AcDbText
 10
10.0
 20
54.99999999999994
 30
0.0
 40
2.5
  1
!GENTITLE-LL
100
AcDbText
  0
TEXT
  5
9FD
330
9FB
100
AcDbEntity
  8
0
 60
     1
100
AcDbText
 10
215.0
 20
15.0
 30
0.0
 40
2.5
  1
!GENTITLE-INSERT
100
AcDbText
  0
TEXT
  5
9FE
330
9FB
100
AcDbEntity
  8
0
 60
     1
100
AcDbText
 10
215.0
 20
285.0000000000001
 30
0.0
 40
2.5
  1
!GENTITLE-RU
100
AcDbText
  0
TEXT
  5
9FF
330
9FB
100
AcDbEntity
  8
0
 60
     1
100
AcDbText
 10
215.0000000000001
 20
290.0
 30
0.0
 40
2.5
  1
!GENTITLE-MAX
100
AcDbText
  0
LINE
  5
A00
330
9FB
100
AcDbEntity
  8
0
100
AcDbLine
 10
215.0
 20
290.0000000000001
 30
0.0
 11
20.00000000000003
 21
290.0
 31
0.0
1001
GENIUS_GENREC_14
1002
{
1000
PYDIR
1011
15.00000000000003
1021
295.0
1031
0.0
1002
}
1002
{
1000
PXDIR
1011
215.0
1021
15.0
1031
0.0
1002
}
1002
{
1000
PORI
1011
15.0
1021
15.0
1031
0.0
1002
}
1002
{
1000
PINS
1011
115.0
1021
155.0
1031
0.0
1002
}
1002
{
1000
HVAL
1000
280
1002
}
1002
{
1000
H
1070
     2
1002
}
1002
{
1000
WVAL
1000
200
1002
}
1002
{
1000
W
1070
     2
1002
}
1002
{
1000
C
1070
     4
1002
}
  0
LINE
  5
A01
330
9FB
100
AcDbEntity
  8
0
100
AcDbLine
 10
20.00000000000003
 20
290.0
 30
0.0
 11
19.99999999999997
 21
15.0
 31
0.0
1001
GENIUS_GENREC_14
1002
{
1000
PYDIR
1011
15.00000000000003
1021
295.0
1031
0.0
1002
}
1002
{
1000
PXDIR
1011
215.0
1021
15.0
1031
0.0
1002
}
1002
{
1000
PORI
1011
15.0
1021
15.0
1031
0.0
1002
}
1002
{
1000
PINS
1011
115.0
1021
155.0
1031
0.0
1002
}
1002
{
1000
HVAL
1000
280
1002
}
1002
{
1000
H
1070
     2
1002
}
1002
{
1000
WVAL
1000
200
1002
}
1002
{
1000
W
1070
     2
1002
}
1002
{
1000
C
1070
     4
1002
}
  0
LINE
  5
A02
330
9FB
100
AcDbEntity
  8
0
100
AcDbLine
 10
19.99999999999997
 20
15.0
 30
0.0
 11
215.0
 21
15.0
 31
0.0
1001
GENIUS_GENREC_14
1002
{
1000
PYDIR
1011
15.00000000000003
1021
295.0
1031
0.0
1002
}
1002
{
1000
PXDIR
1011
215.0
1021
15.0
1031
0.0
1002
}
1002
{
1000
PORI
1011
15.0
1021
15.0
1031
0.0
1002
}
1002
{
1000
PINS
1011
115.0
1021
155.0
1031
0.0
1002
}
1002
{
1000
HVAL
1000
280
1002
}
1002
{
1000
H
1070
     2
1002
}
1002
{
1000
WVAL
1000
200
1002
}
1002
{
1000
W
1070
     2
1002
}
1002
{
1000
C
1070
     4
1002
}
  0
LINE
  5
A03
330
9FB
100
AcDbEntity
  8
0
100
AcDbLine
 10
215.0
 20
15.0
 30
0.0
 11
215.0000000000001
 21
290.0000000000001
 31
0.0
1001
GENIUS_GENREC_14
1002
{
1000
PYDIR
1011
15.00000000000003
1021
295.0
1031
0.0
1002
}
1002
{
1000
PXDIR
1011
215.0
1021
15.0
1031
0.0
1002
}
1002
{
1000
PORI
1011
15.0
1021
15.0
1031
0.0
1002
}
1002
{
1000
PINS
1011
115.0
1021
155.0
1031
0.0
1002
}
1002
{
1000
HVAL
1000
280
1002
}
1002
{
1000
H
1070
     2
1002
}
1002
{
1000
WVAL
1000
200
1002
}
1002
{
1000
W
1070
     2
1002
}
1002
{
1000
C
1070
     4
1002
}
  0
LINE
  5
A04
330
9FB
100
AcDbEntity
  8
0
100
AcDbLine
 10
171.0000000000001
 20
285.0000000000001
 30
0.0
 11
215.0000000000001
 21
285.0000000000001
 31
0.0
  0
LINE
  5
A05
330
9FB
100
AcDbEntity
  8
0
100
AcDbLine
 10
171.0000000000001
 20
290.0000000000001
 30
0.0
 11
171.0000000000001
 21
285.0000000000001
 31
0.0
  0
MTEXT
  5
A06
330
9FB
100
AcDbEntity
  8
0
100
AcDbMText
 10
214.3592953827349
 20
286.1085429872271
 30
0.0
 40
2.5
 41
43.07840397728298
 71
     9
 72
     5
  1
(文書番号：TY-34)2004.10.29
 73
     1
 44
1.0
1001
ACAD
1000
MTEXTBEGIN
1070
    73
1070
     1
1070
    44
1040
1.0
1070
    74
1070
     0
1000
MTEXTEND
  0
ENDBLK
  5
A09
330
9FB
100
AcDbEntity
  8
0
100
AcDbBlockEnd
  0
BLOCK
  5
C5A
330
C51
100
AcDbEntity
  8
0
100
AcDbBlockBegin
  2
TK-A4
 70
     0
 10
0.0
 20
0.0
 30
0.0
  3
TK-A4
  1

  0
TEXT
  5
C52
330
C51
100
AcDbEntity
  8
0
 60
     1
100
AcDbText
 10
0.0
 20
0.0
 30
0.0
 40
2.5
  1
!GENTITLE-LL
100
AcDbText
  0
TEXT
  5
C53
330
C51
100
AcDbEntity
  8
0
 60
     1
100
AcDbText
 10
193.0
 20
280.0
 30
0.0
 40
2.5
  1
!GENTITLE-MAX
100
AcDbText
  0
TEXT
  5
C54
330
C51
100
AcDbEntity
  8
0
 60
     1
100
AcDbText
 10
193.0
 20
0.0
 30
0.0
 40
2.5
  1
!GENTITLE-INSERT
100
AcDbText
  0
LWPOLYLINE
  5
C55
330
C51
100
AcDbEntity
  8
0
100
AcDbPolyline
 90
        4
 70
     1
 43
0.0
 10
0.0
 20
0.0
 10
193.0
 20
0.0
 10
193.0
 20
280.0
 10
0.0
 20
280.0
1001
GENIUS_GENREC_14
1002
{
1000
PYDIR
1011
-8.5
1021
288.5
1031
0.0
1002
}
1002
{
1000
PXDIR
1011
201.5
1021
-8.5
1031
0.0
1002
}
1002
{
1000
PORI
1011
-8.5
1021
-8.5
1031
0.0
1002
}
1002
{
1000
PINS
1011
-8.5
1021
-8.5
1031
0.0
1002
}
1002
{
1000
HVAL
1000
297
1002
}
1002
{
1000
H
1070
     2
1002
}
1002
{
1000
WVAL
1000
210
1002
}
1002
{
1000
W
1070
     2
1002
}
1002
{
1000
C
1070
     1
1002
}
1001
GENIUS_GENOBJ-N-REC_13
1002
{
1000
OWNER
1000
GEN
1002
}
1001
GENIUS_GENODEF_13
1002
{
1000
HIER
1070
     0
1002
}
1002
{
1000
MANEDIT
1070
     0
1002
}
1002
{
1000
NOSEL
1070
     0
1002
}
1002
{
1000
BEHIND
1070
     0
1002
}
1002
{
1000
OTHER
1070
     0
1002
}
1002
{
1000
REACTOR
1002
}
  0
LINE
  5
C56
330
C51
100
AcDbEntity
  8
0
100
AcDbLine
 10
149.0
 20
280.0000000000001
 30
0.0
 11
149.0
 21
275.0
 31
0.0
  0
MTEXT
  5
C57
330
C51
100
AcDbEntity
  8
0
100
AcDbMText
 10
192.3592953827349
 20
276.1085429872271
 30
0.0
 40
2.5
 41
43.07840397728298
 71
     9
 72
     5
  1
(文書番号：TY-34)2008.02.08
 73
     1
 44
1.0
1001
ACAD
1000
MTEXTBEGIN
1070
    73
1070
     1
1070
    44
1040
1.0
1070
    74
1070
     0
1000
MTEXTEND
  0
LINE
  5
C58
330
C51
100
AcDbEntity
  8
0
100
AcDbLine
 10
149.0
 20
275.0
 30
0.0
 11
193.0
 21
275.0
 31
0.0
  0
ENDBLK
  5
C5B
330
C51
100
AcDbEntity
  8
0
100
AcDbBlockEnd
  0
BLOCK
  5
CBB
330
C61
100
AcDbEntity
  8
0
100
AcDbBlockBegin
  2
TK-製作図面
 70
     2
 10
0.0
 20
0.0
 30
0.0
  3
TK-製作図面
  1

  0
ATTDEF
  5
C62
330
C61
100
AcDbEntity
  8
0
100
AcDbText
 10
-8.002309189545826
 20
1.705189434395036
 30
0.0
 40
2.5
  1

100
AcDbAttributeDefinition
  3
Rev.
  2
GEN-TITLE-NR2
 70
     0
  0
ATTDEF
  5
C63
330
C61
100
AcDbEntity
  8
0
100
AcDbText
 10
-84.14251901585329
 20
12.82790432564377
 30
0.0
 40
3.5
  1

100
AcDbAttributeDefinition
  3
品名
  2
GEN-TITLE-DES1
 70
     0
  0
LINE
  5
C64
330
C61
100
AcDbEntity
  8
0
100
AcDbLine
 10
0.0
 20
0.0
 30
0.0
 11
0.0
 21
50.0
 31
0.0
1001
GENIUS_GENREC_14
1002
{
1000
PYDIR
1011
-414.0
1021
291.0
1031
0.0
1002
}
1002
{
1000
PXDIR
1011
6.0
1021
-6.0
1031
0.0
1002
}
1002
{
1000
PORI
1011
-414.0
1021
-6.0
1031
0.0
1002
}
1002
{
1000
PINS
1011
-414.0
1021
-6.0
1031
0.0
1002
}
1002
{
1000
HVAL
1000
297
1002
}
1002
{
1000
H
1070
     2
1002
}
1002
{
1000
WVAL
1000
420
1002
}
1002
{
1000
W
1070
     2
1002
}
1002
{
1000
C
1070
     1
1002
}
1001
GENIUS_GENODEF_13
1002
{
1000
HIER
1070
     0
1002
}
1002
{
1000
MANEDIT
1070
     0
1002
}
1002
{
1000
NOSEL
1070
     0
1002
}
1002
{
1000
BEHIND
1070
     0
1002
}
1002
{
1000
OTHER
1070
     0
1002
}
1002
{
1000
REACTOR
1002
}
1001
GENIUS_GENOBJ-N-REC_13
1002
{
1000
OWNER
1000
GEN
1002
}
  0
ATTDEF
  5
C65
330
C61
100
AcDbEntity
  8
0
100
AcDbText
 10
-84.0
 20
9.149999999999948
 30
0.0
 40
2.5
  1

100
AcDbAttributeDefinition
  3
サブタイトル
  2
GEN-TITLE-DES2
 70
     0
  0
ATTDEF
  5
C66
330
C61
100
AcDbEntity
  8
0
100
AcDbText
 10
-84.0
 20
1.999999999999957
 30
0.0
 40
3.0
  1

100
AcDbAttributeDefinition
  3
図番
  2
GEN-TITLE-NR1
 70
     0
  0
LINE
  5
C67
330
C61
100
AcDbEntity
  8
0
100
AcDbLine
 10
-96.0
 20
50.00000000000001
 30
0.0
 11
-96.0
 21
-0.0000000000000142
 31
0.0
1001
GENIUS_GENREC_14
1002
{
1000
PYDIR
1011
-96.0
1021
49.99999999999999
1031
0.0
1002
}
1002
{
1000
PXDIR
1011
88.0
1021
-0.0000000000000142
1031
0.0
1002
}
1002
{
1000
PORI
1011
-96.0
1021
-0.0000000000000142
1031
0.0
1002
}
1002
{
1000
PINS
1011
-12.5
1021
24.99999999999999
1031
0.0
1002
}
1002
{
1000
HVAL
1000
50
1002
}
1002
{
1000
H
1070
     2
1002
}
1002
{
1000
WVAL
1000
167
1002
}
1002
{
1000
W
1070
     2
1002
}
1002
{
1000
C
1070
     4
1002
}
1001
GENIUS_GENODEF_13
1002
{
1000
HIER
1070
     0
1002
}
1002
{
1000
MANEDIT
1070
     0
1002
}
1002
{
1000
NOSEL
1070
     0
1002
}
1002
{
1000
BEHIND
1070
     0
1002
}
1002
{
1000
REACTOR
1002
}
1001
GENIUS_GENOBJ-N-REC_13
1002
{
1000
OWNER
1000
GEN
1002
}
  0
LINE
  5
C68
330
C61
100
AcDbEntity
  8
0
100
AcDbLine
 10
0.0
 20
50.0
 30
0.0
 11
-193.0000000000001
 21
50.00000000000002
 31
0.0
1001
GENIUS_GENREC_14
1002
{
1000
PYDIR
1011
-184.0
1021
50.0
1031
0.0
1002
}
1002
{
1000
PXDIR
1011
0.0
1021
0.0
1031
0.0
1002
}
1002
{
1000
PORI
1011
-184.0
1021
0.0
1031
0.0
1002
}
1002
{
1000
PINS
1011
-100.5
1021
25.0
1031
0.0
1002
}
1002
{
1000
HVAL
1000
50
1002
}
1002
{
1000
H
1070
     2
1002
}
1002
{
1000
WVAL
1000
167
1002
}
1002
{
1000
W
1070
     2
1002
}
1002
{
1000
C
1070
     4
1002
}
1001
GENIUS_GENODEF_13
1002
{
1000
HIER
1070
     0
1002
}
1002
{
1000
MANEDIT
1070
     0
1002
}
1002
{
1000
NOSEL
1070
     0
1002
}
1002
{
1000
BEHIND
1070
     0
1002
}
1002
{
1000
REACTOR
1002
}
1001
GENIUS_GENOBJ-N-REC_13
1002
{
1000
OWNER
1000
GEN
1002
}
  0
LINE
  5
C69
330
C61
100
AcDbEntity
  8
0
100
AcDbLine
 10
-193.0000000000001
 20
0.0
 30
0.0
 11
0.0
 21
0.0
 31
0.0
1001
GENIUS_GENREC_14
1002
{
1000
PYDIR
1011
-184.0
1021
50.0
1031
0.0
1002
}
1002
{
1000
PXDIR
1011
0.0
1021
0.0
1031
0.0
1002
}
1002
{
1000
PORI
1011
-184.0
1021
0.0
1031
0.0
1002
}
1002
{
1000
PINS
1011
-100.5
1021
25.0
1031
0.0
1002
}
1002
{
1000
HVAL
1000
50
1002
}
1002
{
1000
H
1070
     2
1002
}
1002
{
1000
WVAL
1000
167
1002
}
1002
{
1000
W
1070
     2
1002
}
1002
{
1000
C
1070
     4
1002
}
1001
GENIUS_GENODEF_13
1002
{
1000
HIER
1070
     0
1002
}
1002
{
1000
MANEDIT
1070
     0
1002
}
1002
{
1000
NOSEL
1070
     0
1002
}
1002
{
1000
BEHIND
1070
     0
1002
}
1002
{
1000
REACTOR
1002
}
1001
GENIUS_GENOBJ-N-REC_13
1002
{
1000
OWNER
1000
GEN
1002
}
  0
TEXT
  5
C6A
330
C61
100
AcDbEntity
  8
RAHM2
100
AcDbText
 10
-91.92677669529663
 20
45.98333333333335
 30
0.0
 40
2.5
  1
5
 72
     1
 11
-91.0
 21
45.65000000000002
 31
0.0
100
AcDbText
 73
     1
  0
TEXT
  5
C6B
330
C61
100
AcDbEntity
  8
RAHM2
100
AcDbText
 10
-92.0
 20
40.98333333333335
 30
0.0
 40
2.5
  1
4
 72
     1
 11
-91.0
 21
40.65000000000002
 31
0.0
100
AcDbText
 73
     1
  0
TEXT
  5
C6C
330
C61
100
AcDbEntity
  8
RAHM2
100
AcDbText
 10
-91.92677669529663
 20
35.98333333333333
 30
0.0
 40
2.5
  1
3
 72
     1
 11
-91.0
 21
35.64999999999999
 31
0.0
100
AcDbText
 73
     1
  0
TEXT
  5
C6D
330
C61
100
AcDbEntity
  8
RAHM2
100
AcDbText
 10
-91.91833169291339
 20
30.98333333333335
 30
0.0
 40
2.5
  1
2
 72
     1
 11
-91.0
 21
30.65000000000002
 31
0.0
100
AcDbText
 73
     1
  0
TEXT
  5
C6E
330
C61
100
AcDbEntity
  8
RAHM2
100
AcDbText
 10
-91.81558635658019
 20
25.98333333333335
 30
0.0
 40
2.5
  1
1
 72
     1
 11
-91.19058635658019
 21
25.65000000000002
 31
0.0
100
AcDbText
 73
     1
  0
MTEXT
  5
C6F
330
C61
100
AcDbEntity
  8
RAHM2
100
AcDbMText
 10
-22.27910888308327
 20
27.50000000000003
 30
0.0
 40
2.5
 41
20.0
 71
     5
 72
     5
  1
・  ・   
 73
     1
 44
1.0
1001
ACAD
1000
MTEXTBEGIN
1070
    73
1070
     1
1070
    44
1040
1.0
1070
    74
1070
     0
1000
MTEXTEND
  0
LINE
  5
C70
330
C61
100
AcDbEntity
  8
RAHM2
100
AcDbLine
 10
-96.0
 20
25.0
 30
0.0
 11
0.0000000000001137
 21
25.00000000000003
 31
0.0
  0
LINE
  5
C71
330
C61
100
AcDbEntity
  8
RAHM2
100
AcDbLine
 10
-93.42487113059645
 20
25.40000000000002
 30
0.0
 11
-88.57512886940355
 21
25.40000000000002
 31
0.0
  0
LINE
  5
C72
330
C61
100
AcDbEntity
  8
RAHM2
100
AcDbLine
 10
-88.57512886940355
 20
25.40000000000002
 30
0.0
 11
-91.0
 21
29.60000000000001
 31
0.0
  0
LINE
  5
C73
330
C61
100
AcDbEntity
  8
RAHM2
100
AcDbLine
 10
-91.0
 20
29.60000000000001
 30
0.0
 11
-93.42487113059645
 21
25.40000000000002
 31
0.0
  0
MTEXT
  5
C74
330
C61
100
AcDbEntity
  8
RAHM2
100
AcDbMText
 10
-22.27910888308327
 20
47.50000000000002
 30
0.0
 40
2.5
 41
20.0
 71
     5
 72
     5
  1
・  ・   
 73
     1
 44
1.0
1001
ACAD
1000
MTEXTBEGIN
1070
    73
1070
     1
1070
    44
1040
1.0
1070
    74
1070
     0
1000
MTEXTEND
  0
MTEXT
  5
C75
330
C61
100
AcDbEntity
  8
RAHM2
100
AcDbMText
 10
-22.27910888308327
 20
37.50000000000003
 30
0.0
 40
2.5
 41
20.0
 71
     5
 72
     5
  1
・  ・   
 73
     1
 44
1.0
1001
ACAD
1000
MTEXTBEGIN
1070
    73
1070
     1
1070
    44
1040
1.0
1070
    74
1070
     0
1000
MTEXTEND
  0
MTEXT
  5
C76
330
C61
100
AcDbEntity
  8
RAHM2
100
AcDbMText
 10
-22.27910888308327
 20
42.50000000000002
 30
0.0
 40
2.5
 41
20.0
 71
     5
 72
     5
  1
・  ・   
 73
     1
 44
1.0
1001
ACAD
1000
MTEXTBEGIN
1070
    73
1070
     1
1070
    44
1040
1.0
1070
    74
1070
     0
1000
MTEXTEND
  0
MTEXT
  5
C77
330
C61
100
AcDbEntity
  8
RAHM2
100
AcDbMText
 10
-5.910409705344477
 20
22.49999999999997
 30
0.0
 40
2.5
 41
15.0
 71
     5
 72
     5
  1
担当
 73
     1
 44
1.0
1001
ACAD
1000
MTEXTBEGIN
1070
    73
1070
     1
1070
    44
1040
1.0
1070
    74
1070
     0
1000
MTEXTEND
  0
MTEXT
  5
C78
330
C61
100
AcDbEntity
  8
RAHM2
100
AcDbMText
 10
-21.55893921569111
 20
22.49999999999997
 30
0.0
 40
2.5
 41
20.0
 71
     5
 72
     5
  1
年・月・日
 73
     1
 44
1.0
1001
ACAD
1000
MTEXTBEGIN
1070
    73
1070
     1
1070
    44
1040
1.0
1070
    74
1070
     0
1000
MTEXTEND
  0
MTEXT
  5
C79
330
C61
100
AcDbEntity
  8
RAHM2
100
AcDbMText
 10
-22.27910888308327
 20
32.50000000000003
 30
0.0
 40
2.5
 41
20.0
 71
     5
 72
     5
  1
・  ・   
 73
     1
 44
1.0
1001
ACAD
1000
MTEXTBEGIN
1070
    73
1070
     1
1070
    44
1040
1.0
1070
    74
1070
     0
1000
MTEXTEND
  0
LINE
  5
C7A
330
C61
100
AcDbEntity
  8
RAHM2
100
AcDbLine
 10
-11.82081941068907
 20
50.00000000000003
 30
0.0
 11
-11.82081941068907
 21
19.99999999999994
 31
0.0
  0
MTEXT
  5
C7B
330
C61
100
AcDbEntity
  8
RAHM2
100
AcDbMText
 10
-59.0
 20
22.49999999999996
 30
0.0
 40
2.5
 41
45.0
 71
     5
 72
     5
  1
変更記事
 73
     1
 44
1.0
1001
ACAD
1000
MTEXTBEGIN
1070
    73
1070
     1
1070
    44
1040
1.0
1070
    74
1070
     0
1000
MTEXTEND
  0
LINE
  5
C7C
330
C61
100
AcDbEntity
  8
RAHM2
100
AcDbLine
 10
-31.82081941068907
 20
50.00000000000003
 30
0.0
 11
-31.82081941068918
 21
19.99999999999994
 31
0.0
  0
LINE
  5
C7D
330
C61
100
AcDbEntity
  8
RAHM2
100
AcDbLine
 10
-91.0
 20
49.6
 30
0.0
 11
-93.42487113059645
 21
45.40000000000001
 31
0.0
  0
LINE
  5
C7E
330
C61
100
AcDbEntity
  8
RAHM2
100
AcDbLine
 10
-91.0
 20
44.6
 30
0.0
 11
-93.42487113059645
 21
40.40000000000001
 31
0.0
  0
LINE
  5
C7F
330
C61
100
AcDbEntity
  8
RAHM2
100
AcDbLine
 10
-91.0
 20
39.60000000000001
 30
0.0
 11
-93.42487113059645
 21
35.40000000000002
 31
0.0
  0
LINE
  5
C80
330
C61
100
AcDbEntity
  8
RAHM2
100
AcDbLine
 10
-88.57512886940355
 20
35.40000000000002
 30
0.0
 11
-91.0
 21
39.60000000000001
 31
0.0
  0
LINE
  5
C81
330
C61
100
AcDbEntity
  8
RAHM2
100
AcDbLine
 10
-93.42487113059645
 20
35.40000000000002
 30
0.0
 11
-88.57512886940355
 21
35.40000000000002
 31
0.0
  0
LINE
  5
C82
330
C61
100
AcDbEntity
  8
RAHM2
100
AcDbLine
 10
-88.57512886940355
 20
40.40000000000001
 30
0.0
 11
-91.0
 21
44.6
 31
0.0
  0
LINE
  5
C83
330
C61
100
AcDbEntity
  8
RAHM2
100
AcDbLine
 10
-93.42487113059645
 20
40.40000000000001
 30
0.0
 11
-88.57512886940355
 21
40.40000000000001
 31
0.0
  0
LINE
  5
C84
330
C61
100
AcDbEntity
  8
RAHM2
100
AcDbLine
 10
-88.57512886940355
 20
45.40000000000001
 30
0.0
 11
-91.0
 21
49.6
 31
0.0
  0
LINE
  5
C85
330
C61
100
AcDbEntity
  8
RAHM2
100
AcDbLine
 10
-93.42487113059645
 20
45.40000000000001
 30
0.0
 11
-88.57512886940355
 21
45.40000000000001
 31
0.0
  0
MTEXT
  5
C86
330
C61
100
AcDbEntity
  8
RAHM2
100
AcDbMText
 10
-94.80025513713144
 20
18.8010354072796
 30
0.0
 40
2.5
 41
90.0
 71
     1
 72
     5
  1
品名
 73
     1
 44
1.0
1001
ACAD
1000
MTEXTBEGIN
1070
    73
1070
     1
1070
    44
1040
1.0
1070
    74
1070
     0
1000
MTEXTEND
  0
MTEXT
  5
C87
330
C61
100
AcDbEntity
  8
RAHM2
100
AcDbMText
 10
-91.0
 20
22.49999999999996
 30
0.0
 40
2.5
 41
10.0
 71
     5
 72
     5
  1
符号
 73
     1
 44
1.0
1001
ACAD
1000
MTEXTBEGIN
1070
    73
1070
     1
1070
    44
1040
1.0
1070
    74
1070
     0
1000
MTEXTEND
  0
LINE
  5
C88
330
C61
100
AcDbEntity
  8
RAHM2
100
AcDbLine
 10
-93.42487113059645
 20
30.40000000000002
 30
0.0
 11
-88.57512886940355
 21
30.40000000000002
 31
0.0
  0
LINE
  5
C89
330
C61
100
AcDbEntity
  8
RAHM2
100
AcDbLine
 10
-86.0
 20
50.00000000000001
 30
0.0
 11
-86.0
 21
19.99999999999993
 31
0.0
  0
LINE
  5
C8A
330
C61
100
AcDbEntity
  8
RAHM2
100
AcDbLine
 10
-91.0
 20
34.60000000000001
 30
0.0
 11
-93.42487113059645
 21
30.40000000000002
 31
0.0
  0
LINE
  5
C8B
330
C61
100
AcDbEntity
  8
RAHM2
100
AcDbLine
 10
-88.57512886940355
 20
30.40000000000002
 30
0.0
 11
-91.0
 21
34.60000000000001
 31
0.0
  0
MTEXT
  5
C8C
330
C61
100
AcDbEntity
  8
RAHM2
100
AcDbMText
 10
-94.80025513713144
 20
5.801035407279627
 30
0.0
 40
2.5
 41
90.0
 71
     1
 72
     5
  1
図番
 73
     1
 44
1.0
1001
ACAD
1000
MTEXTBEGIN
1070
    73
1070
     1
1070
    44
1040
1.0
1070
    74
1070
     0
1000
MTEXTEND
  0
LINE
  5
C8D
330
C61
100
AcDbEntity
  8
0
100
AcDbLine
 10
-96.0
 20
19.99999999999997
 30
0.0
 11
0.0000000000001137
 21
19.99999999999997
 31
0.0
  0
LINE
  5
C8E
330
C61
100
AcDbEntity
  8
0
100
AcDbLine
 10
-96.0
 20
7.0
 30
0.0
 11
0.0000000000001137
 21
7.0
 31
0.0
  0
LINE
  5
C8F
330
C61
100
AcDbEntity
  8
RAHM2
100
AcDbLine
 10
-96.0
 20
45.00000000000002
 30
0.0
 11
0.0000000000001137
 21
45.00000000000002
 31
0.0
  0
LINE
  5
C90
330
C61
100
AcDbEntity
  8
RAHM2
100
AcDbLine
 10
-96.0
 20
39.99999999999993
 30
0.0
 11
0.0000000000001137
 21
40.00000000000002
 31
0.0
  0
LINE
  5
C91
330
C61
100
AcDbEntity
  8
RAHM2
100
AcDbLine
 10
-96.0
 20
35.00000000000003
 30
0.0
 11
0.0000000000001137
 21
35.00000000000003
 31
0.0
  0
LINE
  5
C92
330
C61
100
AcDbEntity
  8
RAHM2
100
AcDbLine
 10
-96.0
 20
29.99999999999992
 30
0.0
 11
0.0000000000001137
 21
30.00000000000003
 31
0.0
  0
LINE
  5
C93
330
C61
100
AcDbEntity
  8
0
100
AcDbLine
 10
-21.17541926625711
 20
0.0
 30
0.0
 11
-21.17541926625734
 21
7.0
 31
0.0
  0
MTEXT
  5
C94
330
C61
100
AcDbEntity
  8
RAHM2
100
AcDbMText
 10
-16.85742592933491
 20
3.434762466565985
 30
0.0
 40
2.5
 41
7.936478436748416
 71
     5
 72
     5
  1
Rev.
 73
     1
 44
1.0
1001
ACAD
1000
MTEXTBEGIN
1070
    73
1070
     1
1070
    44
1040
1.0
1070
    74
1070
     0
1000
MTEXTEND
  0
MTEXT
  5
C95
330
C61
100
AcDbEntity
  8
RAHM2
100
AcDbMText
 10
-104.875
 20
18.80103540727957
 30
0.0
 40
2.5
 41
17.0
 71
     2
 72
     5
  1
製図
 73
     1
 44
1.0
1001
ACAD
1000
MTEXTBEGIN
1070
    73
1070
     1
1070
    44
1040
1.0
1070
    74
1070
     0
1000
MTEXTEND
  0
LINE
  5
C96
330
C61
100
AcDbEntity
  8
0
100
AcDbLine
 10
-167.0
 20
19.99999999999993
 30
0.0
 11
-96.0
 21
19.99999999999993
 31
0.0
  0
LINE
  5
C97
330
C61
100
AcDbEntity
  8
0
100
AcDbLine
 10
-113.75
 20
19.99999999999993
 30
0.0
 11
-113.75
 21
-0.0000000000000533
 31
0.0
  0
LINE
  5
C98
330
C61
100
AcDbEntity
  8
0
100
AcDbLine
 10
-131.5000000000001
 20
19.99999999999993
 30
0.0
 11
-131.5000000000001
 21
-0.0000000000000533
 31
0.0
  0
MTEXT
  5
C99
330
C61
100
AcDbEntity
  8
RAHM2
100
AcDbMText
 10
-122.6250000000001
 20
18.80103540727958
 30
0.0
 40
2.5
 41
17.0
 71
     2
 72
     5
  1
検図
 73
     1
 44
1.0
1001
ACAD
1000
MTEXTBEGIN
1070
    73
1070
     1
1070
    44
1040
1.0
1070
    74
1070
     0
1000
MTEXTEND
  0
LINE
  5
C9A
330
C61
100
AcDbEntity
  8
0
100
AcDbLine
 10
-167.0
 20
49.99999999999995
 30
0.0
 11
-167.0
 21
-0.0000000000000497
 31
0.0
  0
LINE
  5
C9B
330
C61
100
AcDbEntity
  8
0
100
AcDbLine
 10
-149.2500000000001
 20
19.99999999999993
 30
0.0
 11
-149.2500000000001
 21
-0.0000000000000462
 31
0.0
  0
MTEXT
  5
C9C
330
C61
100
AcDbEntity
  8
RAHM2
100
AcDbMText
 10
-140.3750000000001
 20
18.80103540727958
 30
0.0
 40
2.5
 41
17.0
 71
     2
 72
     5
  1
承認
 73
     1
 44
1.0
1001
ACAD
1000
MTEXTBEGIN
1070
    73
1070
     1
1070
    44
1040
1.0
1070
    74
1070
     0
1000
MTEXTEND
  0
MTEXT
  5
C9D
330
C61
100
AcDbEntity
  8
RAHM2
100
AcDbMText
 10
-158.1250000000001
 20
18.80103540727956
 30
0.0
 40
2.5
 41
17.0
 71
     2
 72
     5
  1
承認
 73
     1
 44
1.0
1001
ACAD
1000
MTEXTBEGIN
1070
    73
1070
     1
1070
    44
1040
1.0
1070
    74
1070
     0
1000
MTEXTEND
  0
LINE
  5
C9E
330
C61
100
AcDbEntity
  8
0
100
AcDbLine
 10
-167.0
 20
29.99999999999992
 30
0.0
 11
-96.0
 21
29.99999999999992
 31
0.0
  0
MTEXT
  5
C9F
330
C61
100
AcDbEntity
  8
0
100
AcDbMText
 10
-131.5000000000001
 20
24.99999999999992
 30
0.0
 40
3.5
 41
60.0
 71
     5
 72
     5
  1
\fＭＳ ゴシック|b0|i0|c128|p49;株式会社タカチ電機工業
 73
     1
 44
1.0
1001
ACAD
1000
MTEXTBEGIN
1070
    73
1070
     1
1070
    44
1040
1.0
1070
    74
1070
     0
1000
MTEXTEND
  0
ATTDEF
  5
CA0
330
C61
100
AcDbEntity
  8
0
100
AcDbText
 10
-148.9618675835291
 20
43.29999999999991
 30
0.0
 40
3.0
  1

100
AcDbAttributeDefinition
  3
材質
  2
GEN-TITLE-MAT1
 70
     0
  0
ATTDEF
  5
CA1
330
C61
100
AcDbEntity
  8
0
100
AcDbText
 10
-148.9618675835291
 20
33.29999999999991
 30
0.0
 40
3.0
  1

100
AcDbAttributeDefinition
  3
表面処理
  2
GEN-TITLE-MAT2
 70
     0
  0
MTEXT
  5
CA2
330
C61
100
AcDbEntity
  8
RAHM2
100
AcDbMText
 10
-165.8002551371314
 20
48.80103540727955
 30
0.0
 40
2.5
 41
60.0
 71
     1
 72
     5
  1
材質
 73
     1
 44
1.0
1001
ACAD
1000
MTEXTBEGIN
1070
    73
1070
     1
1070
    44
1040
1.0
1070
    74
1070
     0
1000
MTEXTEND
  0
MTEXT
  5
CA3
330
C61
100
AcDbEntity
  8
RAHM2
100
AcDbMText
 10
-165.8002551371314
 20
38.80103540727956
 30
0.0
 40
2.5
 41
60.0
 71
     1
 72
     5
  1
表面処理
 73
     1
 44
1.0
1001
ACAD
1000
MTEXTBEGIN
1070
    73
1070
     1
1070
    44
1040
1.0
1070
    74
1070
     0
1000
MTEXTEND
  0
LINE
  5
CA4
330
C61
100
AcDbEntity
  8
0
100
AcDbLine
 10
-167.0
 20
39.99999999999991
 30
0.0
 11
-96.0
 21
39.99999999999992
 31
0.0
  0
LINE
  5
CA5
330
C61
100
AcDbEntity
  8
0
100
AcDbLine
 10
-167.0
 20
24.99999999999997
 30
0.0
 11
-193.0000000000001
 21
24.99999999999997
 31
0.0
  0
LINE
  5
CA6
330
C61
100
AcDbEntity
  8
0
100
AcDbLine
 10
-171.7167418745796
 20
46.74999999999995
 30
0.0
 11
-171.7167418745796
 21
40.74999999999994
 31
0.0
  0
LINE
  5
CA7
330
C61
100
AcDbEntity
  8
7A
100
AcDbLine
 10
-184.7167418745796
 20
43.74999999999995
 30
0.0
 11
-184.7167418745796
 21
40.03991724228473
 31
0.0
1001
GENIUS_GENOREF_13
1005
CB9
  0
LINE
  5
CA8
330
C61
100
AcDbEntity
  8
7A
100
AcDbLine
 10
-184.7167418745796
 20
43.74999999999995
 30
0.0
 11
-188.4397792458307
 21
43.74999999999995
 31
0.0
1001
GENIUS_GENOREF_13
1005
CB9
  0
LINE
  5
CA9
330
C61
100
AcDbEntity
  8
0
100
AcDbLine
 10
-179.7167418745796
 20
41.74999999999995
 30
0.0
 11
-179.7167418745796
 21
45.74999999999994
 31
0.0
  0
CIRCLE
  5
CAA
330
C61
100
AcDbEntity
  8
0
100
AcDbCircle
 10
-184.7167418745796
 20
43.74999999999995
 30
0.0
 40
3.0
  0
CIRCLE
  5
CAB
330
C61
100
AcDbEntity
  8
0
100
AcDbCircle
 10
-184.7167418745796
 20
43.74999999999995
 30
0.0
 40
2.0
  0
LINE
  5
CAC
330
C61
100
AcDbEntity
  8
7A
100
AcDbLine
 10
-184.7167418745796
 20
43.74999999999995
 30
0.0
 11
-184.7167418745796
 21
47.32478664473144
 31
0.0
1001
GENIUS_GENOREF_13
1005
CB9
  0
LINE
  5
CAD
330
C61
100
AcDbEntity
  8
0
100
AcDbLine
 10
-171.7167418745796
 20
40.74999999999994
 30
0.0
 11
-179.7167418745796
 21
41.74999999999995
 31
0.0
  0
LINE
  5
CAE
330
C61
100
AcDbEntity
  8
0
100
AcDbLine
 10
-179.7167418745796
 20
45.74999999999994
 30
0.0
 11
-171.7167418745796
 21
46.74999999999995
 31
0.0
  0
LINE
  5
CAF
330
C61
100
AcDbEntity
  8
7A
100
AcDbLine
 10
-184.7167418745796
 20
43.74999999999995
 30
0.0
 11
-170.9354334742943
 21
43.74999999999995
 31
0.0
1001
GENIUS_GENOREF_13
1005
CB9
  0
LINE
  5
CB0
330
C61
100
AcDbEntity
  8
0
100
AcDbLine
 10
-193.0000000000001
 20
49.99999999999999
 30
0.0
 11
-193.0000000000001
 21
-0.0000000000000142
 31
0.0
  0
ATTDEF
  5
CB1
330
C61
100
AcDbEntity
  8
0
100
AcDbText
 10
-175.6127409126095
 20
16.19999999999994
 30
0.0
 40
3.0
  1

 72
     2
 11
-175.6127409126095
 21
15.79999999999994
 31
0.0
100
AcDbAttributeDefinition
  3
数量
  2
GEN-TITLE-QTY
 70
     0
 74
     1
  0
MTEXT
  5
CB2
330
C61
100
AcDbEntity
  8
RAHM2
100
AcDbMText
 10
-191.8002551371315
 20
23.80103540727963
 30
0.0
 40
2.5
 41
20.0
 71
     1
 72
     5
  1
数量
 73
     1
 44
1.0
1001
ACAD
1000
MTEXTBEGIN
1070
    73
1070
     1
1070
    44
1040
1.0
1070
    74
1070
     0
1000
MTEXTEND
  0
MTEXT
  5
CB3
330
C61
100
AcDbEntity
  8
RAHM2
100
AcDbMText
 10
-191.8002551371315
 20
36.30103540727966
 30
0.0
 40
2.5
 41
20.0
 71
     1
 72
     5
  1
尺度
 73
     1
 44
1.0
1001
ACAD
1000
MTEXTBEGIN
1070
    73
1070
     1
1070
    44
1040
1.0
1070
    74
1070
     0
1000
MTEXTEND
  0
ATTDEF
  5
CB4
330
C61
100
AcDbEntity
  8
0
100
AcDbText
 10
-177.824739614424
 20
28.69999999999997
 30
0.0
 40
3.0
  1

 72
     2
 11
-177.824739614424
 21
28.29999999999998
 31
0.0
100
AcDbAttributeDefinition
  3
尺度
  2
GEN-TITLE-SCA
 70
     0
 74
     1
  0
MTEXT
  5
CB5
330
C61
100
AcDbEntity
  8
RAHM2
100
AcDbMText
 10
-191.8002551371315
 20
11.3010354072796
 30
0.0
 40
2.5
 41
60.0
 71
     1
 72
     5
  1
日付
 73
     1
 44
1.0
1001
ACAD
1000
MTEXTBEGIN
1070
    73
1070
     1
1070
    44
1040
1.0
1070
    74
1070
     0
1000
MTEXTEND
  0
ATTDEF
  5
CB6
330
C61
100
AcDbEntity
  8
0
100
AcDbText
 10
-180.2171951662138
 20
3.988342537610664
 30
0.0
 40
3.0
  1

 72
     1
 11
-180.2171951662138
 21
3.588342537610664
 31
0.0
100
AcDbAttributeDefinition
  3
日付
  2
GEN-TITLE-DAT
 70
     0
 74
     1
  0
LINE
  5
CB7
330
C61
100
AcDbEntity
  8
0
100
AcDbLine
 10
-167.0
 20
37.49999999999998
 30
0.0
 11
-193.0000000000001
 21
37.49999999999998
 31
0.0
  0
LINE
  5
CB8
330
C61
100
AcDbEntity
  8
0
100
AcDbLine
 10
-167.0
 20
12.49999999999996
 30
0.0
 11
-193.0000000000001
 21
12.49999999999996
 31
0.0
  0
POINT
  5
CB9
330
C61
100
AcDbEntity
  8
0
 60
     1
100
AcDbPoint
 10
-418.5355579819675
 20
-138.1104841268254
 30
0.0
1001
GENIUS_GENODEF_13
1002
{
1000
HIER
1070
    10
1002
}
1002
{
1000
MANEDIT
1070
     0
1002
}
1002
{
1000
NOSEL
1070
     0
1002
}
1002
{
1000
BEHIND
1070
     0
1002
}
1002
{
1000
REACTOR
1002
}
1001
GENIUS_GENOBJ-N-CRS_13
1002
{
1000
OWNER
1000
GEN
1002
}
1001
GENIUS_GENOENT_13
1002
{
1000
MYREF
1005
CB9
1002
}
1002
{
1000
GRP
1005
0
1002
}
1001
GENIUS_GENOLIS_13
1002
{
1000
ENT
1005
CA7
1005
CA8
1005
CAC
1005
CAF
1002
}
  0
ENDBLK
  5
CBC
330
C61
100
AcDbEntity
  8
0
100
AcDbBlockEnd
  0
BLOCK
  5
12AF
330
1284
100
AcDbEntity
  8
0
100
AcDbBlockBegin
  2
TK-仕様書
 70
     2
 10
0.0
 20
0.0
 30
0.0
  3
TK-仕様書
  1

  0
LINE
  5
1285
330
1284
100
AcDbEntity
  8
0
100
AcDbLine
 10
0.0
 20
0.0
 30
0.0
 11
-193.0
 21
0.0
 31
0.0
  0
MTEXT
  5
1286
330
1284
100
AcDbEntity
  8
RAHM2
100
AcDbMText
 10
-13.49547879617512
 20
18.95800561859732
 30
0.0
 40
2.5
 41
17.0
 71
     2
 72
     5
  1
製図
 73
     1
 44
1.0
1001
ACAD
1000
MTEXTBEGIN
1070
    73
1070
     1
1070
    44
1040
1.0
1070
    74
1070
     0
1000
MTEXTEND
  0
LINE
  5
1287
330
1284
100
AcDbEntity
  8
0
100
AcDbLine
 10
-158.0
 20
19.99999999999994
 30
0.0
 11
-0.0000000000001137
 21
19.99999999999994
 31
0.0
  0
MTEXT
  5
1288
330
1284
100
AcDbEntity
  8
RAHM2
100
AcDbMText
 10
-37.16787255596216
 20
18.92584712714763
 30
0.0
 40
2.5
 41
17.0
 71
     2
 72
     5
  1
検図
 73
     1
 44
1.0
1001
ACAD
1000
MTEXTBEGIN
1070
    73
1070
     1
1070
    44
1040
1.0
1070
    74
1070
     0
1000
MTEXTEND
  0
MTEXT
  5
1289
330
1284
100
AcDbEntity
  8
RAHM2
100
AcDbMText
 10
-62.42890220057859
 20
18.8010354072796
 30
0.0
 40
2.5
 41
17.0
 71
     2
 72
     5
  1
承認
 73
     1
 44
1.0
1001
ACAD
1000
MTEXTBEGIN
1070
    73
1070
     1
1070
    44
1040
1.0
1070
    74
1070
     0
1000
MTEXTEND
  0
LINE
  5
128A
330
1284
100
AcDbEntity
  8
0
100
AcDbLine
 10
0.0
 20
35.0
 30
0.0
 11
0.0
 21
0.0
 31
0.0
  0
LINE
  5
128B
330
1284
100
AcDbEntity
  8
0
100
AcDbLine
 10
0.0
 20
35.0
 30
0.0
 11
-193.0
 21
35.0
 31
0.0
  0
MTEXT
  5
128C
330
1284
100
AcDbEntity
  8
0
100
AcDbMText
 10
-39.12922241223714
 20
26.64015547907764
 30
0.0
 40
3.5
 41
60.0
 71
     5
 72
     5
  1
\fＭＳ ゴシック|b0|i0|c128|p49;株式会社タカチ電機工業
 73
     1
 44
1.0
1001
ACAD
1000
MTEXTBEGIN
1070
    73
1070
     1
1070
    44
1040
1.0
1070
    74
1070
     0
1000
MTEXTEND
  0
LINE
  5
128D
330
1284
100
AcDbEntity
  8
0
100
AcDbLine
 10
-158.0
 20
35.0
 30
0.0
 11
-158.0
 21
0.0
 31
0.0
  0
LINE
  5
128E
330
1284
100
AcDbEntity
  8
0
100
AcDbLine
 10
-75.00000000000011
 20
7.0
 30
0.0
 11
-158.0
 21
7.0
 31
0.0
  0
MTEXT
  5
128F
330
1284
100
AcDbEntity
  8
RAHM2
100
AcDbMText
 10
-156.8002551371314
 20
33.80103540727967
 30
0.0
 40
2.5
 41
90.0
 71
     1
 72
     5
  1
品名
 73
     1
 44
1.0
1001
ACAD
1000
MTEXTBEGIN
1070
    73
1070
     1
1070
    44
1040
1.0
1070
    74
1070
     0
1000
MTEXTEND
  0
MTEXT
  5
1290
330
1284
100
AcDbEntity
  8
RAHM2
100
AcDbMText
 10
-156.8002551371314
 20
18.80103540727961
 30
0.0
 40
2.5
 41
90.0
 71
     1
 72
     5
  1
型番
 73
     1
 44
1.0
1001
ACAD
1000
MTEXTBEGIN
1070
    73
1070
     1
1070
    44
1040
1.0
1070
    74
1070
     0
1000
MTEXTEND
  0
MTEXT
  5
1291
330
1284
100
AcDbEntity
  8
RAHM2
100
AcDbMText
 10
-156.8002551371314
 20
5.801035407279627
 30
0.0
 40
2.5
 41
90.0
 71
     1
 72
     5
  1
図番
 73
     1
 44
1.0
1001
ACAD
1000
MTEXTBEGIN
1070
    73
1070
     1
1070
    44
1040
1.0
1070
    74
1070
     0
1000
MTEXTEND
  0
LINE
  5
1292
330
1284
100
AcDbEntity
  8
0
100
AcDbLine
 10
-193.0
 20
35.0
 30
0.0
 11
-193.0
 21
0.0
 31
0.0
  0
LINE
  5
1293
330
1284
100
AcDbEntity
  8
0
100
AcDbLine
 10
-193.0
 20
12.0
 30
0.0
 11
-158.0
 21
12.0
 31
0.0
  0
LINE
  5
1294
330
1284
100
AcDbEntity
  8
0
100
AcDbLine
 10
-193.0
 20
23.0
 30
0.0
 11
-158.0
 21
23.0
 31
0.0
  0
LINE
  5
1295
330
1284
100
AcDbEntity
  8
0
100
AcDbLine
 10
-168.4871100370843
 20
31.95885022025721
 30
0.0
 11
-168.4871100370843
 21
25.95885022025721
 31
0.0
  0
LINE
  5
1296
330
1284
100
AcDbEntity
  8
7A
100
AcDbLine
 10
-181.4871100370843
 20
28.95885022025721
 30
0.0
 11
-181.4871100370843
 21
25.248767462542
 31
0.0
1001
GENIUS_GENOREF_13
1005
129F
  0
LINE
  5
1297
330
1284
100
AcDbEntity
  8
7A
100
AcDbLine
 10
-181.4871100370843
 20
28.95885022025721
 30
0.0
 11
-185.2101474083355
 21
28.95885022025721
 31
0.0
1001
GENIUS_GENOREF_13
1005
129F
  0
LINE
  5
1298
330
1284
100
AcDbEntity
  8
0
100
AcDbLine
 10
-176.4871100370843
 20
26.95885022025721
 30
0.0
 11
-176.4871100370843
 21
30.95885022025721
 31
0.0
  0
CIRCLE
  5
1299
330
1284
100
AcDbEntity
  8
0
100
AcDbCircle
 10
-181.4871100370843
 20
28.95885022025721
 30
0.0
 40
3.0
  0
CIRCLE
  5
129A
330
1284
100
AcDbEntity
  8
0
100
AcDbCircle
 10
-181.4871100370843
 20
28.95885022025721
 30
0.0
 40
2.0
  0
LINE
  5
129B
330
1284
100
AcDbEntity
  8
7A
100
AcDbLine
 10
-181.4871100370843
 20
28.95885022025721
 30
0.0
 11
-181.4871100370843
 21
32.5336368649887
 31
0.0
1001
GENIUS_GENOREF_13
1005
129F
  0
LINE
  5
129C
330
1284
100
AcDbEntity
  8
0
100
AcDbLine
 10
-168.4871100370843
 20
25.95885022025721
 30
0.0
 11
-176.4871100370843
 21
26.95885022025721
 31
0.0
  0
LINE
  5
129D
330
1284
100
AcDbEntity
  8
0
100
AcDbLine
 10
-176.4871100370843
 20
30.95885022025721
 30
0.0
 11
-168.4871100370843
 21
31.95885022025721
 31
0.0
  0
LINE
  5
129E
330
1284
100
AcDbEntity
  8
7A
100
AcDbLine
 10
-181.4871100370843
 20
28.95885022025721
 30
0.0
 11
-167.705801636799
 21
28.95885022025721
 31
0.0
1001
GENIUS_GENOREF_13
1005
129F
  0
POINT
  5
129F
330
1284
100
AcDbEntity
  8
0
 60
     1
100
AcDbPoint
 10
-374.8221277175838
 20
-247.1434073158938
 30
0.0
1001
GENIUS_GENODEF_13
1002
{
1000
HIER
1070
    10
1002
}
1002
{
1000
MANEDIT
1070
     0
1002
}
1002
{
1000
NOSEL
1070
     0
1002
}
1002
{
1000
BEHIND
1070
     0
1002
}
1002
{
1000
REACTOR
1002
}
1001
GENIUS_GENOBJ-N-CRS_13
1002
{
1000
OWNER
1000
GEN
1002
}
1001
GENIUS_GENOENT_13
1002
{
1000
MYREF
1005
129F
1002
}
1002
{
1000
GRP
1005
0
1002
}
1001
GENIUS_GENOLIS_13
1002
{
1000
ENT
1005
1296
1005
1297
1005
129B
1005
129E
1002
}
  0
MTEXT
  5
12A0
330
1284
100
AcDbEntity
  8
RAHM2
100
AcDbMText
 10
-191.8002551371314
 20
21.80103540727967
 30
0.0
 40
2.5
 41
20.0
 71
     1
 72
     5
  1
尺度
 73
     1
 44
1.0
1001
ACAD
1000
MTEXTBEGIN
1070
    73
1070
     1
1070
    44
1040
1.0
1070
    74
1070
     0
1000
MTEXTEND
  0
MTEXT
  5
12A1
330
1284
100
AcDbEntity
  8
RAHM2
100
AcDbMText
 10
-191.8002551371314
 20
10.80103540727964
 30
0.0
 40
2.5
 41
60.0
 71
     1
 72
     5
  1
作成日
 73
     1
 44
1.0
1001
ACAD
1000
MTEXTBEGIN
1070
    73
1070
     1
1070
    44
1040
1.0
1070
    74
1070
     0
1000
MTEXTEND
  0
LINE
  5
12A2
330
1284
100
AcDbEntity
  8
0
100
AcDbLine
 10
-75.0
 20
35.0
 30
0.0
 11
-75.0
 21
0.0
 31
0.0
  0
LINE
  5
12A3
330
1284
100
AcDbEntity
  8
0
100
AcDbLine
 10
-50.00000000000011
 20
19.99999999999993
 30
0.0
 11
-50.0
 21
0.0
 31
0.0
  0
LINE
  5
12A4
330
1284
100
AcDbEntity
  8
0
100
AcDbLine
 10
-25.00000000000011
 20
19.99999999999993
 30
0.0
 11
-25.0
 21
0.0
 31
0.0
  0
ATTDEF
  5
12A5
330
1284
100
AcDbEntity
  8
0
100
AcDbText
 10
-181.2742124931365
 20
2.74583463158126
 30
0.0
 40
3.0
  1

100
AcDbAttributeDefinition
  3
作成日
  2
GEN-TITLE-DAT
 70
     0
  0
ATTDEF
  5
12A6
330
1284
100
AcDbEntity
  8
0
100
AcDbText
 10
-146.1561493930892
 20
24.94727555274869
 30
0.0
 40
3.5
  1

100
AcDbAttributeDefinition
  3
品名
  2
品名
 70
     0
  0
ATTDEF
  5
12A7
330
1284
100
AcDbEntity
  8
0
100
AcDbText
 10
-146.1391682485609
 20
11.53771236320705
 30
0.0
 40
3.5
  1

100
AcDbAttributeDefinition
  3
型番
  2
型番
 70
     0
  0
ATTDEF
  5
12A8
330
1284
100
AcDbEntity
  8
0
100
AcDbText
 10
-146.4521600020492
 20
2.056420693678944
 30
0.0
 40
3.0
  1

100
AcDbAttributeDefinition
  3
図番
  2
図番
 70
     0
  0
ATTDEF
  5
12A9
330
1284
100
AcDbEntity
  8
0
100
AcDbText
 10
-37.50000000000011
 20
7.72907666823994
 30
0.0
 40
3.5
  1

 72
     4
 11
-37.50000000000011
 21
7.72907666823994
 31
0.0
100
AcDbAttributeDefinition
  3
検図
  2
検図
 70
     0
  0
ATTDEF
  5
12AA
330
1284
100
AcDbEntity
  8
0
100
AcDbText
 10
-12.50000000000011
 20
7.72907666823994
 30
0.0
 40
3.5
  1

 72
     4
 11
-12.50000000000011
 21
7.72907666823994
 31
0.0
100
AcDbAttributeDefinition
  3
製図
  2
製図
 70
     0
  0
ATTDEF
  5
12AB
330
1284
100
AcDbEntity
  8
0
100
AcDbText
 10
-171.4618225301921
 20
15.79266317345349
 30
0.0
 40
3.0
  1

 72
     4
 11
-171.4618225301921
 21
15.79266317345349
 31
0.0
100
AcDbAttributeDefinition
  3
尺度
  2
GEN-TITLE-SCA
 70
     0
  0
ATTDEF
  5
12AC
330
1284
100
AcDbEntity
  8
0
100
AcDbText
 10
-62.71951765738686
 20
7.729076668239944
 30
0.0
 40
3.5
  1

 72
     4
 11
-62.71951765738686
 21
7.729076668239944
 31
0.0
100
AcDbAttributeDefinition
  3
承認
  2
承認
 70
     0
  0
ENDBLK
  5
12B0
330
1284
100
AcDbEntity
  8
0
100
AcDbBlockEnd
  0
BLOCK
  5
1881
330
1880
100
AcDbEntity
  8
0
100
AcDbBlockBegin
  2
*D36
 70
     1
 10
0.0
 20
0.0
 30
0.0
  3
*D36
  1

  0
LINE
  5
1CBE
330
1880
100
AcDbEntity
  8
AM_5
100
AcDbLine
 10
144.7585730776868
 20
113.3598487869907
 30
0.0
 11
144.7585730776868
 21
96.15984777699082
 31
0.0
  0
LINE
  5
1CBF
330
1880
100
AcDbEntity
  8
AM_5
100
AcDbLine
 10
145.5585730776868
 20
113.3598487869907
 30
0.0
 11
145.5585730776868
 21
96.15984777699082
 31
0.0
  0
LINE
  5
1CC0
330
1880
100
AcDbEntity
  8
AM_5
100
AcDbLine
 10
142.2585730776868
 20
97.15984777699082
 30
0.0
 11
139.7585730776867
 21
97.15984777699082
 31
0.0
  0
LINE
  5
1CC1
330
1880
100
AcDbEntity
  8
AM_5
100
AcDbLine
 10
148.0585730776868
 20
97.15984777699082
 30
0.0
 11
158.4613289831986
 21
97.15984777699082
 31
0.0
  0
LINE
  5
1CC2
330
1880
100
AcDbEntity
  8
AM_5
100
AcDbLine
 10
144.7585730776868
 20
97.15984777699082
 30
0.0
 11
145.5585730776868
 21
97.15984777699082
 31
0.0
  0
INSERT
  5
1CC3
330
1880
100
AcDbEntity
  8
AM_5
100
AcDbBlockReference
  2
_Open30
 10
144.7585730776868
 20
97.15984777699082
 30
0.0
 41
2.5
 42
2.5
 43
2.5
  0
INSERT
  5
1CC4
330
1880
100
AcDbEntity
  8
AM_5
100
AcDbBlockReference
  2
_Open30
 10
145.5585730776868
 20
97.15984777699082
 30
0.0
 41
2.5
 42
2.5
 43
2.5
 50
180.0
  0
MTEXT
  5
1CC5
330
1880
100
AcDbEntity
  8
AM_5
 62
     2
100
AcDbMText
 10
154.5099510304427
 20
100.4098477769908
 30
0.0
 40
3.5
 41
0.0
 71
     5
 72
     1
  1
0.8
 73
     1
 44
1.0
1001
ACAD
1000
MTEXTBEGIN
1070
    73
1070
     1
1070
    44
1040
1.0
1070
    74
1070
     0
1000
MTEXTEND
  0
POINT
  5
1CC6
330
1880
100
AcDbEntity
  8
Defpoints
 62
     0
100
AcDbPoint
 10
144.7585730776868
 20
114.3598487869907
 30
0.0
  0
POINT
  5
1CC7
330
1880
100
AcDbEntity
  8
Defpoints
 62
     0
100
AcDbPoint
 10
145.5585730776868
 20
114.3598487869907
 30
0.0
  0
POINT
  5
1CC8
330
1880
100
AcDbEntity
  8
Defpoints
 62
     0
100
AcDbPoint
 10
145.5585730776868
 20
97.15984777699082
 30
0.0
  0
ENDBLK
  5
1882
330
1880
100
AcDbEntity
  8
0
100
AcDbBlockEnd
  0
BLOCK
  5
18A8
330
18A7
100
AcDbEntity
  8
0
100
AcDbBlockBegin
  2
*D37
 70
     1
 10
0.0
 20
0.0
 30
0.0
  3
*D37
  1

  0
LINE
  5
1CC9
330
18A7
100
AcDbEntity
  8
AM_5
100
AcDbLine
 10
61.99322819134135
 20
119.8598487869907
 30
0.0
 11
61.99322819134135
 21
96.15984777699063
 31
0.0
  0
LINE
  5
1CCA
330
18A7
100
AcDbEntity
  8
AM_5
100
AcDbLine
 10
84.99322819134134
 20
119.8598487869906
 30
0.0
 11
84.99322819134134
 21
96.15984777699063
 31
0.0
  0
LINE
  5
1CCB
330
18A7
100
AcDbEntity
  8
AM_5
100
AcDbLine
 10
64.49322819134136
 20
97.15984777699063
 30
0.0
 11
82.49322819134134
 21
97.15984777699063
 31
0.0
  0
INSERT
  5
1CCC
330
18A7
100
AcDbEntity
  8
AM_5
100
AcDbBlockReference
  2
_Open30
 10
61.99322819134135
 20
97.15984777699063
 30
0.0
 41
2.5
 42
2.5
 43
2.5
 50
180.0
  0
INSERT
  5
1CCD
330
18A7
100
AcDbEntity
  8
AM_5
100
AcDbBlockReference
  2
_Open30
 10
84.99322819134134
 20
97.15984777699063
 30
0.0
 41
2.5
 42
2.5
 43
2.5
  0
MTEXT
  5
1CCE
330
18A7
100
AcDbEntity
  8
AM_5
 62
     2
100
AcDbMText
 10
73.49322819134134
 20
100.4101922651796
 30
0.0
 40
3.5
 41
0.0
 71
     5
 72
     1
  1
23
 73
     1
 44
1.0
1001
ACAD
1000
MTEXTBEGIN
1070
    73
1070
     1
1070
    44
1040
1.0
1070
    74
1070
     0
1000
MTEXTEND
  0
POINT
  5
1CCF
330
18A7
100
AcDbEntity
  8
Defpoints
 62
     0
100
AcDbPoint
 10
61.99322819134135
 20
120.8598487869907
 30
0.0
  0
POINT
  5
1CD0
330
18A7
100
AcDbEntity
  8
Defpoints
 62
     0
100
AcDbPoint
 10
84.99322819134134
 20
120.8598487869906
 30
0.0
  0
POINT
  5
1CD1
330
18A7
100
AcDbEntity
  8
Defpoints
 62
     0
100
AcDbPoint
 10
84.99322819134134
 20
97.15984777699063
 30
0.0
  0
ENDBLK
  5
18A9
330
18A7
100
AcDbEntity
  8
0
100
AcDbBlockEnd
  0
BLOCK
  5
18D2
330
18D1
100
AcDbEntity
  8
0
100
AcDbBlockBegin
  2
*D38
 70
     1
 10
0.0
 20
0.0
 30
0.0
  3
*D38
  1

  0
LINE
  5
1CD2
330
18D1
100
AcDbEntity
  8
AM_5
100
AcDbLine
 10
61.24322819134135
 20
168.8598487869907
 30
0.0
 11
61.24322819134135
 21
180.8598497869907
 31
0.0
  0
LINE
  5
1CD3
330
18D1
100
AcDbEntity
  8
AM_5
100
AcDbLine
 10
85.74322819134136
 20
168.8598487869907
 30
0.0
 11
85.74322819134136
 21
180.8598497869907
 31
0.0
  0
LINE
  5
1CD4
330
18D1
100
AcDbEntity
  8
AM_5
100
AcDbLine
 10
63.74322819134135
 20
179.8598497869907
 30
0.0
 11
83.24322819134136
 21
179.8598497869907
 31
0.0
  0
INSERT
  5
1CD5
330
18D1
100
AcDbEntity
  8
AM_5
100
AcDbBlockReference
  2
_Open30
 10
61.24322819134135
 20
179.8598497869907
 30
0.0
 41
2.5
 42
2.5
 43
2.5
 50
180.0
  0
INSERT
  5
1CD6
330
18D1
100
AcDbEntity
  8
AM_5
100
AcDbBlockReference
  2
_Open30
 10
85.74322819134136
 20
179.8598497869907
 30
0.0
 41
2.5
 42
2.5
 43
2.5
  0
MTEXT
  5
1CD7
330
18D1
100
AcDbEntity
  8
AM_5
 62
     2
100
AcDbMText
 10
73.49322819134136
 20
183.1101942751797
 30
0.0
 40
3.5
 41
0.0
 71
     5
 72
     1
  1
24.5
 73
     1
 44
1.0
1001
ACAD
1000
MTEXTBEGIN
1070
    73
1070
     1
1070
    44
1040
1.0
1070
    74
1070
     0
1000
MTEXTEND
  0
POINT
  5
1CD8
330
18D1
100
AcDbEntity
  8
Defpoints
 62
     0
100
AcDbPoint
 10
61.24322819134135
 20
167.8598487869907
 30
0.0
  0
POINT
  5
1CD9
330
18D1
100
AcDbEntity
  8
Defpoints
 62
     0
100
AcDbPoint
 10
85.74322819134136
 20
167.8598487869907
 30
0.0
  0
POINT
  5
1CDA
330
18D1
100
AcDbEntity
  8
Defpoints
 62
     0
100
AcDbPoint
 10
85.74322819134136
 20
179.8598497869907
 30
0.0
  0
ENDBLK
  5
18D3
330
18D1
100
AcDbEntity
  8
0
100
AcDbBlockEnd
  0
BLOCK
  5
18F3
330
18F2
100
AcDbEntity
  8
0
100
AcDbBlockBegin
  2
*D39
 70
     1
 10
0.0
 20
0.0
 30
0.0
  3
*D39
  1

  0
LINE
  5
1CDB
330
18F2
100
AcDbEntity
  8
AM_5
100
AcDbLine
 10
57.99322819134136
 20
162.0598487869907
 30
0.0
 11
57.99322819134136
 21
190.8598497869907
 31
0.0
  0
LINE
  5
1CDC
330
18F2
100
AcDbEntity
  8
AM_5
100
AcDbLine
 10
88.99322819134138
 20
162.0598487869907
 30
0.0
 11
88.99322819134138
 21
190.8598497869907
 31
0.0
  0
LINE
  5
1CDD
330
18F2
100
AcDbEntity
  8
AM_5
100
AcDbLine
 10
60.49322819134136
 20
189.8598497869907
 30
0.0
 11
86.49322819134138
 21
189.8598497869907
 31
0.0
  0
INSERT
  5
1CDE
330
18F2
100
AcDbEntity
  8
AM_5
100
AcDbBlockReference
  2
_Open30
 10
57.99322819134136
 20
189.8598497869907
 30
0.0
 41
2.5
 42
2.5
 43
2.5
 50
180.0
  0
INSERT
  5
1CDF
330
18F2
100
AcDbEntity
  8
AM_5
100
AcDbBlockReference
  2
_Open30
 10
88.99322819134138
 20
189.8598497869907
 30
0.0
 41
2.5
 42
2.5
 43
2.5
  0
MTEXT
  5
1CE0
330
18F2
100
AcDbEntity
  8
AM_5
 62
     2
100
AcDbMText
 10
73.49322819134136
 20
193.1098497869907
 30
0.0
 40
3.5
 41
0.0
 71
     5
 72
     1
  1
31
 73
     1
 44
1.0
1001
ACAD
1000
MTEXTBEGIN
1070
    73
1070
     1
1070
    44
1040
1.0
1070
    74
1070
     0
1000
MTEXTEND
  0
POINT
  5
1CE1
330
18F2
100
AcDbEntity
  8
Defpoints
 62
     0
100
AcDbPoint
 10
57.99322819134136
 20
161.0598487869907
 30
0.0
  0
POINT
  5
1CE2
330
18F2
100
AcDbEntity
  8
Defpoints
 62
     0
100
AcDbPoint
 10
88.99322819134138
 20
161.0598487869907
 30
0.0
  0
POINT
  5
1CE3
330
18F2
100
AcDbEntity
  8
Defpoints
 62
     0
100
AcDbPoint
 10
88.99322819134138
 20
189.8598497869907
 30
0.0
  0
ENDBLK
  5
18F4
330
18F2
100
AcDbEntity
  8
0
100
AcDbBlockEnd
  0
BLOCK
  5
1914
330
1913
100
AcDbEntity
  8
0
100
AcDbBlockBegin
  2
*D40
 70
     1
 10
0.0
 20
0.0
 30
0.0
  3
*D40
  1

  0
LINE
  5
1CE4
330
1913
100
AcDbEntity
  8
AM_5
100
AcDbLine
 10
53.74322819134135
 20
163.3598487869907
 30
0.0
 11
53.74322819134135
 21
200.8598497869907
 31
0.0
  0
LINE
  5
1CE5
330
1913
100
AcDbEntity
  8
AM_5
100
AcDbLine
 10
93.24322819134136
 20
163.3598487869907
 30
0.0
 11
93.24322819134136
 21
200.8598497869907
 31
0.0
  0
LINE
  5
1CE6
330
1913
100
AcDbEntity
  8
AM_5
100
AcDbLine
 10
56.24322819134135
 20
199.8598497869906
 30
0.0
 11
90.74322819134136
 21
199.8598497869906
 31
0.0
  0
INSERT
  5
1CE7
330
1913
100
AcDbEntity
  8
AM_5
100
AcDbBlockReference
  2
_Open30
 10
53.74322819134135
 20
199.8598497869906
 30
0.0
 41
2.5
 42
2.5
 43
2.5
 50
180.0
  0
INSERT
  5
1CE8
330
1913
100
AcDbEntity
  8
AM_5
100
AcDbBlockReference
  2
_Open30
 10
93.24322819134136
 20
199.8598497869906
 30
0.0
 41
2.5
 42
2.5
 43
2.5
  0
MTEXT
  5
1CE9
330
1913
100
AcDbEntity
  8
AM_5
 62
     2
100
AcDbMText
 10
73.49322819134136
 20
203.1098497869907
 30
0.0
 40
3.5
 41
0.0
 71
     5
 72
     1
  1
39.5
 73
     1
 44
1.0
1001
ACAD
1000
MTEXTBEGIN
1070
    73
1070
     1
1070
    44
1040
1.0
1070
    74
1070
     0
1000
MTEXTEND
  0
POINT
  5
1CEA
330
1913
100
AcDbEntity
  8
Defpoints
 62
     0
100
AcDbPoint
 10
53.74322819134135
 20
162.3598487869907
 30
0.0
  0
POINT
  5
1CEB
330
1913
100
AcDbEntity
  8
Defpoints
 62
     0
100
AcDbPoint
 10
93.24322819134136
 20
162.3598487869907
 30
0.0
  0
POINT
  5
1CEC
330
1913
100
AcDbEntity
  8
Defpoints
 62
     0
100
AcDbPoint
 10
93.24322819134136
 20
199.8598497869906
 30
0.0
  0
ENDBLK
  5
1915
330
1913
100
AcDbEntity
  8
0
100
AcDbBlockEnd
  0
BLOCK
  5
1988
330
1987
100
AcDbEntity
  8
0
100
AcDbBlockBegin
  2
*D43
 70
     1
 10
0.0
 20
0.0
 30
0.0
  3
*D43
  1

  0
LINE
  5
1CED
330
1987
100
AcDbEntity
  8
AM_5
100
AcDbLine
 10
60.24322819134136
 20
167.8598487869907
 30
0.0
 11
42.74322819134136
 21
167.8598487869907
 31
0.0
  0
LINE
  5
1CEE
330
1987
100
AcDbEntity
  8
AM_5
100
AcDbLine
 10
54.74322819134136
 20
164.3598487869907
 30
0.0
 11
42.74322819134136
 21
164.3598487869907
 31
0.0
  0
LINE
  5
1CEF
330
1987
100
AcDbEntity
  8
AM_5
100
AcDbLine
 10
43.74322819134135
 20
161.8598487869907
 30
0.0
 11
43.74322819134135
 21
159.3598487869907
 31
0.0
  0
LINE
  5
1CF0
330
1987
100
AcDbEntity
  8
AM_5
100
AcDbLine
 10
43.74322819134135
 20
170.3598487869907
 30
0.0
 11
43.74322819134136
 21
180.9048235338213
 31
0.0
  0
LINE
  5
1CF1
330
1987
100
AcDbEntity
  8
AM_5
100
AcDbLine
 10
43.74322819134135
 20
164.3598487869907
 30
0.0
 11
43.74322819134135
 21
167.8598487869907
 31
0.0
  0
INSERT
  5
1CF2
330
1987
100
AcDbEntity
  8
AM_5
100
AcDbBlockReference
  2
_Open30
 10
43.74322819134135
 20
164.3598487869907
 30
0.0
 41
2.5
 42
2.5
 43
2.5
 50
90.0
  0
INSERT
  5
1CF3
330
1987
100
AcDbEntity
  8
AM_5
100
AcDbBlockReference
  2
_Open30
 10
43.74322819134135
 20
167.8598487869907
 30
0.0
 41
2.5
 42
2.5
 43
2.5
 50
270.0
  0
MTEXT
  5
1CF4
330
1987
100
AcDbEntity
  8
AM_5
 62
     2
100
AcDbMText
 10
40.49322819134133
 20
176.882336160406
 30
0.0
 40
3.5
 41
0.0
 71
     5
 72
     1
  1
3.5
 11
0.0000000000000001
 21
1.0
 31
0.0
 73
     1
 44
1.0
1001
ACAD
1000
MTEXTBEGIN
1070
    73
1070
     1
1070
    44
1040
1.0
1070
    74
1070
     0
1000
MTEXTEND
  0
POINT
  5
1CF5
330
1987
100
AcDbEntity
  8
Defpoints
 62
     0
100
AcDbPoint
 10
61.24322819134135
 20
167.8598487869907
 30
0.0
  0
POINT
  5
1CF6
330
1987
100
AcDbEntity
  8
Defpoints
 62
     0
100
AcDbPoint
 10
55.74322819134136
 20
164.3598487869907
 30
0.0
  0
POINT
  5
1CF7
330
1987
100
AcDbEntity
  8
Defpoints
 62
     0
100
AcDbPoint
 10
43.74322819134135
 20
164.3598487869907
 30
0.0
  0
ENDBLK
  5
1989
330
1987
100
AcDbEntity
  8
0
100
AcDbBlockEnd
  0
BLOCK
  5
19C5
330
19C4
100
AcDbEntity
  8
0
100
AcDbBlockBegin
  2
*D44
 70
     1
 10
0.0
 20
0.0
 30
0.0
  3
*D44
  1

  0
LINE
  5
1CF8
330
19C4
100
AcDbEntity
  8
AM_5
100
AcDbLine
 10
54.74322819134136
 20
164.3598487869907
 30
0.0
 11
42.74322819134137
 21
164.3598487869907
 31
0.0
  0
LINE
  5
1CF9
330
19C4
100
AcDbEntity
  8
AM_5
100
AcDbLine
 10
66.99322819134136
 20
114.3598487869907
 30
0.0
 11
42.74322819134137
 21
114.3598487869907
 31
0.0
  0
LINE
  5
1CFA
330
19C4
100
AcDbEntity
  8
AM_5
100
AcDbLine
 10
43.74322819134137
 20
161.8598487869907
 30
0.0
 11
43.74322819134136
 21
116.8598487869907
 31
0.0
  0
INSERT
  5
1CFB
330
19C4
100
AcDbEntity
  8
AM_5
100
AcDbBlockReference
  2
_Open30
 10
43.74322819134137
 20
164.3598487869907
 30
0.0
 41
2.5
 42
2.5
 43
2.5
 50
90.0
  0
INSERT
  5
1CFC
330
19C4
100
AcDbEntity
  8
AM_5
100
AcDbBlockReference
  2
_Open30
 10
43.74322819134136
 20
114.3598487869907
 30
0.0
 41
2.5
 42
2.5
 43
2.5
 50
270.0
  0
MTEXT
  5
1CFD
330
19C4
100
AcDbEntity
  8
AM_5
 62
     2
100
AcDbMText
 10
40.49322819134134
 20
139.3598487869907
 30
0.0
 40
3.5
 41
0.0
 71
     5
 72
     1
  1
50
 11
0.0000000000000001
 21
1.0
 31
0.0
 73
     1
 44
1.0
1001
ACAD
1000
MTEXTBEGIN
1070
    73
1070
     1
1070
    44
1040
1.0
1070
    74
1070
     0
1000
MTEXTEND
  0
POINT
  5
1CFE
330
19C4
100
AcDbEntity
  8
Defpoints
 62
     0
100
AcDbPoint
 10
55.74322819134136
 20
164.3598487869907
 30
0.0
  0
POINT
  5
1CFF
330
19C4
100
AcDbEntity
  8
Defpoints
 62
     0
100
AcDbPoint
 10
67.99322819134136
 20
114.3598487869907
 30
0.0
  0
POINT
  5
1D00
330
19C4
100
AcDbEntity
  8
Defpoints
 62
     0
100
AcDbPoint
 10
43.74322819134136
 20
114.3598487869907
 30
0.0
  0
ENDBLK
  5
19C6
330
19C4
100
AcDbEntity
  8
0
100
AcDbBlockEnd
  0
BLOCK
  5
19E6
330
19E5
100
AcDbEntity
  8
0
100
AcDbBlockBegin
  2
*D45
 70
     1
 10
0.0
 20
0.0
 30
0.0
  3
*D45
  1

  0
LINE
  5
1D01
330
19E5
100
AcDbEntity
  8
AM_5
100
AcDbLine
 10
60.24322819134136
 20
167.8598487869907
 30
0.0
 11
32.74322819134136
 21
167.8598487869907
 31
0.0
  0
LINE
  5
1D02
330
19E5
100
AcDbEntity
  8
AM_5
100
AcDbLine
 10
72.49322819134135
 20
109.1598487869908
 30
0.0
 11
32.74322819134134
 21
109.1598487869908
 31
0.0
  0
LINE
  5
1D03
330
19E5
100
AcDbEntity
  8
AM_5
100
AcDbLine
 10
33.74322819134136
 20
165.3598487869907
 30
0.0
 11
33.74322819134135
 21
111.6598487869908
 31
0.0
  0
INSERT
  5
1D04
330
19E5
100
AcDbEntity
  8
AM_5
100
AcDbBlockReference
  2
_Open30
 10
33.74322819134136
 20
167.8598487869907
 30
0.0
 41
2.5
 42
2.5
 43
2.5
 50
90.0
  0
INSERT
  5
1D05
330
19E5
100
AcDbEntity
  8
AM_5
100
AcDbBlockReference
  2
_Open30
 10
33.74322819134135
 20
109.1598487869908
 30
0.0
 41
2.5
 42
2.5
 43
2.5
 50
270.0
  0
MTEXT
  5
1D06
330
19E5
100
AcDbEntity
  8
AM_5
 62
     2
100
AcDbMText
 10
30.49322819134133
 20
138.5098487869907
 30
0.0
 40
3.5
 41
0.0
 71
     5
 72
     1
  1
58.7
 11
0.0000000000000001
 21
1.0
 31
0.0
 73
     1
 44
1.0
1001
ACAD
1000
MTEXTBEGIN
1070
    73
1070
     1
1070
    44
1040
1.0
1070
    74
1070
     0
1000
MTEXTEND
  0
POINT
  5
1D07
330
19E5
100
AcDbEntity
  8
Defpoints
 62
     0
100
AcDbPoint
 10
61.24322819134135
 20
167.8598487869907
 30
0.0
  0
POINT
  5
1D08
330
19E5
100
AcDbEntity
  8
Defpoints
 62
     0
100
AcDbPoint
 10
73.49322819134136
 20
109.1598487869908
 30
0.0
  0
POINT
  5
1D09
330
19E5
100
AcDbEntity
  8
Defpoints
 62
     0
100
AcDbPoint
 10
33.74322819134135
 20
109.1598487869908
 30
0.0
  0
ENDBLK
  5
19E7
330
19E5
100
AcDbEntity
  8
0
100
AcDbBlockEnd
  0
BLOCK
  5
1A10
330
1A0F
100
AcDbEntity
  8
0
100
AcDbBlockBegin
  2
*D46
 70
     1
 10
0.0
 20
0.0
 30
0.0
  3
*D46
  1

  0
LINE
  5
1D0A
330
1A0F
100
AcDbEntity
  8
AM_5
100
AcDbLine
 10
86.74322819134136
 20
167.8598487869907
 30
0.0
 11
106.9932281913414
 21
167.8598487869907
 31
0.0
  0
LINE
  5
1D0B
330
1A0F
100
AcDbEntity
  8
AM_5
100
AcDbLine
 10
94.99322819134135
 20
156.0598487869907
 30
0.0
 11
106.9932281913414
 21
156.0598487869907
 31
0.0
  0
LINE
  5
1D0C
330
1A0F
100
AcDbEntity
  8
AM_5
100
AcDbLine
 10
105.9932281913414
 20
165.3598487869907
 30
0.0
 11
105.9932281913414
 21
158.5598487869907
 31
0.0
  0
INSERT
  5
1D0D
330
1A0F
100
AcDbEntity
  8
AM_5
100
AcDbBlockReference
  2
_Open30
 10
105.9932281913414
 20
167.8598487869907
 30
0.0
 41
2.5
 42
2.5
 43
2.5
 50
90.0
  0
INSERT
  5
1D0E
330
1A0F
100
AcDbEntity
  8
AM_5
100
AcDbBlockReference
  2
_Open30
 10
105.9932281913414
 20
156.0598487869907
 30
0.0
 41
2.5
 42
2.5
 43
2.5
 50
270.0
  0
MTEXT
  5
1D0F
330
1A0F
100
AcDbEntity
  8
AM_5
 62
     2
100
AcDbMText
 10
102.7432281913413
 20
161.9598487869907
 30
0.0
 40
3.5
 41
0.0
 71
     5
 72
     1
  1
11.8
 11
0.0000000000000001
 21
1.0
 31
0.0
 73
     1
 44
1.0
1001
ACAD
1000
MTEXTBEGIN
1070
    73
1070
     1
1070
    44
1040
1.0
1070
    74
1070
     0
1000
MTEXTEND
  0
POINT
  5
1D10
330
1A0F
100
AcDbEntity
  8
Defpoints
 62
     0
100
AcDbPoint
 10
85.74322819134136
 20
167.8598487869907
 30
0.0
  0
POINT
  5
1D11
330
1A0F
100
AcDbEntity
  8
Defpoints
 62
     0
100
AcDbPoint
 10
93.99322819134136
 20
156.0598487869907
 30
0.0
  0
POINT
  5
1D12
330
1A0F
100
AcDbEntity
  8
Defpoints
 62
     0
100
AcDbPoint
 10
105.9932281913414
 20
156.0598487869907
 30
0.0
  0
ENDBLK
  5
1A11
330
1A0F
100
AcDbEntity
  8
0
100
AcDbBlockEnd
  0
BLOCK
  5
1A3A
330
1A39
100
AcDbEntity
  8
0
100
AcDbBlockBegin
  2
*D47
 70
     1
 10
0.0
 20
0.0
 30
0.0
  3
*D47
  1

  0
LINE
  5
1D13
330
1A39
100
AcDbEntity
  8
AM_5
100
AcDbLine
 10
82.49322819134135
 20
124.7598487869907
 30
0.0
 11
106.9932281913414
 21
124.7598487869907
 31
0.0
  0
LINE
  5
1D14
330
1A39
100
AcDbEntity
  8
AM_5
100
AcDbLine
 10
94.99322819134134
 20
156.0598487869907
 30
0.0
 11
106.9932281913414
 21
156.0598487869907
 31
0.0
  0
LINE
  5
1D15
330
1A39
100
AcDbEntity
  8
AM_5
100
AcDbLine
 10
105.9932281913414
 20
127.2598487869907
 30
0.0
 11
105.9932281913414
 21
153.5598487869907
 31
0.0
  0
INSERT
  5
1D16
330
1A39
100
AcDbEntity
  8
AM_5
100
AcDbBlockReference
  2
_Open30
 10
105.9932281913414
 20
124.7598487869907
 30
0.0
 41
2.5
 42
2.5
 43
2.5
 50
270.0
  0
INSERT
  5
1D17
330
1A39
100
AcDbEntity
  8
AM_5
100
AcDbBlockReference
  2
_Open30
 10
105.9932281913414
 20
156.0598487869907
 30
0.0
 41
2.5
 42
2.5
 43
2.5
 50
90.0
  0
MTEXT
  5
1D18
330
1A39
100
AcDbEntity
  8
AM_5
 62
     2
100
AcDbMText
 10
102.7432281913413
 20
140.4098487869907
 30
0.0
 40
3.5
 41
0.0
 71
     5
 72
     1
  1
31.3
 11
0.0000000000000001
 21
1.0
 31
0.0
 73
     1
 44
1.0
1001
ACAD
1000
MTEXTBEGIN
1070
    73
1070
     1
1070
    44
1040
1.0
1070
    74
1070
     0
1000
MTEXTEND
  0
POINT
  5
1D19
330
1A39
100
AcDbEntity
  8
Defpoints
 62
     0
100
AcDbPoint
 10
81.49322819134136
 20
124.7598487869907
 30
0.0
  0
POINT
  5
1D1A
330
1A39
100
AcDbEntity
  8
Defpoints
 62
     0
100
AcDbPoint
 10
93.99322819134134
 20
156.0598487869907
 30
0.0
  0
POINT
  5
1D1B
330
1A39
100
AcDbEntity
  8
Defpoints
 62
     0
100
AcDbPoint
 10
105.9932281913414
 20
156.0598487869907
 30
0.0
  0
ENDBLK
  5
1A3B
330
1A39
100
AcDbEntity
  8
0
100
AcDbBlockEnd
  0
BLOCK
  5
1A5B
330
1A5A
100
AcDbEntity
  8
0
100
AcDbBlockBegin
  2
*D48
 70
     1
 10
0.0
 20
0.0
 30
0.0
  3
*D48
  1

  0
LINE
  5
1D6A
330
1A5A
100
AcDbEntity
  8
AM_5
100
AcDbLine
 10
74.49322819134136
 20
109.1598487869908
 30
0.0
 11
106.9932281913414
 21
109.1598487869907
 31
0.0
  0
LINE
  5
1D6B
330
1A5A
100
AcDbEntity
  8
AM_5
100
AcDbLine
 10
82.49322819134135
 20
124.7598487869907
 30
0.0
 11
106.9932281913414
 21
124.7598487869907
 31
0.0
  0
LINE
  5
1D6C
330
1A5A
100
AcDbEntity
  8
AM_5
100
AcDbLine
 10
105.9932281913414
 20
111.6598487869907
 30
0.0
 11
105.9932281913414
 21
122.2598487869907
 31
0.0
  0
INSERT
  5
1D6D
330
1A5A
100
AcDbEntity
  8
AM_5
100
AcDbBlockReference
  2
_Open30
 10
105.9932281913414
 20
109.1598487869907
 30
0.0
 41
2.5
 42
2.5
 43
2.5
 50
270.0
  0
INSERT
  5
1D6E
330
1A5A
100
AcDbEntity
  8
AM_5
100
AcDbBlockReference
  2
_Open30
 10
105.9932281913414
 20
124.7598487869907
 30
0.0
 41
2.5
 42
2.5
 43
2.5
 50
90.0
  0
MTEXT
  5
1D6F
330
1A5A
100
AcDbEntity
  8
AM_5
 62
     2
100
AcDbMText
 10
102.7432281913413
 20
116.9598487869907
 30
0.0
 40
3.5
 41
0.0
 71
     5
 72
     1
  1
15.6
 11
0.0000000000000001
 21
1.0
 31
0.0
 73
     1
 44
1.0
1001
ACAD
1000
MTEXTBEGIN
1070
    73
1070
     1
1070
    44
1040
1.0
1070
    74
1070
     0
1000
MTEXTEND
  0
POINT
  5
1D70
330
1A5A
100
AcDbEntity
  8
Defpoints
 62
     0
100
AcDbPoint
 10
73.49322819134136
 20
109.1598487869908
 30
0.0
  0
POINT
  5
1D71
330
1A5A
100
AcDbEntity
  8
Defpoints
 62
     0
100
AcDbPoint
 10
81.49322819134136
 20
124.7598487869907
 30
0.0
  0
POINT
  5
1D72
330
1A5A
100
AcDbEntity
  8
Defpoints
 62
     0
100
AcDbPoint
 10
105.9932281913414
 20
124.7598487869907
 30
0.0
  0
ENDBLK
  5
1A5C
330
1A5A
100
AcDbEntity
  8
0
100
AcDbBlockEnd
  0
BLOCK
  5
1AC9
330
1AC8
100
AcDbEntity
  8
0
100
AcDbBlockBegin
  2
*D50
 70
     1
 10
0.0
 20
0.0
 30
0.0
  3
*D50
  1

  0
LINE
  5
1D64
330
1AC8
100
AcDbEntity
  8
AM_5
100
AcDbLine
 10
77.28706204989808
 20
127.1799365237615
 30
0.0
 11
86.8341868900085
 21
133.270050273698
 31
0.0
  0
LINE
  5
1D65
330
1AC8
100
AcDbEntity
  8
AM_5
100
AcDbLine
 10
86.8341868900085
 20
133.270050273698
 30
0.0
 11
98.13418689000853
 21
133.270050273698
 31
0.0
  0
INSERT
  5
1D66
330
1AC8
100
AcDbEntity
  8
AM_5
100
AcDbBlockReference
  2
_Open30
 10
75.17937657292214
 20
125.8354433366666
 30
0.0
 41
2.5
 42
2.5
 43
2.5
 50
212.5338153213447
  0
MTEXT
  5
1D67
102
{ACAD_XDICTIONARY
360
1E15
102
}
330
1AC8
100
AcDbEntity
  8
AM_5
 62
     2
100
AcDbMText
 10
93.23418689000851
 20
136.520050273698
 30
0.0
 40
3.5
 41
0.0
 71
     5
 72
     1
  1
3-\U+22054
 73
     1
 44
1.0
1001
ACAD
1000
MTEXTBEGIN
1070
    73
1070
     1
1070
    44
1040
1.0
1070
    74
1070
     0
1000
MTEXTEND
  0
POINT
  5
1D68
330
1AC8
100
AcDbEntity
  8
Defpoints
 62
     0
100
AcDbPoint
 10
75.17937657292214
 20
125.8354433366666
 30
0.0
  0
POINT
  5
1D69
330
1AC8
100
AcDbEntity
  8
Defpoints
 62
     0
100
AcDbPoint
 10
71.80707980976056
 20
123.6842542373148
 30
0.0
  0
ENDBLK
  5
1ACA
330
1AC8
100
AcDbEntity
  8
0
100
AcDbBlockEnd
  0
BLOCK
  5
1AF5
330
1AF4
100
AcDbEntity
  8
0
100
AcDbBlockBegin
  2
*D51
 70
     1
 10
0.0
 20
0.0
 30
0.0
  3
*D51
  1

  0
LINE
  5
1D7F
330
1AF4
100
AcDbEntity
  8
AM_5
100
AcDbLine
 10
67.75220757938524
 20
129.5858908851385
 30
0.0
 11
58.41278106258013
 21
137.4368408449406
 31
0.0
  0
LINE
  5
1D80
330
1AF4
100
AcDbEntity
  8
AM_5
100
AcDbLine
 10
58.41278106258013
 20
137.4368408449406
 30
0.0
 11
50.61002515706832
 21
137.4368408449406
 31
0.0
  0
INSERT
  5
1D81
330
1AF4
100
AcDbEntity
  8
AM_5
100
AcDbBlockReference
  2
_Open30
 10
69.66588111670394
 20
127.9772101857559
 30
0.0
 41
2.5
 42
2.5
 43
2.5
 50
319.9487713384372
  0
MTEXT
  5
1D82
102
{ACAD_XDICTIONARY
360
1E17
102
}
330
1AF4
100
AcDbEntity
  8
AM_5
 62
     2
100
AcDbMText
 10
53.76140310982421
 20
140.6868408449406
 30
0.0
 40
3.5
 41
0.0
 71
     5
 72
     1
  1
\U+220510
 73
     1
 44
1.0
1001
ACAD
1000
MTEXTBEGIN
1070
    73
1070
     1
1070
    44
1040
1.0
1070
    74
1070
     0
1000
MTEXTEND
  0
POINT
  5
1D83
330
1AF4
100
AcDbEntity
  8
Defpoints
 62
     0
100
AcDbPoint
 10
69.66588111670394
 20
127.9772101857559
 30
0.0
  0
POINT
  5
1D84
330
1AF4
100
AcDbEntity
  8
Defpoints
 62
     0
100
AcDbPoint
 10
77.32057526597869
 20
121.5424873882255
 30
0.0
  0
ENDBLK
  5
1AF6
330
1AF4
100
AcDbEntity
  8
0
100
AcDbBlockEnd
  0
BLOCK
  5
1B15
330
1B14
100
AcDbEntity
  8
0
100
AcDbBlockBegin
  2
*D52
 70
     1
 10
0.0
 20
0.0
 30
0.0
  3
*D52
  1

  0
LINE
  5
1D8B
330
1B14
100
AcDbEntity
  8
AM_5
100
AcDbLine
 10
145.5585730776868
 20
165.4598487870286
 30
0.0
 11
145.5585730776868
 21
180.8598497869952
 31
0.0
  0
LINE
  5
1D8C
330
1B14
100
AcDbEntity
  8
AM_5
100
AcDbLine
 10
139.0585730776868
 20
165.5598487869952
 30
0.0
 11
139.0585730776868
 21
180.8598497869952
 31
0.0
  0
LINE
  5
1D8D
330
1B14
100
AcDbEntity
  8
AM_5
100
AcDbLine
 10
136.5585730776868
 20
179.8598497869952
 30
0.0
 11
134.0585730776868
 21
179.8598497869952
 31
0.0
  0
LINE
  5
1D8E
330
1B14
100
AcDbEntity
  8
AM_5
100
AcDbLine
 10
148.0585730776868
 20
179.8598497869952
 30
0.0
 11
161.2558171721749
 21
179.8598497869952
 31
0.0
  0
LINE
  5
1D8F
330
1B14
100
AcDbEntity
  8
AM_5
100
AcDbLine
 10
139.0585730776868
 20
179.8598497869952
 30
0.0
 11
145.5585730776868
 21
179.8598497869952
 31
0.0
  0
INSERT
  5
1D90
330
1B14
100
AcDbEntity
  8
AM_5
100
AcDbBlockReference
  2
_Open30
 10
139.0585730776868
 20
179.8598497869952
 30
0.0
 41
2.5
 42
2.5
 43
2.5
  0
INSERT
  5
1D91
330
1B14
100
AcDbEntity
  8
AM_5
100
AcDbBlockReference
  2
_Open30
 10
145.5585730776868
 20
179.8598497869952
 30
0.0
 41
2.5
 42
2.5
 43
2.5
 50
180.0
  0
MTEXT
  5
1D92
330
1B14
100
AcDbEntity
  8
AM_5
 62
     2
100
AcDbMText
 10
155.9071951249309
 20
183.2848497869952
 30
0.0
 40
3.5
 41
0.0
 71
     5
 72
     1
  1
(6.5)
 73
     1
 44
1.0
1001
ACAD
1000
MTEXTBEGIN
1070
    73
1070
     1
1070
    44
1040
1.0
1070
    74
1070
     0
1000
MTEXTEND
  0
POINT
  5
1D93
330
1B14
100
AcDbEntity
  8
Defpoints
 62
     0
100
AcDbPoint
 10
145.5585730776868
 20
164.4598487870286
 30
0.0
  0
POINT
  5
1D94
330
1B14
100
AcDbEntity
  8
Defpoints
 62
     0
100
AcDbPoint
 10
139.0585730776868
 20
164.5598487869952
 30
0.0
  0
POINT
  5
1D95
330
1B14
100
AcDbEntity
  8
Defpoints
 62
     0
100
AcDbPoint
 10
139.0585730776868
 20
179.8598497869952
 30
0.0
  0
ENDBLK
  5
1B16
330
1B14
100
AcDbEntity
  8
0
100
AcDbBlockEnd
  0
BLOCK
  5
1B73
330
1B72
100
AcDbEntity
  8
0
100
AcDbBlockBegin
  2
*D53
 70
     1
 10
0.0
 20
0.0
 30
0.0
  3
*D53
  1

  0
LINE
  5
1D59
330
1B72
100
AcDbEntity
  8
AM_5
100
AcDbLine
 10
137.5585730776868
 20
121.1598487869908
 30
0.0
 11
137.5585730776868
 21
190.8598497869906
 31
0.0
  0
LINE
  5
1D5A
330
1B72
100
AcDbEntity
  8
AM_5
100
AcDbLine
 10
145.5585730776868
 20
165.4598487870241
 30
0.0
 11
145.5585730776868
 21
190.8598497869906
 31
0.0
  0
LINE
  5
1D5B
330
1B72
100
AcDbEntity
  8
AM_5
100
AcDbLine
 10
135.0585730776868
 20
189.8598497869906
 30
0.0
 11
132.5585730776868
 21
189.8598497869906
 31
0.0
  0
LINE
  5
1D5C
330
1B72
100
AcDbEntity
  8
AM_5
100
AcDbLine
 10
148.0585730776868
 20
189.8598497869906
 30
0.0
 11
150.5585730776868
 21
189.8598497869906
 31
0.0
  0
LINE
  5
1D5D
330
1B72
100
AcDbEntity
  8
AM_5
100
AcDbLine
 10
137.5585730776868
 20
189.8598497869906
 30
0.0
 11
145.5585730776868
 21
189.8598497869906
 31
0.0
  0
INSERT
  5
1D5E
330
1B72
100
AcDbEntity
  8
AM_5
100
AcDbBlockReference
  2
_Open30
 10
137.5585730776868
 20
189.8598497869906
 30
0.0
 41
2.5
 42
2.5
 43
2.5
  0
INSERT
  5
1D5F
330
1B72
100
AcDbEntity
  8
AM_5
100
AcDbBlockReference
  2
_Open30
 10
145.5585730776868
 20
189.8598497869906
 30
0.0
 41
2.5
 42
2.5
 43
2.5
 50
180.0
  0
MTEXT
  5
1D60
330
1B72
100
AcDbEntity
  8
AM_5
 62
     2
100
AcDbMText
 10
141.5585730776868
 20
193.2848497869906
 30
0.0
 40
3.5
 41
0.0
 71
     5
 72
     1
  1
(8)
 73
     1
 44
1.0
1001
ACAD
1000
MTEXTBEGIN
1070
    73
1070
     1
1070
    44
1040
1.0
1070
    74
1070
     0
1000
MTEXTEND
  0
POINT
  5
1D61
330
1B72
100
AcDbEntity
  8
Defpoints
 62
     0
100
AcDbPoint
 10
137.5585730776868
 20
120.1598487869908
 30
0.0
  0
POINT
  5
1D62
330
1B72
100
AcDbEntity
  8
Defpoints
 62
     0
100
AcDbPoint
 10
145.5585730776868
 20
164.4598487870241
 30
0.0
  0
POINT
  5
1D63
330
1B72
100
AcDbEntity
  8
Defpoints
 62
     0
100
AcDbPoint
 10
145.5585730776868
 20
189.8598497869906
 30
0.0
  0
ENDBLK
  5
1B74
330
1B72
100
AcDbEntity
  8
0
100
AcDbBlockEnd
  0
BLOCK
  5
1BEF
330
1BEE
100
AcDbEntity
  8
0
100
AcDbBlockBegin
  2
*D54
 70
     1
 10
0.0
 20
0.0
 30
0.0
  3
*D54
  1

  0
LINE
  5
1D73
330
1BEE
100
AcDbEntity
  8
AM_5
100
AcDbLine
 10
64.06434356943181
 20
109.8575670967222
 30
0.0
 11
56.3111153324318
 21
99.74158820788495
 31
0.0
  0
LINE
  5
1D74
330
1BEE
100
AcDbEntity
  8
AM_5
100
AcDbLine
 10
56.3111153324318
 20
99.74158820788495
 30
0.0
 11
48.71614058560122
 21
99.74158820788495
 31
0.0
  0
INSERT
  5
1D75
330
1BEE
100
AcDbEntity
  8
AM_5
100
AcDbBlockReference
  2
_Open30
 10
65.58513141167529
 20
111.8418060790235
 30
0.0
 41
2.5
 42
2.5
 43
2.5
 50
52.53222415289171
  0
MTEXT
  5
1D76
330
1BEE
100
AcDbEntity
  8
AM_5
 62
     2
100
AcDbMText
 10
51.76362795901651
 20
102.9915882078849
 30
0.0
 40
3.5
 41
0.0
 71
     5
 72
     1
  1
R13
 73
     1
 44
1.0
1001
ACAD
1000
MTEXTBEGIN
1070
    73
1070
     1
1070
    44
1040
1.0
1070
    74
1070
     0
1000
MTEXTEND
  0
POINT
  5
1D77
330
1BEE
100
AcDbEntity
  8
Defpoints
 62
     0
100
AcDbPoint
 10
65.58513141167529
 20
111.8418060790235
 30
0.0
  0
POINT
  5
1D78
330
1BEE
100
AcDbEntity
  8
Defpoints
 62
     0
100
AcDbPoint
 10
73.49322819134136
 20
122.1598487869907
 30
0.0
  0
ENDBLK
  5
1BF0
330
1BEE
100
AcDbEntity
  8
0
100
AcDbBlockEnd
  0
BLOCK
  5
1C70
330
1C6F
100
AcDbEntity
  8
0
100
AcDbBlockBegin
  2
*D56
 70
     1
 10
0.0
 20
0.0
 30
0.0
  3
*D56
  1

  0
LINE
  5
1D79
330
1C6F
100
AcDbEntity
  8
AM_5
100
AcDbLine
 10
83.26201989777676
 20
113.2271149608552
 30
0.0
 11
91.10660093683161
 21
100.6713979711921
 31
0.0
  0
LINE
  5
1D7A
330
1C6F
100
AcDbEntity
  8
AM_5
100
AcDbLine
 10
91.10660093683161
 20
100.6713979711921
 30
0.0
 11
105.4404536364181
 21
100.6713979711921
 31
0.0
  0
INSERT
  5
1D7B
330
1C6F
100
AcDbEntity
  8
AM_5
100
AcDbBlockReference
  2
_Open30
 10
81.93735553487803
 20
115.3473188014483
 30
0.0
 41
2.5
 42
2.5
 43
2.5
 50
121.9963842185316
  0
MTEXT
  5
1D7C
330
1C6F
100
AcDbEntity
  8
AM_5
 62
     2
100
AcDbMText
 10
99.02352728662487
 20
103.9217424593811
 30
0.0
 40
3.5
 41
0.0
 71
     5
 72
     1
  1
2-R6.5
 73
     1
 44
1.0
1001
ACAD
1000
MTEXTBEGIN
1070
    73
1070
     1
1070
    44
1040
1.0
1070
    74
1070
     0
1000
MTEXTEND
  0
POINT
  5
1D7D
330
1C6F
100
AcDbEntity
  8
Defpoints
 62
     0
100
AcDbPoint
 10
81.93735553487803
 20
115.3473188014483
 30
0.0
  0
POINT
  5
1D7E
330
1C6F
100
AcDbEntity
  8
Defpoints
 62
     0
100
AcDbPoint
 10
78.49322819134133
 20
120.8598487869907
 30
0.0
  0
ENDBLK
  5
1C71
330
1C6F
100
AcDbEntity
  8
0
100
AcDbBlockEnd
  0
BLOCK
  5
1C97
330
1C96
100
AcDbEntity
  8
0
100
AcDbBlockBegin
  2
*D57
 70
     1
 10
0.0
 20
0.0
 30
0.0
  3
*D57
  1

  0
LINE
  5
1D85
330
1C96
100
AcDbEntity
  8
AM_5
100
AcDbLine
 10
53.91475193167728
 20
166.4716214664862
 30
0.0
 11
45.98753445522399
 21
184.2978940646815
 31
0.0
  0
LINE
  5
1D86
330
1C96
100
AcDbEntity
  8
AM_5
100
AcDbLine
 10
45.98753445522399
 20
184.2978940646815
 30
0.0
 11
35.0884498095547
 21
184.2978940646815
 31
0.0
  0
INSERT
  5
1D87
330
1C96
100
AcDbEntity
  8
AM_5
100
AcDbBlockReference
  2
_Open30
 10
54.93057207593508
 20
164.1873033112109
 30
0.0
 41
2.5
 42
2.5
 43
2.5
 50
293.9743768767711
  0
MTEXT
  5
1D88
330
1C96
100
AcDbEntity
  8
AM_5
 62
     2
100
AcDbMText
 10
39.78799213238931
 20
187.5482385528705
 30
0.0
 40
3.5
 41
0.0
 71
     5
 72
     1
  1
2-R2
 73
     1
 44
1.0
1001
ACAD
1000
MTEXTBEGIN
1070
    73
1070
     1
1070
    44
1040
1.0
1070
    74
1070
     0
1000
MTEXTEND
  0
POINT
  5
1D89
330
1C96
100
AcDbEntity
  8
Defpoints
 62
     0
100
AcDbPoint
 10
54.93057207593508
 20
164.1873033112109
 30
0.0
  0
POINT
  5
1D8A
330
1C96
100
AcDbEntity
  8
Defpoints
 62
     0
100
AcDbPoint
 10
55.74322819134133
 20
162.3598487869906
 30
0.0
  0
ENDBLK
  5
1C98
330
1C96
100
AcDbEntity
  8
0
100
AcDbBlockEnd
  0
BLOCK
  5
1DA8
330
1DA4
100
AcDbEntity
  8
0
100
AcDbBlockBegin
  2
*S58
 70
     1
 10
0.0
 20
0.0
 30
0.0
  3
*S58
  1

  0
CIRCLE
  5
1DA5
330
1DA4
100
AcDbEntity
  8
AM_12
 62
     4
100
AcDbCircle
 10
81.97720791933489
 20
162.4433067488181
 30
0.0
 40
1.75
  0
LINE
  5
1DA6
330
1DA4
100
AcDbEntity
  8
AM_12
 62
     4
100
AcDbLine
 10
80.22720791933489
 20
160.6933067488181
 30
0.0
 11
83.72720791933488
 21
164.1933067488181
 31
0.0
  0
LINE
  5
1DA7
330
1DA4
100
AcDbEntity
  8
AM_12
 62
     4
100
AcDbLine
 10
80.22720791933489
 20
164.1933067488181
 30
0.0
 11
83.72720791933488
 21
160.6933067488181
 31
0.0
  0
ENDBLK
  5
1DA9
330
1DA4
100
AcDbEntity
  8
0
100
AcDbBlockEnd
  0
BLOCK
  5
1DC6
330
1DAB
100
AcDbEntity
  8
0
100
AcDbBlockBegin
  2
*S59
 70
     1
 10
0.0
 20
0.0
 30
0.0
  3
*S59
  1

  0
MTEXT
  5
1DAC
330
1DAB
100
AcDbEntity
  8
ﾍﾞﾙﾄｸﾘｯﾌﾟ
 62
     2
100
AcDbMText
 10
7.5
 20
266.3
 30
0.0
 40
3.5
 41
13.2
 71
     2
 72
     5
  1
1
  7
ACISOTS
 73
     1
 44
1.0
1001
ACAD
1000
MTEXTBEGIN
1070
    73
1070
     1
1070
    44
1040
1.0
1070
    74
1070
     0
1000
MTEXTEND
  0
LINE
  5
1DAD
330
1DAB
100
AcDbEntity
  8
ﾍﾞﾙﾄｸﾘｯﾌﾟ
 62
     1
100
AcDbLine
 10
15.0
 20
267.65
 30
0.0
 11
15.0
 21
261.475
 31
0.0
  0
MTEXT
  5
1DAE
330
1DAB
100
AcDbEntity
  8
ﾍﾞﾙﾄｸﾘｯﾌﾟ
 62
     2
100
AcDbMText
 10
15.9
 20
266.3
 30
0.0
 40
3.5
 41
48.2
 71
     1
 72
     5
  1
ベルトクリップ
  7
ACISOTS
 73
     1
 44
1.0
1001
ACAD
1000
MTEXTBEGIN
1070
    73
1070
     1
1070
    44
1040
1.0
1070
    74
1070
     0
1000
MTEXTEND
  0
LINE
  5
1DAF
330
1DAB
100
AcDbEntity
  8
ﾍﾞﾙﾄｸﾘｯﾌﾟ
 62
     1
100
AcDbLine
 10
65.0
 20
267.65
 30
0.0
 11
65.0
 21
261.475
 31
0.0
  0
MTEXT
  5
1DB0
330
1DAB
100
AcDbEntity
  8
ﾍﾞﾙﾄｸﾘｯﾌﾟ
 62
     2
100
AcDbMText
 10
72.5
 20
266.3
 30
0.0
 40
3.5
 41
13.2
 71
     2
 72
     5
  1
1
  7
ACISOTS
 73
     1
 44
1.0
1001
ACAD
1000
MTEXTBEGIN
1070
    73
1070
     1
1070
    44
1040
1.0
1070
    74
1070
     0
1000
MTEXTEND
  0
LINE
  5
1DB1
330
1DAB
100
AcDbEntity
  8
ﾍﾞﾙﾄｸﾘｯﾌﾟ
 62
     1
100
AcDbLine
 10
80.0
 20
267.65
 30
0.0
 11
80.0
 21
261.475
 31
0.0
  0
MTEXT
  5
1DB2
330
1DAB
100
AcDbEntity
  8
ﾍﾞﾙﾄｸﾘｯﾌﾟ
 62
     2
100
AcDbMText
 10
80.90000000000001
 20
266.3
 30
0.0
 40
3.5
 41
51.2
 71
     1
 72
     5
  1
SPCC t0.8
  7
ACISOTS
 73
     1
 44
1.0
1001
ACAD
1000
MTEXTBEGIN
1070
    73
1070
     1
1070
    44
1040
1.0
1070
    74
1070
     0
1000
MTEXTEND
  0
LINE
  5
1DB3
330
1DAB
100
AcDbEntity
  8
ﾍﾞﾙﾄｸﾘｯﾌﾟ
 62
     1
100
AcDbLine
 10
133.0
 20
267.65
 30
0.0
 11
133.0
 21
261.475
 31
0.0
  0
MTEXT
  5
1DB4
330
1DAB
100
AcDbEntity
  8
ﾍﾞﾙﾄｸﾘｯﾌﾟ
 62
     2
100
AcDbMText
 10
133.9
 20
266.3
 30
0.0
 40
3.5
 41
58.2
 71
     1
 72
     5
  1
クロームメッキ
  7
ACISOTS
 73
     1
 44
1.0
1001
ACAD
1000
MTEXTBEGIN
1070
    73
1070
     1
1070
    44
1040
1.0
1070
    74
1070
     0
1000
MTEXTEND
  0
LINE
  5
1DB5
330
1DAB
100
AcDbEntity
  8
ﾍﾞﾙﾄｸﾘｯﾌﾟ
 62
     1
100
AcDbLine
 10
0.0
 20
267.65
 30
0.0
 11
193.0
 21
267.65
 31
0.0
  0
MTEXT
  5
1DB6
330
1DAB
100
AcDbEntity
  8
ﾍﾞﾙﾄｸﾘｯﾌﾟ
 62
     2
100
AcDbMText
 10
7.5
 20
272.475
 30
0.0
 40
3.5
 41
13.2
 71
     2
 72
     5
  1
照番
  7
ACISOTS
 73
     1
 44
1.0
1001
ACAD
1000
MTEXTBEGIN
1070
    73
1070
     1
1070
    44
1040
1.0
1070
    74
1070
     0
1000
MTEXTEND
  0
LINE
  5
1DB7
330
1DAB
100
AcDbEntity
  8
ﾍﾞﾙﾄｸﾘｯﾌﾟ
 62
     1
100
AcDbLine
 10
15.0
 20
273.825
 30
0.0
 11
15.0
 21
267.65
 31
0.0
  0
MTEXT
  5
1DB8
330
1DAB
100
AcDbEntity
  8
ﾍﾞﾙﾄｸﾘｯﾌﾟ
 62
     2
100
AcDbMText
 10
40.0
 20
272.475
 30
0.0
 40
3.5
 41
48.2
 71
     2
 72
     5
  1
名称
  7
ACISOTS
 73
     1
 44
1.0
1001
ACAD
1000
MTEXTBEGIN
1070
    73
1070
     1
1070
    44
1040
1.0
1070
    74
1070
     0
1000
MTEXTEND
  0
LINE
  5
1DB9
330
1DAB
100
AcDbEntity
  8
ﾍﾞﾙﾄｸﾘｯﾌﾟ
 62
     1
100
AcDbLine
 10
65.0
 20
273.825
 30
0.0
 11
65.0
 21
267.65
 31
0.0
  0
MTEXT
  5
1DBA
330
1DAB
100
AcDbEntity
  8
ﾍﾞﾙﾄｸﾘｯﾌﾟ
 62
     2
100
AcDbMText
 10
72.5
 20
272.475
 30
0.0
 40
3.5
 41
13.2
 71
     2
 72
     5
  1
数量
  7
ACISOTS
 73
     1
 44
1.0
1001
ACAD
1000
MTEXTBEGIN
1070
    73
1070
     1
1070
    44
1040
1.0
1070
    74
1070
     0
1000
MTEXTEND
  0
LINE
  5
1DBB
330
1DAB
100
AcDbEntity
  8
ﾍﾞﾙﾄｸﾘｯﾌﾟ
 62
     1
100
AcDbLine
 10
80.0
 20
273.825
 30
0.0
 11
80.0
 21
267.65
 31
0.0
  0
MTEXT
  5
1DBC
330
1DAB
100
AcDbEntity
  8
ﾍﾞﾙﾄｸﾘｯﾌﾟ
 62
     2
100
AcDbMText
 10
106.5
 20
272.475
 30
0.0
 40
3.5
 41
51.2
 71
     2
 72
     5
  1
材質
  7
ACISOTS
 73
     1
 44
1.0
1001
ACAD
1000
MTEXTBEGIN
1070
    73
1070
     1
1070
    44
1040
1.0
1070
    74
1070
     0
1000
MTEXTEND
  0
LINE
  5
1DBD
330
1DAB
100
AcDbEntity
  8
ﾍﾞﾙﾄｸﾘｯﾌﾟ
 62
     1
100
AcDbLine
 10
133.0
 20
273.825
 30
0.0
 11
133.0
 21
267.65
 31
0.0
  0
MTEXT
  5
1DBE
330
1DAB
100
AcDbEntity
  8
ﾍﾞﾙﾄｸﾘｯﾌﾟ
 62
     2
100
AcDbMText
 10
163.0
 20
272.475
 30
0.0
 40
3.5
 41
58.2
 71
     2
 72
     5
  1
色・表面処理
  7
ACISOTS
 73
     1
 44
1.0
1001
ACAD
1000
MTEXTBEGIN
1070
    73
1070
     1
1070
    44
1040
1.0
1070
    74
1070
     0
1000
MTEXTEND
  0
MTEXT
  5
1DBF
330
1DAB
100
AcDbEntity
  8
ﾍﾞﾙﾄｸﾘｯﾌﾟ
 62
     2
100
AcDbMText
 10
96.5
 20
276.9125
 30
0.0
 40
3.5
 41
0.0
 71
     5
 72
     5
  1
構成内容
  7
ACISOTS
 73
     1
 44
1.0
1001
ACAD
1000
MTEXTBEGIN
1070
    73
1070
     1
1070
    44
1040
1.0
1070
    74
1070
     0
1000
MTEXTEND
  0
LINE
  5
1DC0
330
1DAB
100
AcDbEntity
  8
ﾍﾞﾙﾄｸﾘｯﾌﾟ
 62
     1
100
AcDbLine
 10
0.0
 20
273.825
 30
0.0
 11
193.0
 21
273.825
 31
0.0
  0
LINE
  5
1DC1
330
1DAB
100
AcDbEntity
  8
ﾍﾞﾙﾄｸﾘｯﾌﾟ
 62
     1
100
AcDbLine
 10
0.0
 20
280.0
 30
0.0
 11
193.0
 21
280.0
 31
0.0
  0
LINE
  5
1DC2
330
1DAB
100
AcDbEntity
  8
ﾍﾞﾙﾄｸﾘｯﾌﾟ
 62
     7
100
AcDbLine
 10
0.0
 20
261.475
 30
0.0
 11
0.0
 21
280.0
 31
0.0
  0
LINE
  5
1DC3
330
1DAB
100
AcDbEntity
  8
ﾍﾞﾙﾄｸﾘｯﾌﾟ
 62
     7
100
AcDbLine
 10
0.0
 20
280.0
 30
0.0
 11
193.0
 21
280.0
 31
0.0
  0
LINE
  5
1DC4
330
1DAB
100
AcDbEntity
  8
ﾍﾞﾙﾄｸﾘｯﾌﾟ
 62
     7
100
AcDbLine
 10
193.0
 20
280.0
 30
0.0
 11
193.0
 21
261.475
 31
0.0
  0
LINE
  5
1DC5
330
1DAB
100
AcDbEntity
  8
ﾍﾞﾙﾄｸﾘｯﾌﾟ
 62
     7
100
AcDbLine
 10
0.0
 20
261.475
 30
0.0
 11
193.0
 21
261.475
 31
0.0
  0
ENDBLK
  5
1DC7
330
1DAB
100
AcDbEntity
  8
0
100
AcDbBlockEnd
  0
BLOCK
  5
1DCE
330
1DC9
100
AcDbEntity
  8
0
100
AcDbBlockBegin
  2
*S60
 70
     1
 10
0.0
 20
0.0
 30
0.0
  3
*S60
  1

  0
LINE
  5
1DCA
330
1DC9
100
AcDbEntity
  8
AM_5
100
AcDbLine
 10
102.4045134239506
 20
187.045700260025
 30
0.0
 11
84.21302518081704
 21
165.1360973409843
 31
0.0
  0
TRACE
  5
1DCB
330
1DC9
100
AcDbEntity
  8
AM_5
  6
Continuous
100
AcDbTrace
 10
83.85851257546027
 20
165.4304482662941
 30
0.0
 11
84.56753778617381
 21
164.8417464156744
 31
0.0
 12
81.97720791933489
 22
162.4433067488181
 32
0.0
 13
81.97720791933489
 23
162.4433067488181
 33
0.0
  0
MTEXT
  5
1DCC
330
1DC9
100
AcDbEntity
  8
AM_5
 62
     7
100
AcDbMText
 10
108.7925627424711
 20
194.7393876662139
 30
0.0
 40
5.0
 41
0.0
 71
     5
 72
     5
  1
1
  7
ACISOTS
 73
     1
 44
1.0
1001
ACAD
1000
MTEXTBEGIN
1070
    73
1070
     1
1070
    44
1040
1.0
1070
    74
1070
     0
1000
MTEXTEND
  0
CIRCLE
  5
1DCD
330
1DC9
100
AcDbEntity
  8
AM_5
 62
     3
100
AcDbCircle
 10
108.7925627424711
 20
194.7393876662139
 30
0.0
 40
10.0
  0
ENDBLK
  5
1DCF
330
1DC9
100
AcDbEntity
  8
0
100
AcDbBlockEnd
  0
ENDSEC
  0
SECTION
  2
ENTITIES
  0
INSERT
  5
A11
330
1F
100
AcDbEntity
  8
0
370
     0
100
AcDbBlockReference
  2
TK-A4
 10
0.0
 20
0.0
 30
0.0
1001
GENIUS_GENOREF_13
1005
A1D
1001
GENIUS_GENODEF_13
1002
{
1000
HIER
1070
     0
1002
}
1002
{
1000
MANEDIT
1070
     0
1002
}
1002
{
1000
NOSEL
1070
     0
1002
}
1002
{
1000
BEHIND
1070
     0
1002
}
1002
{
1000
OTHER
1070
     0
1002
}
1002
{
1000
REACTOR
1002
}
1001
GENIUS_GENOBJ-N-SDF_13
1002
{
1000
OWNER
1000
GEN
1002
}
1001
GENIUS_GENSCREG_15
1040
1.0
1040
1.0
1011
0.0
1021
0.0
1031
0.0
1011
193.0
1021
280.0000000000001
1031
0.0
1070
     3
  0
INSERT
  5
A13
330
1F
100
AcDbEntity
  8
ﾍﾞﾙﾄｸﾘｯﾌﾟ
370
     0
100
AcDbBlockReference
 66
     1
  2
TK-仕様書
 10
193.0
 20
0.0
 30
0.0
1001
GENIUS_GENOREF_13
1005
A1D
  0
ATTRIB
  5
12B3
330
A13
100
AcDbEntity
  8
0
100
AcDbText
 10
11.72578750686352
 20
2.74583463158126
 30
0.0
 40
3.0
  1
2012/07/02
100
AcDbAttribute
  2
GEN-TITLE-DAT
 70
     0
  0
ATTRIB
  5
12B4
330
A13
100
AcDbEntity
  8
0
100
AcDbText
 10
46.84385060691079
 20
24.94727555274869
 30
0.0
 40
3.5
  1
DK型ベルトクリップ
100
AcDbAttribute
  2
品名
 70
     0
  0
ATTRIB
  5
12B5
330
A13
100
AcDbEntity
  8
0
100
AcDbText
 10
46.86083175143903
 20
11.53771236320705
 30
0.0
 40
3.5
  1
DK-2
100
AcDbAttribute
  2
型番
 70
     0
  0
ATTRIB
  5
12B6
330
A13
100
AcDbEntity
  8
0
100
AcDbText
 10
46.54783999795074
 20
2.056420693678944
 30
0.0
 40
3.0
  1

100
AcDbAttribute
  2
図番
 70
     0
  0
ATTRIB
  5
12B7
330
A13
100
AcDbEntity
  8
0
100
AcDbText
 10
151.7666666666665
 20
5.97907666823994
 30
0.0
 40
3.5
  1
大江
 72
     4
 11
155.4999999999999
 21
7.72907666823994
 31
0.0
100
AcDbAttribute
  2
検図
 70
     0
  0
ATTRIB
  5
12B8
330
A13
100
AcDbEntity
  8
0
100
AcDbText
 10
176.7666666666665
 20
5.97907666823994
 30
0.0
 40
3.5
  1
野村
 72
     4
 11
180.4999999999999
 21
7.72907666823994
 31
0.0
100
AcDbAttribute
  2
製図
 70
     0
  0
ATTRIB
  5
12B9
330
A13
100
AcDbEntity
  8
0
100
AcDbText
 10
19.58817746980792
 20
14.29266317345349
 30
0.0
 40
3.0
  1
1:1
 72
     4
 11
21.53817746980792
 21
15.79266317345349
 31
0.0
100
AcDbAttribute
  2
GEN-TITLE-SCA
 70
     0
  0
ATTRIB
  5
12BA
330
A13
100
AcDbEntity
  8
0
100
AcDbText
 10
121.1804823426131
 20
5.979076668239944
 30
0.0
 40
3.5
  1
高地（一）
 72
     4
 11
130.2804823426131
 21
7.729076668239944
 31
0.0
100
AcDbAttribute
  2
承認
 70
     0
  0
SEQEND
  5
12B2
330
A13
100
AcDbEntity
  8
ﾍﾞﾙﾄｸﾘｯﾌﾟ
370
     0
  0
POINT
  5
A1D
330
1F
100
AcDbEntity
  8
0
 60
     1
100
AcDbPoint
 10
0.0
 20
0.0
 30
0.0
1001
GENIUS_GENOENT_13
1002
{
1000
MYREF
1005
A1D
1002
}
1002
{
1000
GRP
1005
0
1002
}
1001
GENIUS_GENODEF_13
1002
{
1000
HIER
1070
     1
1002
}
1002
{
1000
MANEDIT
1070
     0
1002
}
1002
{
1000
NOSEL
1070
     0
1002
}
1002
{
1000
BEHIND
1070
     0
1002
}
1002
{
1000
OTHER
1070
     0
1002
}
1002
{
1000
REACTOR
1002
}
1001
GENIUS_GENOBJ-N-TIT_13
1002
{
1000
OWNER
1000
GEN
1002
}
1001
GENIUS_GENOLIS_13
1002
{
1000
ENT
1005
A13
1005
A11
1002
}
1001
GENIUS_GENTITLE_13
1002
{
1000
BORDER
1000
TK-A4
1002
}
1002
{
1000
TITLE
1000
TK-仕様書
1002
}
1002
{
1000
ADDITIONAL1
1000

1002
}
1002
{
1000
ADDITIONAL2
1000

1002
}
1002
{
1000
SCALE
1000
1:1
1002
}
1002
{
1000
TITLESTD
1000
ISO
1002
}
1002
{
1000
HRA
1005
A11
1002
}
1002
{
1000
HTIT
1005
A13
1002
}
1002
{
1000
GENIUSID
1005
A1D
1002
}
1002
{
1000
INVTXTID
1005
0
1002
}
1002
{
1000
UNCHG
1002
{
1000
GEN-TITLE-SIZ
1000
GEN-TITLE-SCA
1002
}
1002
}
  0
INSERT
  5
1242
102
{ACAD_REACTORS
330
123F
102
}
330
1F
100
AcDbEntity
  8
AM_12
100
AcDbBlockReference
  2
*S58
 10
0.0
 20
0.0
 30
0.0
  0
INSERT
  5
1273
102
{ACAD_REACTORS
330
1245
102
}
330
1F
100
AcDbEntity
  8
ﾍﾞﾙﾄｸﾘｯﾌﾟ
100
AcDbBlockReference
  2
*S59
 10
0.0
 20
0.0
 30
0.0
  0
INSERT
  5
127F
102
{ACAD_REACTORS
330
1246
102
}
330
1F
100
AcDbEntity
  8
AM_5
100
AcDbBlockReference
  2
*S60
 10
0.0
 20
0.0
 30
0.0
  0
ARC
  5
14BA
102
{ACAD_REACTORS
330
1B81
102
}
330
1F
100
AcDbEntity
  8
ﾍﾞﾙﾄｸﾘｯﾌﾟ
100
AcDbCircle
 10
198.7585730776867
 20
120.1598487869907
 30
0.0
 40
61.19999999999999
100
AcDbArc
 50
169.3250414389662
 51
190.2956621085484
  0
CIRCLE
  5
14BC
330
1F
100
AcDbEntity
  8
ﾍﾞﾙﾄｸﾘｯﾌﾟ
100
AcDbCircle
 10
88.99322819134136
 20
156.0598487869907
 30
0.0
 40
2.0
  0
CIRCLE
  5
14BD
330
1F
100
AcDbEntity
  8
ﾍﾞﾙﾄｸﾘｯﾌﾟ
100
AcDbCircle
 10
57.99322819134136
 20
156.0598487869907
 30
0.0
 40
2.0
  0
CIRCLE
  5
14BE
102
{ACAD_REACTORS
330
1AD4
102
}
330
1F
100
AcDbEntity
  8
ﾍﾞﾙﾄｸﾘｯﾌﾟ
100
AcDbCircle
 10
73.49322819134136
 20
124.7598487869907
 30
0.0
 40
2.0
  0
ARC
  5
14BF
102
{ACAD_REACTORS
330
19F2
330
1A67
330
1BF7
102
}
330
1F
100
AcDbEntity
  8
ﾍﾞﾙﾄｸﾘｯﾌﾟ
100
AcDbCircle
 10
73.49322819134136
 20
122.1598487869907
 30
0.0
 40
13.0
100
AcDbArc
 50
199.5572137354226
 51
340.4427862645773
  0
LINE
  5
14C0
330
1F
100
AcDbEntity
  8
ﾍﾞﾙﾄｸﾘｯﾌﾟ0
100
AcDbLine
 10
84.99322819134135
 20
129.7598487869907
 30
0.0
 11
84.99322819134134
 21
120.8598487869906
 31
0.0
  0
LINE
  5
14C1
330
1F
100
AcDbEntity
  8
ﾍﾞﾙﾄｸﾘｯﾌﾟ0
100
AcDbLine
 10
78.49322819134133
 20
114.3598487869907
 30
0.0
 11
68.49322819134136
 21
114.3598487869907
 31
0.0
  0
LINE
  5
14C2
330
1F
100
AcDbEntity
  8
ﾍﾞﾙﾄｸﾘｯﾌﾟ0
100
AcDbLine
 10
61.99322819134136
 20
120.8598487869907
 30
0.0
 11
61.99322819134136
 21
129.7598487869907
 31
0.0
  0
ARC
  5
14C5
330
1F
100
AcDbEntity
  8
ﾍﾞﾙﾄｸﾘｯﾌﾟ
100
AcDbCircle
 10
109.9932281913413
 20
129.7598487869907
 30
0.0
 40
25.0
100
AcDbArc
 50
136.4688478326276
 51
165.9301322524261
  0
ARC
  5
14C6
330
1F
100
AcDbEntity
  8
ﾍﾞﾙﾄｸﾘｯﾌﾟ0
100
AcDbCircle
 10
36.99322819134133
 20
129.7598487869907
 30
0.0
 40
25.0
100
AcDbArc
 50
0.0
 51
14.06986774757061
  0
LINE
  5
14C7
330
1F
100
AcDbEntity
  8
ﾍﾞﾙﾄｸﾘｯﾌﾟ
100
AcDbLine
 10
61.24322819134135
 20
167.8598487869907
 30
0.0
 11
85.74322819134136
 21
167.8598487869907
 31
0.0
  0
LINE
  5
14C8
102
{ACAD_REACTORS
330
18DE
330
1A1C
102
}
330
1F
100
AcDbEntity
  8
ﾍﾞﾙﾄｸﾘｯﾌﾟ
100
AcDbLine
 10
85.74322819134136
 20
167.8598487869907
 30
0.0
 11
85.74322819134136
 21
117.8081249906084
 31
0.0
  0
LINE
  5
14C9
102
{ACAD_REACTORS
330
18DE
330
1996
330
19F2
102
}
330
1F
100
AcDbEntity
  8
ﾍﾞﾙﾄｸﾘｯﾌﾟ
100
AcDbLine
 10
61.24322819134135
 20
117.8081249906084
 30
0.0
 11
61.24322819134135
 21
167.8598487869907
 31
0.0
  0
LINE
  5
14CA
330
1F
100
AcDbEntity
  8
ﾍﾞﾙﾄｸﾘｯﾌﾟ
100
AcDbLine
 10
61.24322819134135
 20
164.3598487869907
 30
0.0
 11
55.74322819134136
 21
164.3598487869907
 31
0.0
  0
LINE
  5
14CB
330
1F
100
AcDbEntity
  8
ﾍﾞﾙﾄｸﾘｯﾌﾟ
100
AcDbLine
 10
53.74322819134135
 20
162.3598487869907
 30
0.0
 11
53.74322819134135
 21
150.4223147579245
 31
0.0
  0
LINE
  5
14CC
330
1F
100
AcDbEntity
  8
ﾍﾞﾙﾄｸﾘｯﾌﾟ
100
AcDbLine
 10
85.74322819134136
 20
164.3598487869907
 30
0.0
 11
91.24322819134135
 21
164.3598487869907
 31
0.0
  0
LINE
  5
14CD
330
1F
100
AcDbEntity
  8
ﾍﾞﾙﾄｸﾘｯﾌﾟ
100
AcDbLine
 10
93.24322819134136
 20
162.3598487869907
 30
0.0
 11
93.24322819134136
 21
150.4223147579246
 31
0.0
  0
CIRCLE
  5
14CE
102
{ACAD_REACTORS
330
1B00
102
}
330
1F
100
AcDbEntity
  8
ﾍﾞﾙﾄｸﾘｯﾌﾟ
100
AcDbCircle
 10
73.49322819134136
 20
124.7598487869907
 30
0.0
 40
5.0
  0
ARC
  5
14CF
330
1F
100
AcDbEntity
  8
ﾍﾞﾙﾄｸﾘｯﾌﾟ
100
AcDbCircle
 10
88.24322819134136
 20
150.4223147579246
 30
0.0
 40
5.0
100
AcDbArc
 50
316.4688478326277
 51
0.0
  0
ARC
  5
14D0
330
1F
100
AcDbEntity
  8
ﾍﾞﾙﾄｸﾘｯﾌﾟ
100
AcDbCircle
 10
58.74322819134135
 20
150.4223147579245
 30
0.0
 40
5.0
100
AcDbArc
 50
180.0
 51
223.5311521673724
  0
ARC
  5
14D1
102
{ACAD_REACTORS
330
1920
330
1996
330
19D1
330
1C9F
102
}
330
1F
100
AcDbEntity
  8
ﾍﾞﾙﾄｸﾘｯﾌﾟ
100
AcDbCircle
 10
55.74322819134136
 20
162.3598487869907
 30
0.0
 40
2.0
100
AcDbArc
 50
90.0
 51
180.0
  0
ARC
  5
14D2
102
{ACAD_REACTORS
330
1920
102
}
330
1F
100
AcDbEntity
  8
ﾍﾞﾙﾄｸﾘｯﾌﾟ
100
AcDbCircle
 10
91.24322819134135
 20
162.3598487869907
 30
0.0
 40
2.0
100
AcDbArc
 50
0.0
 51
90.0
  0
ARC
  5
14D3
330
1F
100
AcDbEntity
  8
ﾍﾞﾙﾄｸﾘｯﾌﾟ
100
AcDbCircle
 10
36.99322819134133
 20
129.7598487869907
 30
0.0
 40
25.0
100
AcDbArc
 50
14.06986774757061
 51
43.53115216737238
  0
ARC
  5
14D4
330
1F
100
AcDbEntity
  8
ﾍﾞﾙﾄｸﾘｯﾌﾟ0
100
AcDbCircle
 10
109.9932281913413
 20
129.7598487869907
 30
0.0
 40
25.0
100
AcDbArc
 50
165.9301322524261
 51
180.0
  0
ARC
  5
14D5
330
1F
100
AcDbEntity
  8
ﾍﾞﾙﾄｸﾘｯﾌﾟ
100
AcDbCircle
 10
41.70561665133367
 20
149.2311378351752
 30
0.0
 40
98.52144954280209
100
AcDbArc
 50
349.6296991845306
 51
8.833147602193708
  0
LINE
  5
14D7
330
1F
100
AcDbEntity
  8
ﾍﾞﾙﾄｸﾘｯﾌﾟ
100
AcDbLine
 10
144.7585730776868
 20
164.3598487869907
 30
0.0
 11
145.5585730776868
 21
164.3598487869907
 31
0.0
  0
LINE
  5
14D8
330
1F
100
AcDbEntity
  8
ﾍﾞﾙﾄｸﾘｯﾌﾟ
100
AcDbLine
 10
145.5585730776868
 20
164.3598487869907
 30
0.0
 11
145.5585730776868
 21
114.3598487869907
 31
0.0
  0
LINE
  5
14D9
102
{ACAD_REACTORS
330
188F
102
}
330
1F
100
AcDbEntity
  8
ﾍﾞﾙﾄｸﾘｯﾌﾟ
100
AcDbLine
 10
145.5585730776868
 20
114.3598487869907
 30
0.0
 11
144.7585730776868
 21
114.3598487869907
 31
0.0
  0
LINE
  5
14DA
330
1F
100
AcDbEntity
  8
ﾍﾞﾙﾄｸﾘｯﾌﾟ
100
AcDbLine
 10
144.7585730776868
 20
114.3598487869907
 30
0.0
 11
144.7585730776868
 21
164.3598487869907
 31
0.0
  0
LINE
  5
14DB
102
{ACAD_REACTORS
330
1B23
330
1B81
102
}
330
1F
100
AcDbEntity
  8
ﾍﾞﾙﾄｸﾘｯﾌﾟ
100
AcDbLine
 10
145.5585730776868
 20
164.3598487869907
 30
0.0
 11
145.5585730776868
 21
164.4598487869907
 31
0.0
  0
LINE
  5
14DD
102
{ACAD_REACTORS
330
1B23
102
}
330
1F
100
AcDbEntity
  8
ﾍﾞﾙﾄｸﾘｯﾌﾟ
100
AcDbLine
 10
139.0585730776868
 20
164.5598487869907
 30
0.0
 11
139.0585730776868
 21
164.3598487869907
 31
0.0
  0
ARC
  5
14E2
102
{ACAD_REACTORS
330
1B23
330
1B81
102
}
330
1F
100
AcDbEntity
  8
ﾍﾞﾙﾄｸﾘｯﾌﾟ
100
AcDbCircle
 10
142.1524645043537
 20
164.4573185330693
 30
0.0
 40
3.406109513142266
100
AcDbArc
 50
0.0425626021610644
 51
87.37310362533991
  0
ARC
  5
14E4
330
1F
100
AcDbEntity
  8
ﾍﾞﾙﾄｸﾘｯﾌﾟ
100
AcDbCircle
 10
142.3592368784179
 20
164.5595738317252
 30
0.0
 40
3.300663812183431
100
AcDbArc
 50
90.87950064654595
 51
179.9952270884936
  0
LINE
  5
14E5
330
1F
100
AcDbEntity
  8
ﾍﾞﾙﾄｸﾘｯﾌﾟ
100
AcDbLine
 10
138.5439804519039
 20
109.2217120667346
 30
0.0
 11
139.3686749467757
 21
109.1598487869908
 31
0.0
  0
LINE
  5
15AE
330
1F
100
AcDbEntity
  8
AM_7
100
AcDbLine
 10
73.49322819134136
 20
170.8598487869907
 30
0.0
 11
73.49322819134136
 21
106.1598487869908
 31
0.0
1001
GENIUS_GENOBJ-N-CEN_13
1002
{
1000
OWNER
1000
GEN
1002
}
1001
GENIUS_GENODEF_13
1002
{
1000
HIER
1070
     0
1002
}
1002
{
1000
MANEDIT
1070
     0
1002
}
1002
{
1000
NOSEL
1070
     0
1002
}
1002
{
1000
BEHIND
1070
     0
1002
}
1002
{
1000
OTHER
1070
     0
1002
}
1002
{
1000
REACTOR
1002
}
1001
GENIUS_GENCEN_19
1002
{
1040
3.0
1002
}
  0
LINE
  5
15AF
102
{ACAD_REACTORS
330
18FF
102
}
330
1F
100
AcDbEntity
  8
AM_7
  6
AM_ISO08W050x2
100
AcDbLine
 10
57.99322819134136
 20
161.0598487869907
 30
0.0
 11
57.99322819134136
 21
151.0598487869907
 31
0.0
1001
GENIUS_GENOBJ-N-CEN_13
1002
{
1000
OWNER
1000
GEN
1002
}
1001
GENIUS_GENODEF_13
1002
{
1000
HIER
1070
     0
1002
}
1002
{
1000
MANEDIT
1070
     0
1002
}
1002
{
1000
NOSEL
1070
     0
1002
}
1002
{
1000
BEHIND
1070
     0
1002
}
1002
{
1000
OTHER
1070
     0
1002
}
1002
{
1000
REACTOR
1002
}
1001
GENIUS_GENCEN_19
1002
{
1040
3.0
1002
}
  0
LINE
  5
15B0
102
{ACAD_REACTORS
330
18FF
102
}
330
1F
100
AcDbEntity
  8
AM_7
  6
AM_ISO08W050x2
100
AcDbLine
 10
88.99322819134136
 20
161.0598487869907
 30
0.0
 11
88.99322819134136
 21
151.0598487869907
 31
0.0
1001
GENIUS_GENODEF_13
1002
{
1000
HIER
1070
     0
1002
}
1002
{
1000
MANEDIT
1070
     0
1002
}
1002
{
1000
NOSEL
1070
     0
1002
}
1002
{
1000
BEHIND
1070
     0
1002
}
1002
{
1000
OTHER
1070
     0
1002
}
1002
{
1000
REACTOR
1002
}
1001
GENIUS_GENOBJ-N-CEN_13
1002
{
1000
OWNER
1000
GEN
1002
}
1001
GENIUS_GENCEN_19
1002
{
1040
3.0
1002
}
  0
LINE
  5
15B1
102
{ACAD_REACTORS
330
1A1C
330
1A46
102
}
330
1F
100
AcDbEntity
  8
AM_7
100
AcDbLine
 10
52.99322819134136
 20
156.0598487869907
 30
0.0
 11
93.99322819134136
 21
156.0598487869907
 31
0.0
1001
GENIUS_GENODEF_13
1002
{
1000
HIER
1070
     0
1002
}
1002
{
1000
MANEDIT
1070
     0
1002
}
1002
{
1000
NOSEL
1070
     0
1002
}
1002
{
1000
BEHIND
1070
     0
1002
}
1002
{
1000
OTHER
1070
     0
1002
}
1002
{
1000
REACTOR
1002
}
1001
GENIUS_GENOBJ-N-CEN_13
1002
{
1000
OWNER
1000
GEN
1002
}
1001
GENIUS_GENCEN_19
1002
{
1040
3.0
1002
}
  0
LINE
  5
15B2
102
{ACAD_REACTORS
330
1A46
330
1A67
102
}
330
1F
100
AcDbEntity
  8
AM_7
  6
AM_ISO08W050x2
100
AcDbLine
 10
65.49322819134136
 20
124.7598487869907
 30
0.0
 11
81.49322819134136
 21
124.7598487869907
 31
0.0
1001
GENIUS_GENOBJ-N-CEN_13
1002
{
1000
OWNER
1000
GEN
1002
}
1001
GENIUS_GENODEF_13
1002
{
1000
HIER
1070
     0
1002
}
1002
{
1000
MANEDIT
1070
     0
1002
}
1002
{
1000
NOSEL
1070
     0
1002
}
1002
{
1000
BEHIND
1070
     0
1002
}
1002
{
1000
OTHER
1070
     0
1002
}
1002
{
1000
REACTOR
1002
}
1001
GENIUS_GENCEN_19
1002
{
1040
3.0
1002
}
  0
ARC
  5
1781
330
1F
100
AcDbEntity
  8
ﾍﾞﾙﾄｸﾘｯﾌﾟ
100
AcDbCircle
 10
142.1524645043537
 20
164.4573185330693
 30
0.0
 40
2.606109513142266
100
AcDbArc
 50
0.0425626021610644
 51
86.83334068203143
  0
ARC
  5
1782
330
1F
100
AcDbEntity
  8
ﾍﾞﾙﾄｸﾘｯﾌﾟ
100
AcDbCircle
 10
142.3592368784179
 20
164.5595738317252
 30
0.0
 40
2.500663812183431
100
AcDbArc
 50
91.43925891881321
 51
179.9952270884936
  0
LINE
  5
1783
330
1F
100
AcDbEntity
  8
ﾍﾞﾙﾄｸﾘｯﾌﾟ
100
AcDbLine
 10
144.7585730776868
 20
164.4595317864372
 30
0.0
 11
144.7585730776868
 21
164.3598487869907
 31
0.0
  0
LINE
  5
1784
330
1F
100
AcDbEntity
  8
ﾍﾞﾙﾄｸﾘｯﾌﾟ
100
AcDbLine
 10
139.8585730776868
 20
164.5598487869907
 30
0.0
 11
139.8585730776868
 21
164.415510706896
 31
0.0
  0
ARC
  5
1785
330
1F
100
AcDbEntity
  8
ﾍﾞﾙﾄｸﾘｯﾌﾟ
100
AcDbCircle
 10
41.76233441953085
 20
149.2276350401964
 30
0.0
 40
99.26501703090073
100
AcDbArc
 50
349.6233396206759
 51
8.801012801662693
  0
ARC
  5
1786
330
1F
100
AcDbEntity
  8
ﾍﾞﾙﾄｸﾘｯﾌﾟ
100
AcDbCircle
 10
198.7585730776867
 20
120.1598487869907
 30
0.0
 40
60.39999999999999
100
AcDbArc
 50
169.3250414389662
 51
190.4932219172283
  0
LINE
  5
1787
330
1F
100
AcDbEntity
  8
ﾍﾞﾙﾄｸﾘｯﾌﾟ
100
AcDbLine
 10
139.410369761949
 20
131.3882428799777
 30
0.0
 11
139.4038645787991
 21
131.3481721203627
 31
0.0
  0
LINE
  5
17FC
330
1F
100
AcDbEntity
  8
ﾍﾞﾙﾄｸﾘｯﾌﾟ0
100
AcDbLine
 10
144.7585730776868
 20
158.0598487869907
 30
0.0
 11
145.5585730776868
 21
158.0598487869907
 31
0.0
  0
LINE
  5
17FD
330
1F
100
AcDbEntity
  8
ﾍﾞﾙﾄｸﾘｯﾌﾟ0
100
AcDbLine
 10
144.7585730776868
 20
154.0598487869907
 30
0.0
 11
145.5585730776868
 21
154.0598487869907
 31
0.0
  0
LINE
  5
17FE
330
1F
100
AcDbEntity
  8
ﾍﾞﾙﾄｸﾘｯﾌﾟ0
100
AcDbLine
 10
144.7585730776868
 20
126.7598487869907
 30
0.0
 11
145.5585730776868
 21
126.7598487869907
 31
0.0
  0
LINE
  5
17FF
330
1F
100
AcDbEntity
  8
ﾍﾞﾙﾄｸﾘｯﾌﾟ0
100
AcDbLine
 10
144.7585730776868
 20
122.7598487869907
 30
0.0
 11
145.5585730776868
 21
122.7598487869907
 31
0.0
  0
LINE
  5
1800
330
1F
100
AcDbEntity
  8
ﾍﾞﾙﾄｸﾘｯﾌﾟ0
100
AcDbLine
 10
138.3162038322642
 20
129.7598487869907
 30
0.0
 11
139.1263670141845
 21
129.7598487869907
 31
0.0
  0
LINE
  5
1801
330
1F
100
AcDbEntity
  8
ﾍﾞﾙﾄｸﾘｯﾌﾟ0
100
AcDbLine
 10
137.5598802811899
 20
119.7598487869907
 30
0.0
 11
138.3598975955208
 21
119.7598487869907
 31
0.0
  0
DIMENSION
  5
187F
102
{ACAD_XDICTIONARY
360
188E
102
}
102
{ACAD_REACTORS
330
188F
102
}
330
1F
100
AcDbEntity
  8
AM_5
100
AcDbDimension
  2
*D36
 10
145.5585730776868
 20
97.15984777699082
 30
0.0
 11
154.5099510304427
 21
100.4098477769908
 31
0.0
 70
    32
 71
     5
 42
0.8000000000000113
  3
AM_ISO$0
100
AcDbAlignedDimension
 13
144.7585730776868
 23
114.3598487869907
 33
0.0
 14
145.5585730776868
 24
114.3598487869907
 34
0.0
 50
0.0000000000001018
100
AcDbRotatedDimension
1001
ACAD_DSTYLE_DIMINSPECT
1070
   396
1000
100%
1070
   395
1000

1070
   394
1070
    33
1070
   393
1070
     0
  0
DIMENSION
  5
18A6
330
1F
100
AcDbEntity
  8
AM_5
100
AcDbDimension
  2
*D37
 10
84.99322819134134
 20
97.15984777699063
 30
0.0
 11
73.49322819134134
 21
100.4101922651796
 31
0.0
 70
    32
 71
     5
 42
22.99999999999998
  3
AM_ISO$0
100
AcDbAlignedDimension
 13
61.99322819134135
 23
120.8598487869907
 33
0.0
 14
84.99322819134134
 24
120.8598487869906
 34
0.0
 50
0.0000000000001018
100
AcDbRotatedDimension
1001
ACAD_DSTYLE_DIMINSPECT
1070
   396
1000
100%
1070
   395
1000

1070
   394
1070
    33
1070
   393
1070
     0
  0
DIMENSION
  5
18D0
102
{ACAD_XDICTIONARY
360
18DD
102
}
102
{ACAD_REACTORS
330
18DE
102
}
330
1F
100
AcDbEntity
  8
AM_5
100
AcDbDimension
  2
*D38
 10
85.74322819134136
 20
179.8598497869907
 30
0.0
 11
73.49322819134136
 21
183.1101942751797
 31
0.0
 70
    32
 71
     5
 42
24.5
  3
AM_ISO$0
100
AcDbAlignedDimension
 13
61.24322819134135
 23
167.8598487869907
 33
0.0
 14
85.74322819134136
 24
167.8598487869907
 34
0.0
100
AcDbRotatedDimension
1001
ACAD_DSTYLE_DIMINSPECT
1070
   396
1000
100%
1070
   395
1000

1070
   394
1070
    33
1070
   393
1070
     0
  0
DIMENSION
  5
18F1
102
{ACAD_XDICTIONARY
360
18FE
102
}
102
{ACAD_REACTORS
330
18FF
102
}
330
1F
100
AcDbEntity
  8
AM_5
100
AcDbDimension
  2
*D39
 10
88.99322819134138
 20
189.8598497869907
 30
0.0
 11
73.49322819134136
 21
193.1098497869907
 31
0.0
 70
    32
 71
     5
 42
31.00000000000001
  3
AM_ISO$0
100
AcDbAlignedDimension
 13
57.99322819134136
 23
161.0598487869907
 33
0.0
 14
88.99322819134138
 24
161.0598487869907
 34
0.0
100
AcDbRotatedDimension
1001
ACAD_DSTYLE_DIMINSPECT
1070
   396
1000
100%
1070
   395
1000

1070
   394
1070
    33
1070
   393
1070
     0
  0
DIMENSION
  5
1912
102
{ACAD_XDICTIONARY
360
191F
102
}
102
{ACAD_REACTORS
330
1920
102
}
330
1F
100
AcDbEntity
  8
AM_5
100
AcDbDimension
  2
*D40
 10
93.24322819134136
 20
199.8598497869906
 30
0.0
 11
73.49322819134136
 21
203.1098497869907
 31
0.0
 70
    32
 71
     5
 42
39.5
  3
AM_ISO$0
100
AcDbAlignedDimension
 13
53.74322819134135
 23
162.3598487869907
 33
0.0
 14
93.24322819134136
 24
162.3598487869907
 34
0.0
100
AcDbRotatedDimension
1001
ACAD_DSTYLE_DIMINSPECT
1070
   396
1000
100%
1070
   395
1000

1070
   394
1070
    33
1070
   393
1070
     0
  0
DIMENSION
  5
1986
102
{ACAD_XDICTIONARY
360
1995
102
}
102
{ACAD_REACTORS
330
1996
102
}
330
1F
100
AcDbEntity
  8
AM_5
100
AcDbDimension
  2
*D43
 10
43.74322819134135
 20
164.3598487869907
 30
0.0
 11
43.74322819134134
 21
176.882336160406
 31
0.0
 70
   160
 71
     5
 42
3.5
  3
AM_ISO$0
100
AcDbAlignedDimension
 13
61.24322819134135
 23
167.8598487869907
 33
0.0
 14
55.74322819134136
 24
164.3598487869907
 34
0.0
 50
90.0
100
AcDbRotatedDimension
1001
ACAD_DSTYLE_DIMINSPECT
1070
   396
1000
100%
1070
   395
1000

1070
   394
1070
    33
1070
   393
1070
     0
1001
ACAD
1000
DSTYLE
1002
{
1070
   174
1070
     1
1002
}
  0
DIMENSION
  5
19C3
102
{ACAD_XDICTIONARY
360
19D0
102
}
102
{ACAD_REACTORS
330
19D1
102
}
330
1F
100
AcDbEntity
  8
AM_5
100
AcDbDimension
  2
*D44
 10
43.74322819134136
 20
114.3598487869907
 30
0.0
 11
40.49322819134134
 21
139.3598487869907
 31
0.0
 70
    32
 71
     5
 42
49.99999999999999
  3
AM_ISO$0
100
AcDbAlignedDimension
 13
55.74322819134136
 23
164.3598487869907
 33
0.0
 14
67.99322819134136
 24
114.3598487869907
 34
0.0
 50
90.0
100
AcDbRotatedDimension
1001
ACAD
1000
DSTYLE
1002
{
1070
   174
1070
     1
1002
}
1001
ACAD_DSTYLE_DIMINSPECT
1070
   396
1000
100%
1070
   395
1000

1070
   394
1070
    33
1070
   393
1070
     0
  0
DIMENSION
  5
19E4
102
{ACAD_XDICTIONARY
360
19F1
102
}
102
{ACAD_REACTORS
330
19F2
102
}
330
1F
100
AcDbEntity
  8
AM_5
100
AcDbDimension
  2
*D45
 10
33.74322819134135
 20
109.1598487869908
 30
0.0
 11
30.49322819134133
 21
138.5098487869907
 31
0.0
 70
    32
 71
     5
 42
58.69999999999992
  3
AM_ISO$0
100
AcDbAlignedDimension
 13
61.24322819134135
 23
167.8598487869907
 33
0.0
 14
73.49322819134136
 24
109.1598487869908
 34
0.0
 50
90.0
100
AcDbRotatedDimension
1001
ACAD_DSTYLE_DIMINSPECT
1070
   396
1000
100%
1070
   395
1000

1070
   394
1070
    33
1070
   393
1070
     0
  0
DIMENSION
  5
1A0E
102
{ACAD_XDICTIONARY
360
1A1B
102
}
102
{ACAD_REACTORS
330
1A1C
102
}
330
1F
100
AcDbEntity
  8
AM_5
100
AcDbDimension
  2
*D46
 10
105.9932281913414
 20
156.0598487869907
 30
0.0
 11
102.7432281913413
 21
161.9598487869907
 31
0.0
 70
    32
 71
     5
 42
11.80000000000001
  3
AM_ISO$0
100
AcDbAlignedDimension
 13
85.74322819134136
 23
167.8598487869907
 33
0.0
 14
93.99322819134136
 24
156.0598487869907
 34
0.0
 50
90.0
100
AcDbRotatedDimension
1001
ACAD_DSTYLE_DIMINSPECT
1070
   396
1000
100%
1070
   395
1000

1070
   394
1070
    33
1070
   393
1070
     0
1001
ACAD
1000
DSTYLE
1002
{
1070
   174
1070
     1
1002
}
  0
DIMENSION
  5
1A38
102
{ACAD_XDICTIONARY
360
1A45
102
}
102
{ACAD_REACTORS
330
1A46
102
}
330
1F
100
AcDbEntity
  8
AM_5
100
AcDbDimension
  2
*D47
 10
105.9932281913414
 20
156.0598487869907
 30
0.0
 11
102.7432281913413
 21
140.4098487869907
 31
0.0
 70
    32
 71
     5
 42
31.3
  3
AM_ISO$0
100
AcDbAlignedDimension
 13
81.49322819134136
 23
124.7598487869907
 33
0.0
 14
93.99322819134134
 24
156.0598487869907
 34
0.0
 50
90.0
100
AcDbRotatedDimension
1001
ACAD
1000
DSTYLE
1002
{
1070
   174
1070
     1
1002
}
1001
ACAD_DSTYLE_DIMINSPECT
1070
   396
1000
100%
1070
   395
1000

1070
   394
1070
    33
1070
   393
1070
     0
  0
DIMENSION
  5
1A59
102
{ACAD_XDICTIONARY
360
1A66
102
}
102
{ACAD_REACTORS
330
1A67
102
}
330
1F
100
AcDbEntity
  8
AM_5
100
AcDbDimension
  2
*D48
 10
105.9932281913414
 20
124.7598487869907
 30
0.0
 11
102.7432281913413
 21
116.9598487869907
 31
0.0
 70
    32
 71
     5
 42
15.59999999999992
  3
AM_ISO$0
100
AcDbAlignedDimension
 13
73.49322819134136
 23
109.1598487869908
 33
0.0
 14
81.49322819134136
 24
124.7598487869907
 34
0.0
 50
90.0
100
AcDbRotatedDimension
1001
ACAD
1000
DSTYLE
1002
{
1070
   174
1070
     1
1002
}
1001
ACAD_DSTYLE_DIMINSPECT
1070
   396
1000
100%
1070
   395
1000

1070
   394
1070
    33
1070
   393
1070
     0
  0
DIMENSION
  5
1AC7
102
{ACAD_XDICTIONARY
360
1AD3
102
}
102
{ACAD_REACTORS
330
1AD4
102
}
330
1F
100
AcDbEntity
  8
AM_5
100
AcDbDimension
  2
*D50
 10
71.80707980976056
 20
123.6842542373148
 30
0.0
 11
93.23418689000851
 21
133.270050273698
 31
0.0
 70
   163
  1
3-<>
 71
     5
 42
4.0
  3
AM_ISO$3
100
AcDbDiametricDimension
 15
75.17937657292214
 25
125.8354433366666
 35
0.0
 40
0.0
1001
ACAD_DSTYLE_DIMRADIAL_EXTENSION
1070
   387
1070
     1
1070
   388
1040
0.0
1070
   390
1040
0.0
1001
ACAD_DSTYLE_DIMINSPECT
1070
   396
1000
100%
1070
   395
1000

1070
   394
1070
    33
1070
   393
1070
     0
  0
DIMENSION
  5
1AF3
102
{ACAD_XDICTIONARY
360
1AFF
102
}
102
{ACAD_REACTORS
330
1B00
102
}
330
1F
100
AcDbEntity
  8
AM_5
100
AcDbDimension
  2
*D51
 10
77.32057526597869
 20
121.5424873882255
 30
0.0
 11
53.76140310982421
 21
137.4368408449406
 31
0.0
 70
   163
 71
     5
 42
9.999999999999921
  3
AM_ISO$3
100
AcDbDiametricDimension
 15
69.66588111670394
 25
127.9772101857559
 35
0.0
 40
0.0
1001
ACAD_DSTYLE_DIMINSPECT
1070
   396
1000
100%
1070
   395
1000

1070
   394
1070
    33
1070
   393
1070
     0
1001
ACAD_DSTYLE_DIMRADIAL_EXTENSION
1070
   387
1070
     1
1070
   388
1040
0.0
1070
   390
1040
0.0
  0
DIMENSION
  5
1B13
102
{ACAD_XDICTIONARY
360
1B22
102
}
102
{ACAD_REACTORS
330
1B23
102
}
330
1F
100
AcDbEntity
  8
AM_5
100
AcDbDimension
  2
*D52
 10
139.0585730776868
 20
179.8598497869952
 30
0.0
 11
155.9071951249309
 21
179.8598497869952
 31
0.0
 70
   160
  1
(<>)
 71
     5
 42
6.5
  3
AM_ISO$0
100
AcDbAlignedDimension
 13
145.5585730776868
 23
164.4598487870286
 33
0.0
 14
139.0585730776868
 24
164.5598487869952
 34
0.0
100
AcDbRotatedDimension
1001
ACAD_DSTYLE_DIMINSPECT
1070
   396
1000
100%
1070
   395
1000

1070
   394
1070
    33
1070
   393
1070
     0
  0
DIMENSION
  5
1B71
102
{ACAD_XDICTIONARY
360
1B80
102
}
102
{ACAD_REACTORS
330
1B81
102
}
330
1F
100
AcDbEntity
  8
AM_5
100
AcDbDimension
  2
*D53
 10
145.5585730776868
 20
189.8598497869906
 30
0.0
 11
141.5585730776868
 21
193.2848497869906
 31
0.0
 70
    32
  1
(<>)
 71
     5
 42
8.0
  3
AM_ISO$0
100
AcDbAlignedDimension
 13
137.5585730776868
 23
120.1598487869908
 33
0.0
 14
145.5585730776868
 24
164.4598487870241
 34
0.0
100
AcDbRotatedDimension
1001
ACAD_DSTYLE_DIMINSPECT
1070
   396
1000
100%
1070
   395
1000

1070
   394
1070
    33
1070
   393
1070
     0
  0
DIMENSION
  5
1BED
102
{ACAD_XDICTIONARY
360
1BF6
102
}
102
{ACAD_REACTORS
330
1BF7
102
}
330
1F
100
AcDbEntity
  8
AM_5
100
AcDbDimension
  2
*D54
 10
73.49322819134136
 20
122.1598487869907
 30
0.0
 11
51.76362795901651
 21
99.74158820788497
 31
0.0
 70
   164
 71
     5
 42
13.0
  3
AM_ISO$4
100
AcDbRadialDimension
 15
65.58513141167529
 25
111.8418060790235
 35
0.0
 40
0.0
1001
ACAD_DSTYLE_DIMINSPECT
1070
   396
1000
100%
1070
   395
1000

1070
   394
1070
    33
1070
   393
1070
     0
1001
ACAD_DSTYLE_DIMRADIAL_EXTENSION
1070
   387
1070
     1
1070
   388
1040
3.482930425789177
1070
   390
1040
5.941847534980201
  0
ARC
  5
1C5A
330
1F
100
AcDbEntity
  8
ﾍﾞﾙﾄｸﾘｯﾌﾟ0
100
AcDbCircle
 10
68.49322819134136
 20
120.8598487869907
 30
0.0
 40
6.5
100
AcDbArc
 50
180.0
 51
270.0
1001
GENIUS_GENOBJ-N-FIL_13
1002
{
1000
OWNER
1000
GEN
1002
}
1001
GENIUS_GENODEF_13
1002
{
1000
HIER
1070
     0
1002
}
1002
{
1000
MANEDIT
1070
     0
1002
}
1002
{
1000
NOSEL
1070
     0
1002
}
1002
{
1000
BEHIND
1070
     0
1002
}
1002
{
1000
OTHER
1070
     0
1002
}
1002
{
1000
REACTOR
1002
}
  0
ARC
  5
1C5B
102
{ACAD_REACTORS
330
1C78
102
}
330
1F
100
AcDbEntity
  8
ﾍﾞﾙﾄｸﾘｯﾌﾟ0
100
AcDbCircle
 10
78.49322819134133
 20
120.8598487869907
 30
0.0
 40
6.5
100
AcDbArc
 50
270.0
 51
359.9999999999998
1001
GENIUS_GENODEF_13
1002
{
1000
HIER
1070
     0
1002
}
1002
{
1000
MANEDIT
1070
     0
1002
}
1002
{
1000
NOSEL
1070
     0
1002
}
1002
{
1000
BEHIND
1070
     0
1002
}
1002
{
1000
OTHER
1070
     0
1002
}
1002
{
1000
REACTOR
1002
}
1001
GENIUS_GENOBJ-N-FIL_13
1002
{
1000
OWNER
1000
GEN
1002
}
  0
DIMENSION
  5
1C6E
102
{ACAD_XDICTIONARY
360
1C77
102
}
102
{ACAD_REACTORS
330
1C78
102
}
330
1F
100
AcDbEntity
  8
AM_5
100
AcDbDimension
  2
*D56
 10
78.49322819134133
 20
120.8598487869907
 30
0.0
 11
99.02352728662487
 21
100.6713979711921
 31
0.0
 70
   164
  1
2-<>
 71
     5
 42
6.500000000000028
  3
AM_ISO$4
100
AcDbRadialDimension
 15
81.93735553487803
 25
115.3473188014483
 35
0.0
 40
0.0
1001
ACAD_DSTYLE_DIMINSPECT
1070
   396
1000
100%
1070
   395
1000

1070
   394
1070
    33
1070
   393
1070
     0
1001
ACAD_DSTYLE_DIMRADIAL_EXTENSION
1070
   387
1070
     1
1070
   388
1040
4.712388980384689
1070
   390
1040
6.283185307179582
  0
DIMENSION
  5
1C95
102
{ACAD_XDICTIONARY
360
1C9E
102
}
102
{ACAD_REACTORS
330
1C9F
102
}
330
1F
100
AcDbEntity
  8
AM_5
100
AcDbDimension
  2
*D57
 10
55.74322819134133
 20
162.3598487869906
 30
0.0
 11
39.78799213238931
 21
184.2978940646815
 31
0.0
 70
   164
  1
2-<>
 71
     5
 42
2.000000000000056
  3
AM_ISO$4
100
AcDbRadialDimension
 15
54.93057207593508
 25
164.1873033112109
 35
0.0
 40
0.0
1001
ACAD_DSTYLE_DIMINSPECT
1070
   396
1000
100%
1070
   395
1000

1070
   394
1070
    33
1070
   393
1070
     0
1001
ACAD_DSTYLE_DIMRADIAL_EXTENSION
1070
   387
1070
     1
1070
   388
1040
1.570796326794896
1070
   390
1040
3.141592653589793
  0
VIEWPORT
  5
17C
102
{ACAD_XDICTIONARY
360
1DDE
102
}
330
23
100
AcDbEntity
 67
     1
  8
0
100
AcDbViewport
 10
133.3499908447265
 20
101.5999970436096
 30
0.0
 40
370.2266912936524
 41
228.4221935424805
 68
     1
 69
     1
 12
133.3499908447265
 22
101.5999970436096
 13
0.0
 23
0.0
 14
10.0
 24
10.0
 15
10.0
 25
10.0
 16
0.0
 26
0.0
 36
1.0
 17
0.0
 27
0.0
 37
0.0
 42
50.0
 43
0.0
 44
0.0
 45
228.4221935424805
 50
0.0
 51
0.0
 72
   100
 90
    32800
  1

281
     0
 71
     1
 74
     0
110
0.0
120
0.0
130
0.0
111
1.0
121
0.0
131
0.0
112
0.0
122
1.0
132
0.0
 79
     0
146
0.0
  0
ENDSEC
  0
SECTION
  2
OBJECTS
  0
DICTIONARY
  5
C
330
0
100
AcDbDictionary
281
     1
  3
ACAD_COLOR
350
BE
  3
ACAD_GROUP
350
D
  3
ACAD_LAYOUT
350
1A
  3
ACAD_MATERIAL
350
BD
  3
ACAD_MLEADERSTYLE
350
C15
  3
ACAD_MLINESTYLE
350
17
  3
ACAD_PLOTSETTINGS
350
19
  3
ACAD_PLOTSTYLENAME
350
E
  3
ACAD_SCALELIST
350
C03
  3
ACAD_TABLESTYLE
350
C01
  3
ACAD_VISUALSTYLE
350
BE8
  3
ACDB_RECOMPOSE_DATA
350
1DD5
  3
AcDbVariableDictionary
350
94
  3
AcmDictionary
350
5B
  3
AMG
350
41
  3
AMGSNAPSETTINGS
350
220
  3
DWGPROPS
350
1DD6
  0
DICTIONARY
  5
35D
330
2
100
AcDbDictionary
280
     1
281
     1
  3
ACAD_LAYERFILTERS
360
451
  3
ACAD_LAYERSTATES
360
35E
  3
AMLAYER_GROUPCOLORS
360
4A4
  0
DICTIONARY
  5
C3C
330
10
100
AcDbDictionary
280
     1
281
     1
  3
ADSK_XREC_LAYER_RECONCILED
360
C3D
  0
DICTIONARY
  5
C3E
330
206
100
AcDbDictionary
280
     1
281
     1
  3
ADSK_XREC_LAYER_RECONCILED
360
C3F
  0
DICTIONARY
  5
C40
330
22C
100
AcDbDictionary
280
     1
281
     1
  3
ADSK_XREC_LAYER_RECONCILED
360
C41
  0
DICTIONARY
  5
C42
330
307
100
AcDbDictionary
280
     1
281
     1
  3
ADSK_XREC_LAYER_RECONCILED
360
C43
  0
DICTIONARY
  5
C44
330
A1F
100
AcDbDictionary
280
     1
281
     1
  3
ADSK_XREC_LAYER_RECONCILED
360
C45
  0
DICTIONARY
  5
C46
330
A20
100
AcDbDictionary
280
     1
281
     1
  3
ADSK_XREC_LAYER_RECONCILED
360
C47
  0
DICTIONARY
  5
8F
330
1F
100
AcDbDictionary
280
     1
281
     1
  3
ACAD_SORTENTS
360
D98
  0
DICTIONARY
  5
8C2
330
8B9
100
AcDbDictionary
280
     1
281
     1
  0
DICTIONARY
  5
923
330
8CE
100
AcDbDictionary
280
     1
281
     1
  0
DICTIONARY
  5
A07
330
9FB
100
AcDbDictionary
280
     1
281
     1
  0
DICTIONARY
  5
C59
330
C51
100
AcDbDictionary
280
     1
281
     1
  0
DICTIONARY
  5
CBA
330
C61
100
AcDbDictionary
280
     1
281
     1
  0
DICTIONARY
  5
12AD
330
1284
100
AcDbDictionary
280
     1
281
     1
  3
ACAD_SORTENTS
360
12AE
  0
DICTIONARY
  5
1DDC
330
178
100
AcDbDictionary
280
     1
281
     1
  3
ACAD_XREC_ROUNDTRIP
360
1DDD
  0
DICTIONARY
  5
1E15
330
1D67
100
AcDbDictionary
280
     1
281
     1
  3
ACAD_MTEXT_RT
360
1E16
  0
DICTIONARY
  5
1E17
330
1D82
100
AcDbDictionary
280
     1
281
     1
  3
ACAD_MTEXT_RT
360
1E18
  0
DICTIONARY
  5
188E
330
187F
100
AcDbDictionary
280
     1
281
     1
  3
ACAD_DIMASSOC
360
188F
  0
DICTIONARY
  5
18DD
330
18D0
100
AcDbDictionary
280
     1
281
     1
  3
ACAD_DIMASSOC
360
18DE
  0
DICTIONARY
  5
18FE
330
18F1
100
AcDbDictionary
280
     1
281
     1
  3
ACAD_DIMASSOC
360
18FF
  0
DICTIONARY
  5
191F
330
1912
100
AcDbDictionary
280
     1
281
     1
  3
ACAD_DIMASSOC
360
1920
  0
DICTIONARY
  5
1995
330
1986
100
AcDbDictionary
280
     1
281
     1
  3
ACAD_DIMASSOC
360
1996
  0
DICTIONARY
  5
19D0
330
19C3
100
AcDbDictionary
280
     1
281
     1
  3
ACAD_DIMASSOC
360
19D1
  0
DICTIONARY
  5
19F1
330
19E4
100
AcDbDictionary
280
     1
281
     1
  3
ACAD_DIMASSOC
360
19F2
  0
DICTIONARY
  5
1A1B
330
1A0E
100
AcDbDictionary
280
     1
281
     1
  3
ACAD_DIMASSOC
360
1A1C
  0
DICTIONARY
  5
1A45
330
1A38
100
AcDbDictionary
280
     1
281
     1
  3
ACAD_DIMASSOC
360
1A46
  0
DICTIONARY
  5
1A66
330
1A59
100
AcDbDictionary
280
     1
281
     1
  3
ACAD_DIMASSOC
360
1A67
  0
DICTIONARY
  5
1AD3
330
1AC7
100
AcDbDictionary
280
     1
281
     1
  3
ACAD_DIMASSOC
360
1AD4
  0
DICTIONARY
  5
1AFF
330
1AF3
100
AcDbDictionary
280
     1
281
     1
  3
ACAD_DIMASSOC
360
1B00
  0
DICTIONARY
  5
1B22
330
1B13
100
AcDbDictionary
280
     1
281
     1
  3
ACAD_DIMASSOC
360
1B23
  0
DICTIONARY
  5
1B80
330
1B71
100
AcDbDictionary
280
     1
281
     1
  3
ACAD_DIMASSOC
360
1B81
  0
DICTIONARY
  5
1BF6
330
1BED
100
AcDbDictionary
280
     1
281
     1
  3
ACAD_DIMASSOC
360
1BF7
  0
DICTIONARY
  5
1C77
330
1C6E
100
AcDbDictionary
280
     1
281
     1
  3
ACAD_DIMASSOC
360
1C78
  0
DICTIONARY
  5
1C9E
330
1C95
100
AcDbDictionary
280
     1
281
     1
  3
ACAD_DIMASSOC
360
1C9F
  0
DICTIONARY
  5
1DDE
330
17C
100
AcDbDictionary
280
     1
281
     1
  3
ACAD_XREC_ROUNDTRIP
360
1DDF
  0
DICTIONARY
  5
BE
102
{ACAD_REACTORS
330
C
102
}
330
C
100
AcDbDictionary
281
     1
  0
DICTIONARY
  5
D
102
{ACAD_REACTORS
330
C
102
}
330
C
100
AcDbDictionary
281
     1
  0
DICTIONARY
  5
1A
102
{ACAD_REACTORS
330
C
102
}
330
C
100
AcDbDictionary
281
     1
  3
Model
350
22
  3
レイアウト1
350
1E
  3
レイアウト2
350
26
  0
DICTIONARY
  5
BD
102
{ACAD_REACTORS
330
C
102
}
330
C
100
AcDbDictionary
281
     1
  3
ByBlock
350
BD8
  3
ByLayer
350
BD0
  3
Global
350
BE0
  0
DICTIONARY
  5
C15
102
{ACAD_REACTORS
330
C
102
}
330
C
100
AcDbDictionary
281
     1
  3
Standard
350
C16
  0
DICTIONARY
  5
17
102
{ACAD_REACTORS
330
C
102
}
330
C
100
AcDbDictionary
281
     1
  3
Standard
350
18
  0
DICTIONARY
  5
19
102
{ACAD_REACTORS
330
C
102
}
330
C
100
AcDbDictionary
281
     1
  0
ACDBDICTIONARYWDFLT
  5
E
102
{ACAD_REACTORS
330
C
102
}
330
C
100
AcDbDictionary
281
     1
  3
Normal
350
F
100
AcDbDictionaryWithDefault
340
F
  0
DICTIONARY
  5
C03
102
{ACAD_REACTORS
330
C
102
}
330
C
100
AcDbDictionary
281
     1
  3
A0
350
C04
  3
A1
350
C05
  3
A2
350
C06
  3
A3
350
C07
  3
A4
350
C08
  3
A5
350
C09
  3
A6
350
C0A
  3
A7
350
C0B
  3
A8
350
C0C
  3
A9
350
C0D
  3
B0
350
C0E
  3
B1
350
C0F
  3
B2
350
C10
  3
B3
350
C11
  3
B4
350
C12
  3
B5
350
C13
  3
B6
350
C14
  0
DICTIONARY
  5
C01
102
{ACAD_REACTORS
330
C
102
}
330
C
100
AcDbDictionary
281
     1
  3
Standard
350
C02
  0
DICTIONARY
  5
BE8
102
{ACAD_REACTORS
330
C
102
}
330
C
100
AcDbDictionary
281
     1
  3
2dWireframe
350
BEE
  3
Basic
350
BED
  3
Brighten
350
BF4
  3
ColorChange
350
BF8
  3
Conceptual
350
BF1
  3
Dim
350
BF3
  3
EdgeColorOff
350
C00
  3
Facepattern
350
BF7
  3
Flat
350
BE9
  3
FlatWithEdges
350
BEA
  3
Gouraud
350
BEB
  3
GouraudWithEdges
350
BEC
  3
Hidden
350
BF0
  3
JitterOff
350
BFE
  3
Linepattern
350
BF6
  3
OverhangOff
350
BFF
  3
Realistic
350
BF2
  3
Shaded
350
BFD
  3
Shaded with edges
350
BFC
  3
Shades of Gray
350
BF9
  3
Sketchy
350
BFA
  3
Thicken
350
BF5
  3
Wireframe
350
BEF
  3
X-Ray
350
BFB
  0
XRECORD
  5
1DD5
102
{ACAD_REACTORS
330
C
102
}
330
C
100
AcDbXrecord
280
     1
 90
        1
330
C02
  0
DICTIONARY
  5
94
102
{ACAD_REACTORS
330
C
102
}
330
C
100
AcDbDictionary
281
     1
  3
CANNOSCALE
350
1371
  3
CMLEADERSTYLE
350
136F
  3
CTABLESTYLE
350
136E
  3
DIMASSOC
350
96
  3
INDEXCTL
350
95
  3
LAYEREVAL
350
1373
  3
LAYERNOTIFY
350
1374
  3
LIGHTINGUNITS
350
1372
  3
MSLTSCALE
350
1370
  3
SORTENTS
350
1DD1
  3
XCLIPFRAME
350
1DD2
  0
DICTIONARY
  5
5B
102
{ACAD_REACTORS
330
C
102
}
330
C
100
AcDbDictionary
281
     1
  3
AcmBOM
350
5AE
  3
AcmStdDictionary
350
61
  3
AMDTSECTSYM_ARROWCOLOR
350
C35
  0
DICTIONARY
  5
41
102
{ACAD_REACTORS
330
C
102
}
330
C
100
AcDbDictionary
281
     1
  0
DICTIONARY
  5
220
102
{ACAD_REACTORS
330
C
102
}
330
C
100
AcDbDictionary
281
     1
  0
XRECORD
  5
1DD6
102
{ACAD_REACTORS
330
C
102
}
330
C
100
AcDbXrecord
280
     1
  1
DWGPROPS COOKIE
  2

  3

  4

  6

  7

  8
TK100
  9

300
AmdtFileType=84
301
=
302
=
303
=
304
=
305
=
306
=
307
=
308
=
309
=
 40
0.1037044212962963
 41
2453343.614744642
 42
2456111.556975208
  1

 90
        1
  0
DICTIONARY
  5
451
102
{ACAD_REACTORS
330
35D
102
}
330
35D
100
AcDbDictionary
281
     1
  0
DICTIONARY
  5
35E
102
{ACAD_REACTORS
330
35D
102
}
330
35D
100
AcDbDictionary
281
     1
  3
takachi1
350
35F
  0
DICTIONARY
  5
4A4
102
{ACAD_REACTORS
330
35D
102
}
330
35D
100
AcDbDictionary
280
     1
281
     1
  0
XRECORD
  5
C3D
102
{ACAD_REACTORS
330
C3C
102
}
330
C3C
100
AcDbXrecord
280
     1
290
     1
  0
XRECORD
  5
C3F
102
{ACAD_REACTORS
330
C3E
102
}
330
C3E
100
AcDbXrecord
280
     1
290
     1
  0
XRECORD
  5
C41
102
{ACAD_REACTORS
330
C40
102
}
330
C40
100
AcDbXrecord
280
     1
290
     1
  0
XRECORD
  5
C43
102
{ACAD_REACTORS
330
C42
102
}
330
C42
100
AcDbXrecord
280
     1
290
     1
  0
XRECORD
  5
C45
102
{ACAD_REACTORS
330
C44
102
}
330
C44
100
AcDbXrecord
280
     1
290
     1
  0
XRECORD
  5
C47
102
{ACAD_REACTORS
330
C46
102
}
330
C46
100
AcDbXrecord
280
     1
290
     1
  0
SORTENTSTABLE
  5
D98
102
{ACAD_REACTORS
330
8F
102
}
330
8F
100
AcDbSortentsTable
330
1F
331
14CD
  5
14E2
331
1986
  5
1A0E
331
1785
  5
1746
331
14BE
  5
14D0
331
14D0
  5
14E8
331
1B13
  5
1C50
331
14C1
  5
14D4
331
A13
  5
14C8
331
19C3
  5
1A38
331
14E2
  5
1787
331
14D3
  5
1740
331
127F
  5
14CB
331
1800
  5
18A6
331
14D8
  5
1781
331
14C9
  5
14DD
331
1C5A
  5
14D7
331
1AF3
  5
1BED
331
19E4
  5
1A59
331
15AF
  5
17F9
331
14BA
  5
14CC
331
17FE
  5
1801
331
14E5
  5
17F7
331
14C7
  5
14DB
331
1781
  5
17BA
331
14DB
  5
1784
331
14CC
  5
14E1
331
15B2
  5
17FC
331
1784
  5
1786
331
14BD
  5
14CF
331
14CF
  5
14E5
331
1BED
  5
1C5B
331
1787
  5
17FE
331
14C0
  5
14D2
331
14D2
  5
1611
331
1A38
  5
1AF3
331
14C8
  5
14DC
331
187F
  5
18F1
331
15AE
  5
17F8
331
17FD
  5
1800
331
14E4
  5
17F5
331
14D5
  5
1743
331
1A0E
  5
1AC7
331
14C6
  5
14DA
331
1A59
  5
1B13
331
14DA
  5
1783
331
14CB
  5
14E0
331
1783
  5
17FD
331
15B1
  5
17FB
331
14BC
  5
14CE
331
14DD
  5
1785
331
14CE
  5
14E3
331
14BF
  5
14D1
331
1786
  5
14CD
331
A11
  5
14C7
331
18D0
  5
1986
331
14D1
  5
15B2
331
18A6
  5
1912
331
14C2
  5
14D8
331
1273
  5
14CA
331
1B71
  5
1C5A
331
18F1
  5
19C3
331
17FC
  5
17FF
331
14D4
  5
1741
331
14C5
  5
14D9
331
1801
  5
18D0
331
1912
  5
19E4
331
14D9
  5
1782
331
14CA
  5
14DF
331
1AC7
  5
1B71
331
15B0
  5
17FA
331
1C5B
  5
14D3
331
17FF
  5
187F
331
1782
  5
17F6
331
14D7
  5
1747
331
1242
  5
14C9
  0
SORTENTSTABLE
  5
12AE
102
{ACAD_REACTORS
330
12AD
102
}
330
12AD
100
AcDbSortentsTable
330
1284
331
12A2
  5
12A4
331
12A4
  5
12A2
  0
XRECORD
  5
1DDD
102
{ACAD_REACTORS
330
1DDC
102
}
330
1DDC
100
AcDbXrecord
280
     1
102
SHADEPLOT
 70
     0
  0
XRECORD
  5
1E16
102
{ACAD_REACTORS
330
1E15
102
}
330
1E15
100
AcDbXrecord
280
     1
 40
3003.0
  1
3-\U+22054
  0
XRECORD
  5
1E18
102
{ACAD_REACTORS
330
1E17
102
}
330
1E17
100
AcDbXrecord
280
     1
 40
2324.0
  1
\U+220510
  0
DIMASSOC
  5
188F
102
{ACAD_REACTORS
330
188E
102
}
330
188E
100
AcDbDimAssoc
330
187F
 90
        3
 70
     0
 71
     0
  1
AcDbOsnapPointRef
 72
     1
331
14D9
 73
     0
 91
        0
 40
0.0
 10
0.0
 20
0.0
 30
2.000000000000000E+50
 75
     0
  1
AcDbOsnapPointRef
 72
    13
331
14D9
 73
     0
 91
        0
 40
0.0
 10
0.0
 20
0.0
 30
2.000000000000000E+50
 75
     0
  0
DIMASSOC
  5
18DE
102
{ACAD_REACTORS
330
18DD
102
}
330
18DD
100
AcDbDimAssoc
330
18D0
 90
        3
 70
     0
 71
     0
  1
AcDbOsnapPointRef
 72
     1
331
14C9
 73
     0
 91
        0
 40
0.0
 10
0.0
 20
0.0
 30
2.000000000000000E+50
 75
     0
  1
AcDbOsnapPointRef
 72
    13
331
14C8
 73
     0
 91
        0
 40
0.0
 10
0.0
 20
0.0
 30
2.000000000000000E+50
 75
     0
  0
DIMASSOC
  5
18FF
102
{ACAD_REACTORS
330
18FE
102
}
330
18FE
100
AcDbDimAssoc
330
18F1
 90
        3
 70
     0
 71
     0
  1
AcDbOsnapPointRef
 72
    13
331
15AF
 73
     0
 91
        0
 40
0.0
 10
0.0
 20
0.0
 30
2.000000000000000E+50
 75
     0
  1
AcDbOsnapPointRef
 72
     8
331
15B0
 73
     0
 91
        0
 40
0.0
 10
0.0
 20
0.0
 30
0.0
 75
     1
  1
AcDbOsnapPointRef
 72
    13
331
15AF
 73
     0
 91
        0
 40
0.0
 10
0.0
 20
0.0
 30
2.000000000000000E+50
 75
     0
  0
DIMASSOC
  5
1920
102
{ACAD_REACTORS
330
191F
102
}
330
191F
100
AcDbDimAssoc
330
1912
 90
        3
 70
     0
 71
     0
  1
AcDbOsnapPointRef
 72
     1
331
14D1
 73
     0
 91
        0
 40
0.0
 10
0.0
 20
0.0
 30
2.000000000000000E+50
 75
     0
  1
AcDbOsnapPointRef
 72
    13
331
14D2
 73
     0
 91
        0
 40
0.0
 10
0.0
 20
0.0
 30
2.000000000000000E+50
 75
     0
  0
DIMASSOC
  5
1996
102
{ACAD_REACTORS
330
1995
102
}
330
1995
100
AcDbDimAssoc
330
1986
 90
        3
 70
     0
 71
     0
  1
AcDbOsnapPointRef
 72
     1
331
14C9
 73
     0
 91
        0
 40
0.0
 10
0.0
 20
0.0
 30
2.000000000000000E+50
 75
     0
  1
AcDbOsnapPointRef
 72
    13
331
14D1
 73
     0
 91
        0
 40
0.0
 10
0.0
 20
0.0
 30
2.000000000000000E+50
 75
     0
  0
DIMASSOC
  5
19D1
102
{ACAD_REACTORS
330
19D0
102
}
330
19D0
100
AcDbDimAssoc
330
19C3
 90
        1
 70
     0
 71
     0
  1
AcDbOsnapPointRef
 72
    13
331
14D1
 73
     0
 91
        0
 40
0.0
 10
0.0
 20
0.0
 30
2.000000000000000E+50
 75
     0
  0
DIMASSOC
  5
19F2
102
{ACAD_REACTORS
330
19F1
102
}
330
19F1
100
AcDbDimAssoc
330
19E4
 90
        3
 70
     0
 71
     0
  1
AcDbOsnapPointRef
 72
     1
331
14C9
 73
     0
 91
        0
 40
0.0
 10
0.0
 20
0.0
 30
2.000000000000000E+50
 75
     0
  1
AcDbOsnapPointRef
 72
     2
331
14BF
 73
     0
 91
        0
 40
0.0
 10
0.0
 20
0.0
 30
0.0
 75
     0
  0
DIMASSOC
  5
1A1C
102
{ACAD_REACTORS
330
1A1B
102
}
330
1A1B
100
AcDbDimAssoc
330
1A0E
 90
        3
 70
     0
 71
     0
  1
AcDbOsnapPointRef
 72
    13
331
14C8
 73
     0
 91
        0
 40
0.0
 10
0.0
 20
0.0
 30
2.000000000000000E+50
 75
     0
  1
AcDbOsnapPointRef
 72
     1
331
15B1
 73
     0
 91
        0
 40
0.0
 10
0.0
 20
0.0
 30
2.000000000000000E+50
 75
     0
  0
DIMASSOC
  5
1A46
102
{ACAD_REACTORS
330
1A45
102
}
330
1A45
100
AcDbDimAssoc
330
1A38
 90
        3
 70
     0
 71
     0
  1
AcDbOsnapPointRef
 72
     1
331
15B2
 73
     0
 91
        0
 40
0.0
 10
0.0
 20
0.0
 30
2.000000000000000E+50
 75
     0
  1
AcDbOsnapPointRef
 72
     1
331
15B1
 73
     0
 91
        0
 40
0.0
 10
0.0
 20
0.0
 30
2.000000000000000E+50
 75
     0
  0
DIMASSOC
  5
1A67
102
{ACAD_REACTORS
330
1A66
102
}
330
1A66
100
AcDbDimAssoc
330
1A59
 90
        3
 70
     0
 71
     0
  1
AcDbOsnapPointRef
 72
     2
331
14BF
 73
     0
 91
        0
 40
0.0
 10
0.0
 20
0.0
 30
0.0
 75
     0
  1
AcDbOsnapPointRef
 72
     1
331
15B2
 73
     0
 91
        0
 40
0.0
 10
0.0
 20
0.0
 30
2.000000000000000E+50
 75
     0
  0
DIMASSOC
  5
1AD4
102
{ACAD_REACTORS
330
1AD3
102
}
330
1AD3
100
AcDbDimAssoc
330
1AC7
 90
        2
 70
     0
 71
     0
  1
AcDbOsnapPointRef
 72
     3
331
14BE
 73
     2
 91
        0
 40
0.0
 10
0.0
 20
0.0
 30
0.0
 75
     0
  0
DIMASSOC
  5
1B00
102
{ACAD_REACTORS
330
1AFF
102
}
330
1AFF
100
AcDbDimAssoc
330
1AF3
 90
        2
 70
     0
 71
     0
  1
AcDbOsnapPointRef
 72
     3
331
14CE
 73
     2
 91
        0
 40
0.0
 10
0.0
 20
0.0
 30
0.0
 75
     0
  0
DIMASSOC
  5
1B23
102
{ACAD_REACTORS
330
1B22
102
}
330
1B22
100
AcDbDimAssoc
330
1B13
 90
        3
 70
     0
 71
     0
  1
AcDbOsnapPointRef
 72
     6
331
14DB
 73
     0
 91
        0
 40
1.0
 10
0.0
 20
0.0
 30
0.0
332
14E2
 74
     0
 92
        0
 75
     0
  1
AcDbOsnapPointRef
 72
    13
331
14DD
 73
     0
 91
        0
 40
0.0
 10
0.0
 20
0.0
 30
2.000000000000000E+50
 75
     0
  0
DIMASSOC
  5
1B81
102
{ACAD_REACTORS
330
1B80
102
}
330
1B80
100
AcDbDimAssoc
330
1B71
 90
        3
 70
     0
 71
     0
  1
AcDbOsnapPointRef
 72
     5
331
14BA
 73
     0
 91
        0
 40
3.141592653589793
 10
0.0
 20
0.0
 30
0.0
 75
     0
  1
AcDbOsnapPointRef
 72
     6
331
14DB
 73
     0
 91
        0
 40
1.0
 10
0.0
 20
0.0
 30
0.0
332
14E2
 74
     0
 92
        0
 75
     0
  0
DIMASSOC
  5
1BF7
102
{ACAD_REACTORS
330
1BF6
102
}
330
1BF6
100
AcDbDimAssoc
330
1BED
 90
        2
 70
     0
 71
     0
  1
AcDbOsnapPointRef
 72
     3
331
14BF
 73
     2
 91
        0
 40
0.0
 10
0.0
 20
0.0
 30
0.0
 75
     0
  0
DIMASSOC
  5
1C78
102
{ACAD_REACTORS
330
1C77
102
}
330
1C77
100
AcDbDimAssoc
330
1C6E
 90
        2
 70
     0
 71
     0
  1
AcDbOsnapPointRef
 72
     3
331
1C5B
 73
     2
 91
        0
 40
0.0
 10
0.0
 20
0.0
 30
0.0
 75
     0
  0
DIMASSOC
  5
1C9F
102
{ACAD_REACTORS
330
1C9E
102
}
330
1C9E
100
AcDbDimAssoc
330
1C95
 90
        2
 70
     0
 71
     0
  1
AcDbOsnapPointRef
 72
     3
331
14D1
 73
     2
 91
        0
 40
0.0
 10
0.0
 20
0.0
 30
0.0
 75
     0
  0
XRECORD
  5
1DDF
102
{ACAD_REACTORS
330
1DDE
102
}
330
1DDE
100
AcDbXrecord
280
     1
102
SHADEPLOT
 70
     0
  0
LAYOUT
  5
22
102
{ACAD_XDICTIONARY
360
1355
102
}
102
{ACAD_REACTORS
330
1A
102
}
330
1A
100
AcDbPlotSettings
  1

  2
RICOH IPSiO CX7200 RPCS
  4
A4
  6
AM_VIEW1
 40
5.873749732971191
 41
5.873748779296875
 42
5.873733520507812
 43
5.873748779296875
 44
209.9733276367187
 45
296.9259948730469
 46
2.612922191619873
 47
2.589248657226562
 48
0.0
 49
0.0
140
193.0
141
280.0
142
1.0
143
1.0
 70
 11940
 72
     1
 73
     0
 74
     4
  7
takachi-2.ctb
 75
     0
147
1.018494633265903
148
0.0
149
0.0
100
AcDbLayout
  1
Model
 70
     1
 71
     0
 10
0.0
 20
0.0
 11
12.0
 21
9.0
 12
0.0
 22
0.0
 32
0.0
 14
0.0
 24
0.0
 34
0.0
 15
0.0
 25
0.0
 35
0.0
146
0.0
 13
0.0
 23
0.0
 33
0.0
 16
1.0
 26
0.0
 36
0.0
 17
0.0
 27
1.0
 37
0.0
 76
     0
330
1F
331
BCE
1001
ACAD_PSEXT
1000
RICOH IPSiO CX7200 RPCS
1000
RICOH IPSiO CX7200 RPCS
1000
192.168.1.228
1000
RPCS Driver (Windows XP/2003/2008/Vista/7 64-bit)
1070
     0
  0
LAYOUT
  5
1E
102
{ACAD_XDICTIONARY
360
1DD7
102
}
102
{ACAD_REACTORS
330
1A
102
}
330
1A
100
AcDbPlotSettings
  1

  2
none_device
  4
Letter_(8.50_x_11.00_Inches)
  6

 40
6.349999904632568
 41
6.349999904632568
 42
6.350006103515625
 43
6.350006103515625
 44
215.8999938964844
 45
279.3999938964844
 46
0.0
 47
0.0
 48
0.0
 49
0.0
140
0.0
141
0.0
142
1.0
143
1.0
 70
   688
 72
     1
 73
     1
 74
     5
  7
takachi-2.ctb
 75
    16
147
1.0
148
0.0
149
0.0
100
AcDbLayout
  1
レイアウト1
 70
     1
 71
     1
 10
-6.350006103515625
 20
-6.349999904632568
 11
273.0499877929688
 21
209.5499939918518
 12
0.0
 22
0.0
 32
0.0
 14
1.000000000000000E+20
 24
1.000000000000000E+20
 34
1.000000000000000E+20
 15
-1.000000000000000E+20
 25
-1.000000000000000E+20
 35
-1.000000000000000E+20
146
0.0
 13
0.0
 23
0.0
 33
0.0
 16
1.0
 26
0.0
 36
0.0
 17
0.0
 27
1.0
 37
0.0
 76
     0
330
1B
331
178
  0
LAYOUT
  5
26
102
{ACAD_XDICTIONARY
360
1DDA
102
}
102
{ACAD_REACTORS
330
1A
102
}
330
1A
100
AcDbPlotSettings
  1

  2
none_device
  4
Letter_(8.50_x_11.00_Inches)
  6

 40
6.349999904632568
 41
6.349999904632568
 42
6.350006103515625
 43
6.350006103515625
 44
215.8999938964844
 45
279.3999938964844
 46
0.0
 47
0.0
 48
0.0
 49
0.0
140
0.0
141
0.0
142
1.0
143
1.0
 70
   688
 72
     1
 73
     1
 74
     5
  7
takachi-2.ctb
 75
    16
147
1.0
148
0.0
149
0.0
100
AcDbLayout
  1
レイアウト2
 70
     1
 71
     2
 10
-6.350006103515625
 20
-6.349999904632568
 11
273.0499877929688
 21
209.5499939918518
 12
0.0
 22
0.0
 32
0.0
 14
1.000000000000000E+20
 24
1.000000000000000E+20
 34
1.000000000000000E+20
 15
-1.000000000000000E+20
 25
-1.000000000000000E+20
 35
-1.000000000000000E+20
146
0.0
 13
0.0
 23
0.0
 33
0.0
 16
1.0
 26
0.0
 36
0.0
 17
0.0
 27
1.0
 37
0.0
 76
     0
330
23
331
17C
  0
MATERIAL
  5
BD8
102
{ACAD_XDICTIONARY
360
BD9
102
}
102
{ACAD_REACTORS
330
BD
102
}
330
BD
100
AcDbMaterial
  1
ByBlock
 72
     0
 43
0.0008202099737533
 43
0.0
 43
0.0
 43
0.0
 43
0.0
 43
0.0008202099737533
 43
0.0
 43
0.0
 43
0.0
 43
0.0
 43
1.0
 43
0.0
 43
0.0
 43
0.0
 43
0.0
 43
1.0
 77
     0
 47
0.0008202099737533
 47
0.0
 47
0.0
 47
0.0
 47
0.0
 47
0.0008202099737533
 47
0.0
 47
0.0
 47
0.0
 47
0.0
 47
1.0
 47
0.0
 47
0.0
 47
0.0
 47
0.0
 47
1.0
171
     0
 49
0.0008202099737533
 49
0.0
 49
0.0
 49
0.0
 49
0.0
 49
0.0008202099737533
 49
0.0
 49
0.0
 49
0.0
 49
0.0
 49
1.0
 49
0.0
 49
0.0
 49
0.0
 49
0.0
 49
1.0
175
     0
142
0.0008202099737533
142
0.0
142
0.0
142
0.0
142
0.0
142
0.0008202099737533
142
0.0
142
0.0
142
0.0
142
0.0
142
1.0
142
0.0
142
0.0
142
0.0
142
0.0
142
1.0
179
     0
144
0.0008202099737533
144
0.0
144
0.0
144
0.0
144
0.0
144
0.0008202099737533
144
0.0
144
0.0
144
0.0
144
0.0
144
1.0
144
0.0
144
0.0
144
0.0
144
0.0
144
1.0
147
0.0008202099737533
147
0.0
147
0.0
147
0.0
147
0.0
147
0.0008202099737533
147
0.0
147
0.0
147
0.0
147
0.0
147
1.0
147
0.0
147
0.0
147
0.0
147
0.0
147
1.0
  0
MATERIAL
  5
BD0
102
{ACAD_XDICTIONARY
360
BD1
102
}
102
{ACAD_REACTORS
330
BD
102
}
330
BD
100
AcDbMaterial
  1
ByLayer
 72
     0
 43
0.0008202099737533
 43
0.0
 43
0.0
 43
0.0
 43
0.0
 43
0.0008202099737533
 43
0.0
 43
0.0
 43
0.0
 43
0.0
 43
1.0
 43
0.0
 43
0.0
 43
0.0
 43
0.0
 43
1.0
 77
     0
 47
0.0008202099737533
 47
0.0
 47
0.0
 47
0.0
 47
0.0
 47
0.0008202099737533
 47
0.0
 47
0.0
 47
0.0
 47
0.0
 47
1.0
 47
0.0
 47
0.0
 47
0.0
 47
0.0
 47
1.0
171
     0
 49
0.0008202099737533
 49
0.0
 49
0.0
 49
0.0
 49
0.0
 49
0.0008202099737533
 49
0.0
 49
0.0
 49
0.0
 49
0.0
 49
1.0
 49
0.0
 49
0.0
 49
0.0
 49
0.0
 49
1.0
175
     0
142
0.0008202099737533
142
0.0
142
0.0
142
0.0
142
0.0
142
0.0008202099737533
142
0.0
142
0.0
142
0.0
142
0.0
142
1.0
142
0.0
142
0.0
142
0.0
142
0.0
142
1.0
179
     0
144
0.0008202099737533
144
0.0
144
0.0
144
0.0
144
0.0
144
0.0008202099737533
144
0.0
144
0.0
144
0.0
144
0.0
144
1.0
144
0.0
144
0.0
144
0.0
144
0.0
144
1.0
147
0.0008202099737533
147
0.0
147
0.0
147
0.0
147
0.0
147
0.0008202099737533
147
0.0
147
0.0
147
0.0
147
0.0
147
1.0
147
0.0
147
0.0
147
0.0
147
0.0
147
1.0
  0
MATERIAL
  5
BE0
102
{ACAD_XDICTIONARY
360
BE1
102
}
102
{ACAD_REACTORS
330
BD
102
}
330
BD
100
AcDbMaterial
  1
Global
 72
     0
 43
0.0008202099737533
 43
0.0
 43
0.0
 43
0.0
 43
0.0
 43
0.0008202099737533
 43
0.0
 43
0.0
 43
0.0
 43
0.0
 43
1.0
 43
0.0
 43
0.0
 43
0.0
 43
0.0
 43
1.0
 77
     0
 47
0.0008202099737533
 47
0.0
 47
0.0
 47
0.0
 47
0.0
 47
0.0008202099737533
 47
0.0
 47
0.0
 47
0.0
 47
0.0
 47
1.0
 47
0.0
 47
0.0
 47
0.0
 47
0.0
 47
1.0
171
     0
 49
0.0008202099737533
 49
0.0
 49
0.0
 49
0.0
 49
0.0
 49
0.0008202099737533
 49
0.0
 49
0.0
 49
0.0
 49
0.0
 49
1.0
 49
0.0
 49
0.0
 49
0.0
 49
0.0
 49
1.0
175
     0
142
0.0008202099737533
142
0.0
142
0.0
142
0.0
142
0.0
142
0.0008202099737533
142
0.0
142
0.0
142
0.0
142
0.0
142
1.0
142
0.0
142
0.0
142
0.0
142
0.0
142
1.0
179
     0
144
0.0008202099737533
144
0.0
144
0.0
144
0.0
144
0.0
144
0.0008202099737533
144
0.0
144
0.0
144
0.0
144
0.0
144
1.0
144
0.0
144
0.0
144
0.0
144
0.0
144
1.0
147
0.0008202099737533
147
0.0
147
0.0
147
0.0
147
0.0
147
0.0008202099737533
147
0.0
147
0.0
147
0.0
147
0.0
147
1.0
147
0.0
147
0.0
147
0.0
147
0.0
147
1.0
  0
MLEADERSTYLE
  5
C16
102
{ACAD_REACTORS
330
C15
102
}
330
C15
100
AcDbMLeaderStyle
170
     2
171
     1
172
     0
 90
        2
 40
0.0
 41
0.0
173
     1
 91
-1056964608
340
14
 92
       -2
290
     1
 42
2.0
291
     1
 43
0.36
  3
Standard
 44
4.0
300

342
11
174
     1
178
     6
175
     1
176
     0
 93
-1056964608
 45
4.0
292
     0
297
     0
 46
4.0
 94
-1056964608
 47
1.0
 49
1.0
140
1.0
293
     1
141
0.0
294
     1
177
     0
142
1.0
295
     0
296
     0
143
0.125
1001
ACAD_MLEADERVER
1070
     2
  0
MLINESTYLE
  5
18
102
{ACAD_REACTORS
330
17
102
}
330
17
100
AcDbMlineStyle
  2
STANDARD
 70
     0
  3

 62
   256
 51
90.0
 52
90.0
 71
     2
 49
0.5
 62
   256
  6
BYLAYER
 49
-0.5
 62
   256
  6
BYLAYER
  0
ACDBPLACEHOLDER
  5
F
102
{ACAD_REACTORS
330
E
102
}
330
E
  0
SCALE
  5
C04
102
{ACAD_REACTORS
330
C03
102
}
330
C03
100
AcDbScale
 70
     0
300
1:1
140
1.0
141
1.0
290
     1
  0
SCALE
  5
C05
102
{ACAD_REACTORS
330
C03
102
}
330
C03
100
AcDbScale
 70
     0
300
1:2
140
1.0
141
2.0
290
     0
  0
SCALE
  5
C06
102
{ACAD_REACTORS
330
C03
102
}
330
C03
100
AcDbScale
 70
     0
300
1:4
140
1.0
141
4.0
290
     0
  0
SCALE
  5
C07
102
{ACAD_REACTORS
330
C03
102
}
330
C03
100
AcDbScale
 70
     0
300
1:5
140
1.0
141
5.0
290
     0
  0
SCALE
  5
C08
102
{ACAD_REACTORS
330
C03
102
}
330
C03
100
AcDbScale
 70
     0
300
1:8
140
1.0
141
8.0
290
     0
  0
SCALE
  5
C09
102
{ACAD_REACTORS
330
C03
102
}
330
C03
100
AcDbScale
 70
     0
300
1:10
140
1.0
141
10.0
290
     0
  0
SCALE
  5
C0A
102
{ACAD_REACTORS
330
C03
102
}
330
C03
100
AcDbScale
 70
     0
300
1:16
140
1.0
141
16.0
290
     0
  0
SCALE
  5
C0B
102
{ACAD_REACTORS
330
C03
102
}
330
C03
100
AcDbScale
 70
     0
300
1:20
140
1.0
141
20.0
290
     0
  0
SCALE
  5
C0C
102
{ACAD_REACTORS
330
C03
102
}
330
C03
100
AcDbScale
 70
     0
300
1:30
140
1.0
141
30.0
290
     0
  0
SCALE
  5
C0D
102
{ACAD_REACTORS
330
C03
102
}
330
C03
100
AcDbScale
 70
     0
300
1:40
140
1.0
141
40.0
290
     0
  0
SCALE
  5
C0E
102
{ACAD_REACTORS
330
C03
102
}
330
C03
100
AcDbScale
 70
     0
300
1:50
140
1.0
141
50.0
290
     0
  0
SCALE
  5
C0F
102
{ACAD_REACTORS
330
C03
102
}
330
C03
100
AcDbScale
 70
     0
300
1:100
140
1.0
141
100.0
290
     0
  0
SCALE
  5
C10
102
{ACAD_REACTORS
330
C03
102
}
330
C03
100
AcDbScale
 70
     0
300
2:1
140
2.0
141
1.0
290
     0
  0
SCALE
  5
C11
102
{ACAD_REACTORS
330
C03
102
}
330
C03
100
AcDbScale
 70
     0
300
4:1
140
4.0
141
1.0
290
     0
  0
SCALE
  5
C12
102
{ACAD_REACTORS
330
C03
102
}
330
C03
100
AcDbScale
 70
     0
300
8:1
140
8.0
141
1.0
290
     0
  0
SCALE
  5
C13
102
{ACAD_REACTORS
330
C03
102
}
330
C03
100
AcDbScale
 70
     0
300
10:1
140
10.0
141
1.0
290
     0
  0
SCALE
  5
C14
102
{ACAD_REACTORS
330
C03
102
}
330
C03
100
AcDbScale
 70
     0
300
100:1
140
100.0
141
1.0
290
     0
  0
TABLESTYLE
  5
C02
102
{ACAD_XDICTIONARY
360
1DD3
102
}
102
{ACAD_REACTORS
330
C01
102
}
330
C01
100
AcDbTableStyle
  3
Standard
 70
     0
 71
     0
 40
1.5
 41
1.5
280
     0
281
     0
  7
STANDARD
140
4.5
170
     2
 62
     0
 63
     7
283
     0
274
    -2
284
     1
 64
     0
275
    -2
285
     1
 65
     0
276
    -2
286
     1
 66
     0
277
    -2
287
     1
 67
     0
278
    -2
288
     1
 68
     0
279
    -2
289
     1
 69
     0
  7
STANDARD
140
6.0
170
     5
 62
     0
 63
     7
283
     0
274
    -2
284
     1
 64
     0
275
    -2
285
     1
 65
     0
276
    -2
286
     1
 66
     0
277
    -2
287
     1
 67
     0
278
    -2
288
     1
 68
     0
279
    -2
289
     1
 69
     0
  7
STANDARD
140
4.5
170
     5
 62
     0
 63
     7
283
     0
274
    -2
284
     1
 64
     0
275
    -2
285
     1
 65
     0
276
    -2
286
     1
 66
     0
277
    -2
287
     1
 67
     0
278
    -2
288
     1
 68
     0
279
    -2
289
     1
 69
     0
  0
VISUALSTYLE
  5
BEE
102
{ACAD_XDICTIONARY
360
1DED
102
}
102
{ACAD_REACTORS
330
BE8
102
}
330
BE8
100
AcDbVisualStyle
  2
2dWireframe
 70
     4
 71
     0
 72
     2
 73
     0
 90
        0
 40
-0.6
 41
-30.0
 62
     5
 63
     7
 74
     1
 91
        4
 64
     7
 65
   257
 75
     1
175
     1
 42
1.0
 92
        0
 66
   257
 43
1.0
 76
     1
 77
     6
 78
     2
 67
     7
 79
     5
170
     0
171
     0
290
     0
174
     0
 93
        1
 44
0.0
173
     0
291
     0
 45
0.0
1001
ACAD
1000
AcDbSavedByObjectVersion
1070
     0
  0
VISUALSTYLE
  5
BED
102
{ACAD_XDICTIONARY
360
1DEB
102
}
102
{ACAD_REACTORS
330
BE8
102
}
330
BE8
100
AcDbVisualStyle
  2
Basic
 70
     7
 71
     1
 72
     0
 73
     1
 90
        0
 40
-0.6
 41
-30.0
 62
     5
 63
     7
 74
     0
 91
        4
 64
     7
 65
   257
 75
     1
175
     1
 42
1.0
 92
        8
 66
     7
 43
1.0
 76
     1
 77
     6
 78
     2
 67
     7
 79
     5
170
     0
171
     0
290
     0
174
     0
 93
        1
 44
0.0
173
     0
291
     1
 45
0.0
1001
ACAD
1000
AcDbSavedByObjectVersion
1070
     0
  0
VISUALSTYLE
  5
BF4
102
{ACAD_XDICTIONARY
360
1DF9
102
}
102
{ACAD_REACTORS
330
BE8
102
}
330
BE8
100
AcDbVisualStyle
  2
Brighten
 70
    12
 71
     2
 72
     2
 73
     0
 90
        0
 40
-0.6
 41
-30.0
 62
     5
 63
     7
 74
     1
 91
        4
 64
     7
 65
   257
 75
     1
175
     1
 42
1.0
 92
        8
 66
     7
 43
1.0
 76
     1
 77
     6
 78
     2
 67
     7
 79
     5
170
     0
171
     0
290
     0
174
     0
 93
        1
 44
50.0
173
     0
291
     1
 45
0.0
1001
ACAD
1000
AcDbSavedByObjectVersion
1070
     0
  0
VISUALSTYLE
  5
BF8
102
{ACAD_XDICTIONARY
360
1E01
102
}
102
{ACAD_REACTORS
330
BE8
102
}
330
BE8
100
AcDbVisualStyle
  2
ColorChange
 70
    16
 71
     2
 72
     2
 73
     3
 90
        0
 40
-0.6
 41
-30.0
 62
     5
 63
     8
 74
     1
 91
        4
 64
     7
 65
   257
 75
     1
175
     1
 42
1.0
 92
        8
 66
     8
 43
1.0
 76
     1
 77
     6
 78
     2
 67
     7
 79
     5
170
     0
171
     0
290
     0
174
     0
 93
        1
 44
0.0
173
     0
291
     1
 45
0.0
1001
ACAD
1000
AcDbSavedByObjectVersion
1070
     0
  0
VISUALSTYLE
  5
BF1
102
{ACAD_XDICTIONARY
360
1DF3
102
}
102
{ACAD_REACTORS
330
BE8
102
}
330
BE8
100
AcDbVisualStyle
  2
Conceptual
 70
     9
 71
     3
 72
     2
 73
     0
 90
        0
 40
-0.6
 41
-30.0
 62
     5
 63
     7
 74
     2
 91
        2
 64
     7
 65
   257
 75
     1
175
     1
 42
179.0
 92
        8
 66
     7
 43
1.0
 76
     1
 77
     6
 78
     2
 67
     7
 79
     3
170
     0
171
     0
290
     0
174
     0
 93
        1
 44
0.0
173
     0
291
     0
 45
0.0
1001
ACAD
1000
AcDbSavedByObjectVersion
1070
     0
  0
VISUALSTYLE
  5
BF3
102
{ACAD_XDICTIONARY
360
1DF7
102
}
102
{ACAD_REACTORS
330
BE8
102
}
330
BE8
100
AcDbVisualStyle
  2
Dim
 70
    11
 71
     2
 72
     2
 73
     0
 90
        0
 40
-0.6
 41
-30.0
 62
     5
 63
     7
 74
     1
 91
        4
 64
     7
 65
   257
 75
     1
175
     1
 42
1.0
 92
        8
 66
     7
 43
1.0
 76
     1
 77
     6
 78
     2
 67
     7
 79
     5
170
     0
171
     0
290
     0
174
     0
 93
        1
 44
-50.0
173
     0
291
     1
 45
0.0
1001
ACAD
1000
AcDbSavedByObjectVersion
1070
     0
  0
VISUALSTYLE
  5
C00
102
{ACAD_XDICTIONARY
360
1E11
102
}
102
{ACAD_REACTORS
330
BE8
102
}
330
BE8
100
AcDbVisualStyle
  2
EdgeColorOff
 70
    22
 71
     2
 72
     2
 73
     0
 90
        0
 40
-0.6
 41
-30.0
 62
     5
 63
     7
 74
     1
 91
        4
 64
     7
 65
   257
 75
     1
175
     1
 42
1.0
 92
        8
 66
     7
 43
1.0
 76
     1
 77
     6
 78
     2
 67
     7
 79
     5
170
     0
171
     0
290
     0
174
     0
 93
        1
 44
0.0
173
     0
291
     1
 45
0.0
1001
ACAD
1000
AcDbSavedByObjectVersion
1070
     0
  0
VISUALSTYLE
  5
BF7
102
{ACAD_XDICTIONARY
360
1DFF
102
}
102
{ACAD_REACTORS
330
BE8
102
}
330
BE8
100
AcDbVisualStyle
  2
Facepattern
 70
    15
 71
     2
 72
     2
 73
     0
 90
        0
 40
-0.6
 41
-30.0
 62
     5
 63
     7
 74
     1
 91
        4
 64
     7
 65
   257
 75
     1
175
     1
 42
1.0
 92
        8
 66
     7
 43
1.0
 76
     1
 77
     6
 78
     2
 67
     7
 79
     5
170
     0
171
     0
290
     0
174
     0
 93
        1
 44
0.0
173
     0
291
     1
 45
0.0
1001
ACAD
1000
AcDbSavedByObjectVersion
1070
     0
  0
VISUALSTYLE
  5
BE9
102
{ACAD_XDICTIONARY
360
1DE3
102
}
102
{ACAD_REACTORS
330
BE8
102
}
330
BE8
100
AcDbVisualStyle
  2
Flat
 70
     0
 71
     2
 72
     1
 73
     1
 90
        2
 40
-0.6
 41
30.0
 62
     5
 63
     7
 74
     0
 91
        0
 64
     7
 65
   257
 75
     1
175
     1
 42
1.0
 92
        8
 66
     7
 43
1.0
 76
     1
 77
     6
 78
     2
 67
     7
 79
     5
170
     0
171
     0
290
     0
174
     0
 93
       13
 44
0.0
173
     0
291
     1
 45
0.0
1001
ACAD
1000
AcDbSavedByObjectVersion
1070
     0
  0
VISUALSTYLE
  5
BEA
102
{ACAD_XDICTIONARY
360
1DE5
102
}
102
{ACAD_REACTORS
330
BE8
102
}
330
BE8
100
AcDbVisualStyle
  2
FlatWithEdges
 70
     1
 71
     2
 72
     1
 73
     1
 90
        2
 40
-0.6
 41
30.0
 62
     5
 63
     7
 74
     1
 91
        0
 64
     7
 65
   257
 75
     1
175
     1
 42
1.0
 92
        0
 66
   257
 43
1.0
 76
     1
 77
     6
 78
     2
 67
     7
 79
     5
170
     0
171
     0
290
     0
174
     0
 93
       13
 44
0.0
173
     0
291
     1
 45
0.0
1001
ACAD
1000
AcDbSavedByObjectVersion
1070
     0
  0
VISUALSTYLE
  5
BEB
102
{ACAD_XDICTIONARY
360
1DE7
102
}
102
{ACAD_REACTORS
330
BE8
102
}
330
BE8
100
AcDbVisualStyle
  2
Gouraud
 70
     2
 71
     2
 72
     2
 73
     1
 90
        2
 40
-0.6
 41
30.0
 62
     5
 63
     7
 74
     0
 91
        0
 64
     7
 65
   257
 75
     1
175
     1
 42
1.0
 92
        0
 66
     7
 43
1.0
 76
     1
 77
     6
 78
     2
 67
     7
 79
     5
170
     0
171
     0
290
     0
174
     0
 93
       13
 44
0.0
173
     0
291
     1
 45
0.0
1001
ACAD
1000
AcDbSavedByObjectVersion
1070
     0
  0
VISUALSTYLE
  5
BEC
102
{ACAD_XDICTIONARY
360
1DE9
102
}
102
{ACAD_REACTORS
330
BE8
102
}
330
BE8
100
AcDbVisualStyle
  2
GouraudWithEdges
 70
     3
 71
     2
 72
     2
 73
     1
 90
        2
 40
-0.6
 41
30.0
 62
     5
 63
     7
 74
     1
 91
        0
 64
     7
 65
   257
 75
     1
175
     1
 42
1.0
 92
        0
 66
   257
 43
1.0
 76
     1
 77
     6
 78
     2
 67
     7
 79
     5
170
     0
171
     0
290
     0
174
     0
 93
       13
 44
0.0
173
     0
291
     1
 45
0.0
1001
ACAD
1000
AcDbSavedByObjectVersion
1070
     0
  0
VISUALSTYLE
  5
BF0
102
{ACAD_XDICTIONARY
360
1DF1
102
}
102
{ACAD_REACTORS
330
BE8
102
}
330
BE8
100
AcDbVisualStyle
  2
Hidden
 70
     6
 71
     1
 72
     2
 73
     2
 90
        0
 40
-0.6
 41
-30.0
 62
     5
 63
     7
 74
     2
 91
        2
 64
     7
 65
   257
 75
     2
175
     1
 42
40.0
 92
        0
 66
   257
 43
1.0
 76
     1
 77
     6
 78
     2
 67
     7
 79
     3
170
     0
171
     0
290
     0
174
     0
 93
        1
 44
0.0
173
     0
291
     0
 45
0.0
1001
ACAD
1000
AcDbSavedByObjectVersion
1070
     0
  0
VISUALSTYLE
  5
BFE
102
{ACAD_XDICTIONARY
360
1E0D
102
}
102
{ACAD_REACTORS
330
BE8
102
}
330
BE8
100
AcDbVisualStyle
  2
JitterOff
 70
    20
 71
     2
 72
     2
 73
     0
 90
        0
 40
-0.6
 41
-30.0
 62
     5
 63
     7
 74
     1
 91
        4
 64
     7
 65
   257
 75
     1
175
     1
 42
1.0
 92
       10
 66
     7
 43
1.0
 76
     1
 77
     6
 78
     2
 67
     7
 79
     5
170
     0
171
     0
290
     0
174
     0
 93
        1
 44
0.0
173
     0
291
     1
 45
0.0
1001
ACAD
1000
AcDbSavedByObjectVersion
1070
     0
  0
VISUALSTYLE
  5
BF6
102
{ACAD_XDICTIONARY
360
1DFD
102
}
102
{ACAD_REACTORS
330
BE8
102
}
330
BE8
100
AcDbVisualStyle
  2
Linepattern
 70
    14
 71
     2
 72
     2
 73
     0
 90
        0
 40
-0.6
 41
-30.0
 62
     5
 63
     7
 74
     1
 91
        4
 64
     7
 65
   257
 75
     7
175
     7
 42
1.0
 92
        8
 66
     7
 43
1.0
 76
     1
 77
     6
 78
     2
 67
     7
 79
     5
170
     0
171
     0
290
     0
174
     0
 93
        1
 44
0.0
173
     0
291
     1
 45
0.0
1001
ACAD
1000
AcDbSavedByObjectVersion
1070
     0
  0
VISUALSTYLE
  5
BFF
102
{ACAD_XDICTIONARY
360
1E0F
102
}
102
{ACAD_REACTORS
330
BE8
102
}
330
BE8
100
AcDbVisualStyle
  2
OverhangOff
 70
    21
 71
     2
 72
     2
 73
     0
 90
        0
 40
-0.6
 41
-30.0
 62
     5
 63
     7
 74
     1
 91
        4
 64
     7
 65
   257
 75
     1
175
     1
 42
1.0
 92
        9
 66
     7
 43
1.0
 76
     1
 77
     6
 78
     2
 67
     7
 79
     5
170
     0
171
     0
290
     0
174
     0
 93
        1
 44
0.0
173
     0
291
     1
 45
0.0
1001
ACAD
1000
AcDbSavedByObjectVersion
1070
     0
  0
VISUALSTYLE
  5
BF2
102
{ACAD_XDICTIONARY
360
1DF5
102
}
102
{ACAD_REACTORS
330
BE8
102
}
330
BE8
100
AcDbVisualStyle
  2
Realistic
 70
     8
 71
     2
 72
     3
 73
     0
 90
        2
 40
-0.6
 41
30.0
 62
     5
 63
     7
 74
     0
 91
        0
 64
     7
 65
   257
 75
     1
175
     1
 42
1.0
 92
        8
 66
   257
 43
1.0
 76
     1
 77
     6
 78
     2
 67
     7
 79
     3
170
     0
171
     0
290
     0
174
     0
 93
       13
 44
0.0
173
     0
291
     0
 45
0.0
1001
ACAD
1000
AcDbSavedByObjectVersion
1070
     0
  0
VISUALSTYLE
  5
BFD
102
{ACAD_XDICTIONARY
360
1E0B
102
}
102
{ACAD_REACTORS
330
BE8
102
}
330
BE8
100
AcDbVisualStyle
  2
Shaded
 70
    27
 71
     2
 72
     2
 73
     1
 90
        2
 40
-0.6
 41
30.0
 62
     5
 63
     7
 74
     0
 91
        4
 64
     7
 65
   257
 75
     1
175
     1
 42
1.0
 92
        8
 66
   257
 43
1.0
 76
     1
 77
     6
 78
     2
 67
     8
 79
     3
170
     0
171
     0
290
     0
174
     0
 93
        5
 44
0.0
173
     0
291
     0
 45
0.0
1001
ACAD
1000
AcDbSavedByObjectVersion
1070
     0
  0
VISUALSTYLE
  5
BFC
102
{ACAD_XDICTIONARY
360
1E09
102
}
102
{ACAD_REACTORS
330
BE8
102
}
330
BE8
100
AcDbVisualStyle
  2
Shaded with edges
 70
    26
 71
     2
 72
     2
 73
     1
 90
        2
 40
-0.6
 41
30.0
 62
     5
 63
     7
 74
     1
 91
       10
 64
     7
 65
   257
 75
     2
175
     1
 42
1.0
 92
        8
 66
   257
 43
1.0
 76
     1
 77
     6
 78
     2
 67
     7
 79
     3
170
     0
171
     0
290
     0
174
     0
 93
        5
 44
0.0
173
     0
291
     0
 45
0.0
1001
ACAD
1000
AcDbSavedByObjectVersion
1070
     0
  0
VISUALSTYLE
  5
BF9
102
{ACAD_XDICTIONARY
360
1E03
102
}
102
{ACAD_REACTORS
330
BE8
102
}
330
BE8
100
AcDbVisualStyle
  2
Shades of Gray
 70
    23
 71
     2
 72
     2
 73
     3
 90
        0
 40
-0.6
 41
-30.0
 62
     5
 63
     7
 74
     2
 91
        2
 64
     7
 65
     7
 75
     1
175
     1
 42
40.0
 92
        8
 66
     7
 43
1.0
 76
     1
 77
     6
 78
     2
 67
     7
 79
     3
170
     0
171
     0
290
     0
174
     0
 93
        1
 44
0.0
173
     0
291
     0
 45
0.0
1001
ACAD
1000
AcDbSavedByObjectVersion
1070
     0
  0
VISUALSTYLE
  5
BFA
102
{ACAD_XDICTIONARY
360
1E05
102
}
102
{ACAD_REACTORS
330
BE8
102
}
330
BE8
100
AcDbVisualStyle
  2
Sketchy
 70
    24
 71
     1
 72
     2
 73
     2
 90
        0
 40
-0.6
 41
-30.0
 62
     5
 63
     7
 74
     2
 91
        2
 64
     7
 65
     7
 75
     1
175
     1
 42
40.0
 92
       11
 66
     7
 43
1.0
 76
     1
 77
     6
 78
     2
 67
     7
 79
     6
170
     0
171
     0
290
     0
174
     0
 93
        1
 44
0.0
173
     0
291
     0
 45
0.0
1001
ACAD
1000
AcDbSavedByObjectVersion
1070
     0
  0
VISUALSTYLE
  5
BF5
102
{ACAD_XDICTIONARY
360
1DFB
102
}
102
{ACAD_REACTORS
330
BE8
102
}
330
BE8
100
AcDbVisualStyle
  2
Thicken
 70
    13
 71
     2
 72
     2
 73
     0
 90
        0
 40
-0.6
 41
-30.0
 62
     5
 63
     7
 74
     1
 91
        4
 64
     7
 65
   257
 75
     1
175
     1
 42
1.0
 92
       12
 66
     7
 43
1.0
 76
     1
 77
     6
 78
     2
 67
     7
 79
     5
170
     0
171
     0
290
     0
174
     0
 93
        1
 44
0.0
173
     0
291
     1
 45
0.0
1001
ACAD
1000
AcDbSavedByObjectVersion
1070
     0
  0
VISUALSTYLE
  5
BEF
102
{ACAD_XDICTIONARY
360
1DEF
102
}
102
{ACAD_REACTORS
330
BE8
102
}
330
BE8
100
AcDbVisualStyle
  2
Wireframe
 70
     5
 71
     0
 72
     2
 73
     0
 90
        0
 40
-0.6
 41
-30.0
 62
     5
 63
     7
 74
     1
 91
        4
 64
     7
 65
   257
 75
     1
175
     1
 42
1.0
 92
        0
 66
   257
 43
1.0
 76
     1
 77
     6
 78
     2
 67
     7
 79
     3
170
     0
171
     0
290
     0
174
     0
 93
        1
 44
0.0
173
     0
291
     0
 45
0.0
1001
ACAD
1000
AcDbSavedByObjectVersion
1070
     0
  0
VISUALSTYLE
  5
BFB
102
{ACAD_XDICTIONARY
360
1E07
102
}
102
{ACAD_REACTORS
330
BE8
102
}
330
BE8
100
AcDbVisualStyle
  2
X-Ray
 70
    25
 71
     2
 72
     2
 73
     1
 90
        1
 40
0.5
 41
-30.0
 62
     5
 63
     7
 74
     1
 91
        0
 64
     7
 65
   257
 75
     1
175
     1
 42
1.0
 92
        8
 66
     7
 43
1.0
 76
     1
 77
     6
 78
     2
 67
     7
 79
     3
170
     0
171
     0
290
     0
174
     0
 93
       13
 44
0.0
173
     0
291
     0
 45
0.0
1001
ACAD
1000
AcDbSavedByObjectVersion
1070
     0
  0
DICTIONARYVAR
  5
1371
102
{ACAD_REACTORS
330
94
102
}
330
94
100
DictionaryVariables
280
     0
  1
1:1
  0
DICTIONARYVAR
  5
136F
102
{ACAD_REACTORS
330
94
102
}
330
94
100
DictionaryVariables
280
     0
  1
STANDARD
  0
DICTIONARYVAR
  5
136E
102
{ACAD_REACTORS
330
94
102
}
330
94
100
DictionaryVariables
280
     0
  1
STANDARD
  0
DICTIONARYVAR
  5
96
102
{ACAD_REACTORS
330
94
102
}
330
94
100
DictionaryVariables
280
     0
  1
2
  0
DICTIONARYVAR
  5
95
102
{ACAD_REACTORS
330
94
102
}
330
94
100
DictionaryVariables
280
     0
  1
0
  0
DICTIONARYVAR
  5
1373
102
{ACAD_REACTORS
330
94
102
}
330
94
100
DictionaryVariables
280
     0
  1
1
  0
DICTIONARYVAR
  5
1374
102
{ACAD_REACTORS
330
94
102
}
330
94
100
DictionaryVariables
280
     0
  1
15
  0
DICTIONARYVAR
  5
1372
102
{ACAD_REACTORS
330
94
102
}
330
94
100
DictionaryVariables
280
     0
  1
0
  0
DICTIONARYVAR
  5
1370
102
{ACAD_REACTORS
330
94
102
}
330
94
100
DictionaryVariables
280
     0
  1
0
  0
DICTIONARYVAR
  5
1DD1
102
{ACAD_REACTORS
330
94
102
}
330
94
100
DictionaryVariables
280
     0
  1
127
  0
DICTIONARYVAR
  5
1DD2
102
{ACAD_REACTORS
330
94
102
}
330
94
100
DictionaryVariables
280
     0
  1
0
  0
DICTIONARY
  5
5AE
102
{ACAD_REACTORS
330
5B
102
}
330
5B
100
AcDbDictionary
281
     1
  0
DICTIONARY
  5
61
102
{ACAD_REACTORS
330
5B
102
}
330
5B
100
AcDbDictionary
281
     1
  0
XRECORD
  5
C35
102
{ACAD_REACTORS
330
5B
102
}
330
5B
100
AcDbXrecord
280
     1
 90
-1023410169
  0
XRECORD
  5
35F
102
{ACAD_REACTORS
330
35E
102
}
330
35E
100
AcDbXrecord
280
     1
 91
       16
330
206
 90
        8
 62
     1
370
    -3
331
16
  1
色_1
330
1E1
 90
        0
 62
     7
370
    -3
331
16
  1
色_7
330
307
 90
        8
 62
     3
370
    20
331
16
  1
色_3
330
22C
 90
        8
 62
     4
370
    -3
331
203
  1
色_4
330
10
 90
        8
 62
     7
370
    -3
331
16
  1
色_7
  0
DICTIONARY
  5
1355
330
22
100
AcDbDictionary
280
     1
281
     1
  3
ACAD_XREC_ROUNDTRIP
360
1DD9
  3
ADSK_XREC_LAYOUTTHUMBNAIL
360
1356
  0
DICTIONARY
  5
1DD7
330
1E
100
AcDbDictionary
280
     1
281
     1
  3
ACAD_XREC_ROUNDTRIP
360
1DD8
  0
DICTIONARY
  5
1DDA
330
26
100
AcDbDictionary
280
     1
281
     1
  3
ACAD_XREC_ROUNDTRIP
360
1DDB
  0
DICTIONARY
  5
BD9
330
BD8
100
AcDbDictionary
280
     1
281
     1
  3
ACAD_XREC_ROUNDTRIP
360
1DE1
  3
BUMPTILE
360
BDB
  3
DIFFUSETILE
360
BDA
  3
OPACITYTILE
360
BDE
  3
REFLECTIONTILE
360
BDD
  3
REFRACTIONTILE
360
BDF
  3
SPECULARTILE
360
BDC
  0
DICTIONARY
  5
BD1
330
BD0
100
AcDbDictionary
280
     1
281
     1
  3
ACAD_XREC_ROUNDTRIP
360
1DE0
  3
BUMPTILE
360
BD3
  3
DIFFUSETILE
360
BD2
  3
OPACITYTILE
360
BD6
  3
REFLECTIONTILE
360
BD5
  3
REFRACTIONTILE
360
BD7
  3
SPECULARTILE
360
BD4
  0
DICTIONARY
  5
BE1
330
BE0
100
AcDbDictionary
280
     1
281
     1
  3
ACAD_XREC_ROUNDTRIP
360
1DE2
  3
BUMPTILE
360
BE3
  3
DIFFUSETILE
360
BE2
  3
OPACITYTILE
360
BE6
  3
REFLECTIONTILE
360
BE5
  3
REFRACTIONTILE
360
BE7
  3
SPECULARTILE
360
BE4
  0
DICTIONARY
  5
1DD3
330
C02
100
AcDbDictionary
280
     1
281
     1
  3
ACAD_ROUNDTRIP_2008_TABLESTYLE_CELLSTYLEMAP
360
1DD4
  3
ACAD_XREC_ROUNDTRIP
360
1E13
  0
DICTIONARY
  5
1DED
330
BEE
100
AcDbDictionary
280
     1
281
     1
  3
ACAD_XREC_ROUNDTRIP
360
1DEE
  0
DICTIONARY
  5
1DEB
330
BED
100
AcDbDictionary
280
     1
281
     1
  3
ACAD_XREC_ROUNDTRIP
360
1DEC
  0
DICTIONARY
  5
1DF9
330
BF4
100
AcDbDictionary
280
     1
281
     1
  3
ACAD_XREC_ROUNDTRIP
360
1DFA
  0
DICTIONARY
  5
1E01
330
BF8
100
AcDbDictionary
280
     1
281
     1
  3
ACAD_XREC_ROUNDTRIP
360
1E02
  0
DICTIONARY
  5
1DF3
330
BF1
100
AcDbDictionary
280
     1
281
     1
  3
ACAD_XREC_ROUNDTRIP
360
1DF4
  0
DICTIONARY
  5
1DF7
330
BF3
100
AcDbDictionary
280
     1
281
     1
  3
ACAD_XREC_ROUNDTRIP
360
1DF8
  0
DICTIONARY
  5
1E11
330
C00
100
AcDbDictionary
280
     1
281
     1
  3
ACAD_XREC_ROUNDTRIP
360
1E12
  0
DICTIONARY
  5
1DFF
330
BF7
100
AcDbDictionary
280
     1
281
     1
  3
ACAD_XREC_ROUNDTRIP
360
1E00
  0
DICTIONARY
  5
1DE3
330
BE9
100
AcDbDictionary
280
     1
281
     1
  3
ACAD_XREC_ROUNDTRIP
360
1DE4
  0
DICTIONARY
  5
1DE5
330
BEA
100
AcDbDictionary
280
     1
281
     1
  3
ACAD_XREC_ROUNDTRIP
360
1DE6
  0
DICTIONARY
  5
1DE7
330
BEB
100
AcDbDictionary
280
     1
281
     1
  3
ACAD_XREC_ROUNDTRIP
360
1DE8
  0
DICTIONARY
  5
1DE9
330
BEC
100
AcDbDictionary
280
     1
281
     1
  3
ACAD_XREC_ROUNDTRIP
360
1DEA
  0
DICTIONARY
  5
1DF1
330
BF0
100
AcDbDictionary
280
     1
281
     1
  3
ACAD_XREC_ROUNDTRIP
360
1DF2
  0
DICTIONARY
  5
1E0D
330
BFE
100
AcDbDictionary
280
     1
281
     1
  3
ACAD_XREC_ROUNDTRIP
360
1E0E
  0
DICTIONARY
  5
1DFD
330
BF6
100
AcDbDictionary
280
     1
281
     1
  3
ACAD_XREC_ROUNDTRIP
360
1DFE
  0
DICTIONARY
  5
1E0F
330
BFF
100
AcDbDictionary
280
     1
281
     1
  3
ACAD_XREC_ROUNDTRIP
360
1E10
  0
DICTIONARY
  5
1DF5
330
BF2
100
AcDbDictionary
280
     1
281
     1
  3
ACAD_XREC_ROUNDTRIP
360
1DF6
  0
DICTIONARY
  5
1E0B
330
BFD
100
AcDbDictionary
280
     1
281
     1
  3
ACAD_XREC_ROUNDTRIP
360
1E0C
  0
DICTIONARY
  5
1E09
330
BFC
100
AcDbDictionary
280
     1
281
     1
  3
ACAD_XREC_ROUNDTRIP
360
1E0A
  0
DICTIONARY
  5
1E03
330
BF9
100
AcDbDictionary
280
     1
281
     1
  3
ACAD_XREC_ROUNDTRIP
360
1E04
  0
DICTIONARY
  5
1E05
330
BFA
100
AcDbDictionary
280
     1
281
     1
  3
ACAD_XREC_ROUNDTRIP
360
1E06
  0
DICTIONARY
  5
1DFB
330
BF5
100
AcDbDictionary
280
     1
281
     1
  3
ACAD_XREC_ROUNDTRIP
360
1DFC
  0
DICTIONARY
  5
1DEF
330
BEF
100
AcDbDictionary
280
     1
281
     1
  3
ACAD_XREC_ROUNDTRIP
360
1DF0
  0
DICTIONARY
  5
1E07
330
BFB
100
AcDbDictionary
280
     1
281
     1
  3
ACAD_XREC_ROUNDTRIP
360
1E08
  0
XRECORD
  5
1DD9
102
{ACAD_REACTORS
330
1355
102
}
330
1355
100
AcDbXrecord
280
     1
102
SHADEPLOT
 70
     0
102
SHADEPLOTRESLEVEL
 70
     2
102
SHADEPLOTCUSTOMDPI
 70
   300
  0
XRECORD
  5
1356
102
{ACAD_REACTORS
330
1355
102
}
330
1355
100
AcDbXrecord
280
     1
310
2800000000010000A1000000010008000000000000A10000000000000000000000010000000000000000000000000000FFFFFF000000000000000000000000000000000000000000000000000000000000000000330000006600000099000000CC000000FF00000000330000333300006633000099330000CC330000FF3300
310
0000660000336600006666000099660000CC660000FF66000000990000339900006699000099990000CC990000FF99000000CC000033CC000066CC000099CC0000CCCC0000FFCC000000FF000033FF000066FF000099FF0000CCFF0000FFFF000000003300330033006600330099003300CC003300FF003300003333003333
310
33006633330099333300CC333300FF33330000663300336633006666330099663300CC663300FF66330000993300339933006699330099993300CC993300FF99330000CC330033CC330066CC330099CC3300CCCC3300FFCC330000FF330033FF330066FF330099FF3300CCFF3300FFFF330000006600330066006600660099
310
006600CC006600FF00660000336600333366006633660099336600CC336600FF33660000666600336666006666660099666600CC666600FF66660000996600339966006699660099996600CC996600FF99660000CC660033CC660066CC660099CC6600CCCC6600FFCC660000FF660033FF660066FF660099FF6600CCFF6600
310
FFFF660000009900330099006600990099009900CC009900FF00990000339900333399006633990099339900CC339900FF33990000669900336699006666990099669900CC669900FF66990000999900339999006699990099999900CC999900FF99990000CC990033CC990066CC990099CC9900CCCC9900FFCC990000FF99
310
0033FF990066FF990099FF9900CCFF9900FFFF99000000CC003300CC006600CC009900CC00CC00CC00FF00CC000033CC003333CC006633CC009933CC00CC33CC00FF33CC000066CC003366CC006666CC009966CC00CC66CC00FF66CC000099CC003399CC006699CC009999CC00CC99CC00FF99CC0000CCCC0033CCCC0066CC
310
CC0099CCCC00CCCCCC00FFCCCC0000FFCC0033FFCC0066FFCC0099FFCC00CCFFCC00FFFFCC000000FF003300FF006600FF009900FF00CC00FF00FF00FF000033FF003333FF006633FF009933FF00CC33FF00FF33FF000066FF003366FF006666FF009966FF00CC66FF00FF66FF000099FF003399FF006699FF009999FF00CC
310
99FF00FF99FF0000CCFF0033CCFF0066CCFF0099CCFF00CCCCFF00FFCCFF0000FFFF0033FFFF0066FFFF0099FFFF00CCFFFF00FFFFFF00000000000D0D0D001A1A1A00282828003535350043434300505050005D5D5D006B6B6B00787878008686860093939300A1A1A100AEAEAE00BBBBBB00C9C9C900D6D6D600E4E4E400
310
F1F1F100FFFFFF000000000000000000000000000000000000000000000000000000000000000000000000000000000000000000000000000000000000000000000000000000000000000000000000000000000000000000000000000000000000000000000000000000000000000000000000000000000000000000000000
310
00000000000000000000000000000000000000000000000000000000000000000000000000000000000000000000000000000000000000000000000000000000000000000000000000000000000000000000000000000000000000000000000000000000000000000000000000000000000000000000000000000000000000
310
000000000000000000000000000000000000000000000000000000000000000000000000000000000000000000000000000000000000000000000000000000000000000000000000000000000000000000000000000000000000000000000000000000000000000000000000000000000000000000000000000000F5F5F5F5
310
F5F5F5F5F5F5F5F5F5F5F5F5F5F5F5F5F5F5F5F5F5F5F5F5F5F5F5F5F5F5F5F5F5F5F5F5F5F5F5F5F5F5F5F5F5F5F5F5F5F5F5F5F5F5F5F5F5F5F5F5F5F5F5F5F5F5F5F5F5F5F5F5F5F5F5F5F5F5F5F5F5F5F5F5F5F5F5F5F5F5F5F5F5F5F5F5F5F5F5F5F5F5F5F5F5F5000000000000000000000000000000000000000000
310
0000000000000000000000000000000000000000000000000000000000000000000000000000000000000000000000000000000000000000000000000000000000000000000000000000000000000000000000000000000000000000000000000000000000000000000000000000000000000000000000000000000000F500
310
0000000000F5F5F5F5F5F5F5F5F5F5F5F500BEBEBEBE00000000000000000000000000000000000000000000000000000000000000000000000000000000000000F500000000000000000000000000F500000000000000000000000000F500000000000000000000000000F500000000000000000000000000000000000000
310
00000000000000000000000000000000000000000000000000000000000000000000000000000000000000000000000000000000000000000000000000000000000000000000000000000000000000000000000000000000000000000000000000000000000000000000000000000000000000000000000000000000000000
310
F5000000000000F5F5F5F500F5F5F5F5F5F5F500BEBEBEBE00000000000000000000000000000000000000000000000000000000000000000000000000000000000000F500000000000000000000000000F500000000000000000000000000F500000000000000000000000000F50000000000000000000000000000000000
310
00000000000000000000000000000000000000000000000000000000000000000000000000000000000000000000000000000000000000000000000000000000000000000000000000000000000000000000000000000000000000000000000000000000000000000000000000000000000000000000000000000000000000
310
0000F5000000000000F5F5F5F500F5F5F5F5F5F5F500BEBEBEBEF5F5F5F5F5F5F5F5F5F5F5F5F5F5F5F5F5F5F5F5F5F5F5F5F5F5F5F5F5F5F5F5F5F5F5F5F5F5F5F5F5F5F5F500F5F5F5F5F500F50000F5F500F500000000F5F5F5F5F500000000F500000000F5F5F5F5F500000000F5000000000000000000000000000000
310
00000000000000000000000000000000000000000000000000000000000000000000000000000000000000000000000000000000000000000000000000000000000000000000000000000000000000000000000000000000000000000000000000000000000000000000000000000000000000000000000000000000000000
310
00000000BEBEBEBEBEBE0000000000000000000000000000F500000000000000000000000000000000000000000000000000000000000000000000000000000000000000000000F500F5F5F5F5F5F500F5F5F5F500F500000000F5F5F5F5F500000000F500000000F5F5F5F5F500000000F500000000000000000000000000
310
00000000000000000000000000000000000000000000000000000000000000000000000000000000000000000000000000000000000000000000000000000000000000000000000000000000000000000000000000000000000000000000000000000000000000000000000000000000000000000000000000000000000000
310
000000000000BEBEBEBEBEBE0000000000000000000000000000F500000000000000000000000000000000000000000000000000000000000000000000000000000000000000000000F500F5F5F5F50000F50000F5F500F50000000000F5F5F5F500000000F500000000F5F5F5F5F500000000F50000000000000000000000
310
00000000000000000000000000000000000000000000000000000000000000000000000000000000000000000000000000000000000000000000000000000000000000000000000000000000000000000000000000000000000000000000000000000000000000000000000000000000000000000000000000000000000000
310
0000000000000000F5BEF5BEBEBEF5F5F5F5F5F5F5F5F5F5F5F5F5F5F5000000000000F5F5F500F5F500000000000000000000000000000000000000000000000000000000000000000000F500000000000000000000000000F500000000000000000000000000F500000000000000000000000000F5000000000000000000
310
00000000000000000000000000000000000000000000000000000000000000000000000000000000000000000000000000000000000000000000000000000000000000000000000000000000000000000000000000000000000000000000000000000000000000000000000000000000000000000000000000000000000000
310
00000000000000000000F500000000000000000000000000000000000000F5000000000000F5F5F5F5F5F500000000000000000000000000000000000000000000000000000000000000000000F500000000000000000000000000F500000000000000000000000000F500000000000000000000000000F500000000000000
310
00000000000000000000000000000000000000000000000000000000000000000000000000000000000000000000000000000000000000000000000000000000000000000000000000000000000000000000000000000000000000000000000000000000000000000000000000000000000000000000000000000000000000
310
000000000000000000000000F500000000000000000000F5F5F5000000000000F5000000000000F5F5F500F5F500000000000000000000000000000000000000000000000000000000000000000000F500000000000000000000000000F500000000000000000000000000F500000000000000000000000000F50000000000
310
00000000000000000000000000000000000000000000000000000000000000000000000000000000000000000000000000000000000000000000000000000000000000000000000000000000000000000000000000000000000000000000000000000000000000000000000000000000000000000000000000000000000000
310
0000000000000000000000000000F500000000000000000000F5F5F5000000000000BEBEBEBE00000000000000000000000000000000000000000000000000000000000000000000000000000000000000F500000000BEBEBEBE0000000000F50000000000BEBEBEBE00000000F500000000BEBEBEBE0000000000F5000000
310
00000000000000000000000000000000000000000000000000000000000000000000000000000000000000000000000000000000000000000000000000000000000000000000000000000000000000000000000000000000000000000000000000000000000000000000000000000000000000000000000000000000000000
310
00000000000000000000000000000000BE00BEBE00000000000000000000000000000000BEBEBEBE00000000000000000000000000000000000000000000000000000000000000000000000000000000000000F500000000BEBEBEBE0000000000F50000000000BEBEBEBE00000000F500000000BEBEBEBE0000000000F500
310
00000000000000000000000000000000000000000000000000000000000000000000000000000000000000000000000000000000000000000000000000000000000000000000000000000000000000000000000000000000000000000000000000000000000000000000000000000000000000000000000000000000000000
310
000000000000000000000000000000000000BEBEBEBE00000000000000000000000000000000F5F5F5F5F5F5F5F5F5F5F5F5F5F5F5F5F5F5F5F5F5F5F5F5F5F5F5F5F5F5F5F5F5F5F5F5F5F5F5F5F5F5F5F5F5F5F5F5F5F5F5F5F5F5F5F5F5F5F5F5F5F5F5F5F5F5F5F5F5F5F5F5F5F5F5F5F5F5F5F5F5F5F5F5F5F5F5F5F5
310
F5000000000000000000000000000000000000000000000000000000000000000000000000000000000000000000000000000000000000000000000000000000000000000000000000000000000000000000000000000000000000000000000000000000000000000000000000000000000000000000000000000000000000
310
0000000000000000000000000000000000000000F5BEBEBE00000000000000000000000000000000F500000000000000000000000000000000000000000000000000000000000000000000000000000000000000000000F5000000000000000000000000000000000000000000000000000000000000000000000000000000
310
0000F500000000000000000000000000000000000000000000000000000000000000000000000000000000000000000000000000000000000000000000000000000000000000000000000000000000000000000000000000000000000000000000000000000000000000000000000000000000000000000000000000000000
310
00000000000000000000000000000000000000000000F5F5F5F5F5F5F5F5F5F5F5F5F5F5F5F5F5F5F5F5F500000000000000000000000000000000000000000000000000000000000000000000000000000000000000000000F50000000000F5F5F5F5F5F5F5F5F5F5F5F5F5F5F5F5F5F5F5F5F5F5F5F5F5F5F5F500000000
310
00000000F50000000000000000000000000000000000000000000000000000000000000000000000000000000000000000000000000000000000000000000000000000000000000000000000000000000000000000000000000000000000000000000000000000000000000000000000000000000000000000000000000000
310
000000000000000000000000000000000000000000000000F500000000F5F5F500000000F5F5F50000000000F5000000000000F5F5F5F5F50000F5F5F5F5F5F5F500F5F5F5F5F5F5F5000000000000000000000000000000000000F50000000000F5F5F5F5F5F5F5F5F5F5F5F5F5F5F5F5F5F5F5F5F5F5F5F5F5F5F5F50000
310
000000000000F5000000000000000000000000000000000000000000000000000000000000000000000000000000000000000000000000000000000000000000000000000000000000000000000000000000000000000000000000000000000000000000000000000000000000000000000000000000000000000000000000
310
0000000000000000000000000000000000000000000000000000F500000000F5F5F5F5F5F5F50000F50000000000F5000000000000F5F5F5F5F5F5F500F5F5F5F5F5F5F5F5F5F5F5F5F5F5000000000000000000000000000000000000F50000000000F5F5F5F5F5F5F5F5F5F5F5F5F5F5F5F5F5F5F5F5F5F5F5F5F5F5F5F5
310
0000000000000000F500000000000000000000000000000000000000000000000000000000000000000000000000000000000000000000000000000000000000000000000000000000000000000000000000000000000000000000000000000000000000000000000000000000000000000000000000000000000000000000
310
00000000000000000000000000000000000000000000000000000000F5000000F5F52D2D2D2D2D2D2D2D2D0000000000F5000000000000F5F5F5F5F50000000000F50000000000F500000000F5000000000000000000000000000000000000F500000000000000000000000000000000000000000000000000000000000000
310
00000000000000000000F50000000000000000000000000000000000000000000000000000000000000000000000000000000000000000000000000000000000000000000000000000000000000000000000000000000000000000000000000000000000000000000000000000000000000000000000000000000000000000
310
000000000000000000000000000000000000000000000000000000000000F500000000F52DF5F5F5F5F50000F50000000000BEBEBEBE00000000000000000000000000000000000000000000000000000000000000000000000000000000000000F50000000000000000000000000000000000000000000000000000000000
310
000000000000000000000000F5000000000000000000000000000000000000000000000000000000000000000000000000000000000000000000000000000000000000000000000000000000000000000000000000000000000000000000000000000000000000000000000000000000000000000000000000000000000000
310
0000000000000000000000000000000000000000000000000000000000000000F500000000002D0000000000F5F5F50000000000BEBEBEBE00000000000000000000000000000000000000000000000000000000000000000000000000000000000000F5000000000000000000000000000000000000000000000000000000
310
0000000000000000000000000000F500000000000000000000000000000000000000000000000000000000000000000000000000000000000000000000000000000000000000000000000000000000000000000000000000000000000000000000000000000000000000000000000000000000000000000000000000000000
310
00000000000000000000000000000000000000000000000000000000000000000000F5F5F5F5F5F5F5F5F5F5F5F5F5F5F5F5F5F5F5F5BEBEBEBEF5F5F5F5F5F5F5F5F5F5F5F5F5F5F5F5F5F5F5F5F5F5F5F5F5F5F5F5F5F5F5F5F5F5F5F5F5F5F5F5F5F5F5F5F5F5F5F5F5F5F5F5F5F5F5F5F5F5F5F5F5F5F5F5F5F5F5F5F5
310
F5F5F5F5F5F5F5F5F5F5F5F5F5F5F5F5F50000000000000000000000000000000000000000000000000000000000000000000000000000000000000000000000000000000000000000000000000000000000000000000000000000000000000000000000000000000000000000000000000000000000000000000000000000
310
000000000000000000000000000000000000000000000000000000000000000000000000F5000000000000000000000000000000000000000000000000000000000000000000000000000000000000000000000000000000000000000000000000000000000000000000000000000000000000000000000000000000000000
310
000000000000000000000000000000000000F5000000000000000000000000000000000000000000000000000000000000000000000000000000000000000000000000000000000000000000000000000000000000000000000000000000000000000000000000000000000000000000000000000000000000000000000000
310
0000000000000000000000000000000000000000000000000000000000000000000000000000F500000000000000000000000000000000000000000000000000000000000000000000000000000000000000000000000000000000000000000000000000000000000000000000000000000000000000000000000000000000
310
0000000000000000000000000000000000000000F500000000000000000000000000000000000000000000000000000000000000000000000000000000000000000000000000000000000000000000000000000000000000000000000000000000000000000000000000000000000000000000000000000000000000000000
310
00000000000000000000000000000000000000000000000000000000000000000000000000000000F50000000000000000000000000000000000000000000000000000000000000000000000000000000000000000000000000000000000000000000000000000000000000000000000000000000000000000000000000000
310
00000000000000000000000000000000000000000000F50000000000000000000000000000000000000000000000000000000000000000000000000000000000000000000000000000000000000000000000000000000000000000000000000000000000000000000000000000000000000000000000000000000000000000
310
000000000000000000000000000000000000000000000000000000000000000000000000000000000000F5000000000000000000000000000000000000000000000000000000000000000000000000000000000000000000000000000000000000000000000000000000000000000000000000000000000000000000000000
310
000000000000000000000000000000000000000000000000F5000000000000000000000000000000000000000000000000000000000000000000000000000000000000000000000000000000000000000000000000000000000000000000000000000000000000000000000000000000000000000000000000000000000000
310
0000000000000000000000000000000000000000000000000000000000000000000000000000000000000000F500000000000000000000000000000000000000000000000000000000000000000000000000000000000000000000000000000000000000000000000000000000000000000000000000000000000000000000
310
0000000000000000000000000000000000000000000000000000F500000000000000000000000000000000000000000000000000000000000000000000000000000000000000000000000000000000000000000000000000000000000000000000000000000000000000000000000000000000000000000000000000000000
310
00000000000000000000000000000000000000000000000000000000000000000000000000000000000000000000F50000000000000000000000000000000000000000000000000000000000000000000000000000000000000000000000000000000000000000000000000000000000000000000000000000000000000000
310
00000000000000000000000000000000000000000000000000000000F50000000000000000000000000000000000000000000000000000000000000000000000000000000000000000000000000000000000000000000000000000000000000000000000000000000000000000000000000000000000000000000000000000
310
000000000000000000000000000000000000000000000000000000000000000000000000000000000000000000000000F5000000000000000000000000000000000000000000000000000000000000000000000000000000000000000000000000000000000000000000000000000000000000000000000000000000000000
310
000000000000000000000000000000000000000000000000000000000000F5000000000000000000000000000000000000000000000000000000000000000000000000000000000000000000000000000000000000000000000000000000000000000000000000000000000000000000000000000000000000000000000000
310
0000000000000000000000000000000000000000000000000000000000000000000000000000000000000000000000000000F500000000000000000000000000000000000000000000000000000000000000000000000000000000000000000000000000000000000000000000000000000000000000000000000000000000
310
0000000000000000000000000000000000000000000000000000000000000000F500000000000000000000000000000000000000000000000000000000000000000000000000000000000000000000000000000000000000000000000000000000000000000000000000000000000000000000000000000000000000000000
310
00000000000000000000000000000000000000000000000000000000000000000000000000000000000000000000000000000000F50000000000000000000000000000000000000000000000000000000000000000000000000000000000000000000000000000000000000000000000000000000000000000000000000000
310
00000000000000000000000000000000000000000000000000000000000000000000F50000000000000000000000000000000000000000000000000000000000000000000000000000000000000000000000000000000000000000000000000000000000000000000000000000000000000000000000000000000000000000
310
000000000000000000000000000000000000000000000000000000000000000000000000000000000000000000000000000000000000F5000000000000000000000000000000000000000000000000000000000000000000000000000000000000000000000000000000000000000000000000000000000000000000000000
310
000000000000000000000000000000000000000000000000000000000000000000000000F5000000000000000000000000000000000000000000000000000000000000000000000000000000000000000000000000000000000000000000000000000000000000000000000000000000000000000000000000000000000000
310
0000000000000000000000000000000000000000000000000000000000000000000000000000000000000000000000000000000000000000F500000000000000000000000000000000000000000000000000000000000000000000000000000000000000000000000000000000000000000000000000000000000000000000
310
0000000000000000000000000000000000000000000000000000000000000000000000000000F500000000000000000000000000000000000000000000000000000000000000000000000000000000000000000000000000000000000000000000000000000000000000000000000000000000000000000000000000000000
310
00000000000000000000000000000000000000000000000000000000000000000000000000000000000000000000000000000000000000000000F50000000000000000000000000000000000000000000000000000000000000000000000000000000000000000000000000000000000000000000000000000000000000000
310
00000000000000000000000000000000000000000000000000000000000000000000000000000000F50000000000000000000000000000000000000000000000000000000000000000000000000000000000000000000000000000000000000000000000000000000000000000000000000000000000000000000000000000
310
000000000000000000000000000000000000000000000000000000000000000000000000000000000000000000000000000000000000000000000000F5000000000000000000000000000000000000000000000000000000000000000000000000000000000000000000000000000000000000000000000000000000000000
310
000000000000000000000000000000000000000000000000000000000000000000000000000000000000F5000000000000000000000000000000000000000000000000000000000000000000000000000000000000000000000000000000000000000000000000000000000000000000000000000000000000000000000000
310
0000000000000000000000000000000000000000000000000000000000000000000000000000000000000000000000000000000000000000000000000000F500000000000000000000000000000000000000000000000000000000000000000000000000000000000000000000000000000000000000000000000000000000
310
0000000000000000000000000000000000000000000000000000000000000000000000000000000000000000F500000000000000000000000000000000000000000000000000000000000000000000000000000000000000000000000000000000000000000000000000000000000000000000000000000000000000000000
310
00000000000000000000000000000000000000000000000000000000000000000000000000000000000000000000000000000000000000000000000000000000F50000000000000000000000000000000000000000000000000000000000000000000000000000000000000000000000000000000000000000000000000000
310
00000000000000000000000000000000000000000000000000000000000000000000000000000000000000000000F50000000000000000000000000000000000000000000000000000000000000000000000000000000000000000000000000000000000000000000000000000000000000000000000000000000000000000
310
000000000000000000000000000000000000000000000000000000000000000000000000000000000000000000000000000000000000000000000000000000000000F5000000000000000000000000000000000000000000000000000000000000000000000000000000000000000000000000000000000000000000000000
310
000000000000000000000000000000000000000000000000000000000000000000000000000000000000000000000000F5000000000000000000000000000000000000000000000000000000000000000000000000000000000000000000000000000000000000000000000000000000000000000000000000000000000000
310
0000000000000000000000000000000000000000000000000000000000000000000000000000000000000000000000000000000000000000000000000000000000000000F500000000000000000000000000000000000000000000000000000000000000000000000000000000000000000000000000000000000000000000
310
0000000000000000000000000000000000000000000000000000000000000000000000000000000000000000000000000000F500000000000000000000000000000000000000000000000000000000000000000000000000000000000000000000000000000000000000000000000000000000000000000000000000000000
310
00000000000000000000000000000000000000000000000000000000000000000000000000000000000000000000000000000000000000000000000000000000000000000000F50000000000000000000000000000000000000000000000000000000000000000000000000000000000000000000000000000000000000000
310
00000000000000000000000000000000000000000000000000000000000000000000000000000000000000000000000000000000F50000000000000000000000000000000000000000000000000000000000000000000000000000000000000000000000000000000000000000000000000000000000000000000000000000
310
000000000000000000000000000000000000000000000000000000000000000000000000000000000000000000000000000000000000000000000000000000000000000000000000F5000000000000000000000000000000000000000000000000000000000000000000000000000000000000000000000000000000000000
310
000000000000000000000000000000000000000000000000000000000000000000000000000000000000000000000000000000000000F5000000000000000000000000000000000000000000000000000000000000000000000000000000000000000000000000000000000000000000000000000000000000000000000000
310
0000000000000000000000000000000000000000000000000000000000000000000000000000000000000000000000000000000000000000000000000000000000000000000000000000F500000000000000000000000000000000000000000000000000000000000000000000000000000000000000000000000000000000
310
0000000000000000000000000000000000000000000000000000000000000000000000000000000000000000000000000000000000000000F500000000000000000000000000000000000000000000000000000000000000000000000000000000000000000000000000000000000000000000000000000000000000000000
310
00000000000000000000000000000000000000000000000000000000000000000000000000000000000000000000000000000000000000000000000000000000000000000000000000000000F50000000000000000000000000000000000000000000000000000000000000000000000000000000000000000000000000000
310
00000000000000000000000000000000000000000000000000000000000000000000000000000000000000000000000000000000000000000000F50000000000000000000000000000000000000000000000000000000000000000000000000000000000000000000000000000000000000000000000000000000000000000
310
000000000000000000000000000000000000000000000000000000000000000000000000000000000000000000000000000000000000000000000000000000000000000000000000000000000000F5000000000000000000000000000000000000000000000000000000000000000000000000000000000000000000000000
310
000000000000000000000000000000000000000000000000000000000000000000000000000000000000000000000000000000000000000000000000F5000000000000000000000000000000000000000000000000000000000000000000000000000000000000000000000000000000000000000000000000000000000000
310
0000000000000000000000000000000000000000000000000000000000000000000000000000000000000000000000000000000000000000000000000000000000000000000000000000000000000000F500000000000000000000000000000000000000000000000000000000000000000000000000000000000000000000
310
0000000000000000000000000000000000000000000000000000000000000000000000000000000000000000000000000000000000000000000000000000F500000000000000000000000000000000000000000000000000000000000000000000000000000000000000000000000000000000000000000000000000000000
310
00000000000000000000000000000000000000000000000000000000000000000000000000000000000000000000000000000000000000000000000000000000000000000000000000000000000000000000F50000000000000000000000000000000000000000000000000000000000000000000000000000000000000000
310
00000000000000000000000000000000000000000000000000000000000000000000000000000000000000000000000000000000000000000000000000000000F50000000000000000000000000000000000000000000000000000000000000000000000000000000000000000000000000000000000000000000000000000
310
000000000000000000000000000000000000000000000000000000000000000000000000000000000000000000000000000000000000000000000000000000000000000000000000000000000000000000000000F5000000000000000000000000000000000000000000000000000000000000000000000000000000000000
310
000000000000000000000000000000000000000000000000000000000000000000000000000000000000000000000000000000000000000000000000000000000000F5000000000000000000000000000000000000000000000000000000000000000000000000000000000000000000000000000000000000000000000000
310
0000000000000000000000000000000000000000000000000000000000000000000000000000000000000000000000000000000000000000000000000000000000000000000000000000000000000000000000000000F500000000000000000000000000000000000000000000000000000000000000000000000000000000
310
0000000000000000000000000000000000000000000000000000000000000000000000000000000000000000000000000000000000000000000000000000000000000000F500000000000000000000000000000000000000000000000000000000000000000000000000000000000000000000000000000000000000000000
310
00000000000000000000000000000000000000000000000000000000000000000000000000000000000000000000000000000000000000000000000000000000000000000000000000000000000000000000000000000000F50000000000000000000000000000000000000000000000000000000000000000000000000000
310
00000000000000000000000000000000000000000000000000000000000000000000000000000000000000000000000000000000000000000000000000000000000000000000F50000000000000000000000000000000000000000000000000000000000000000000000000000000000000000000000000000000000000000
310
000000000000000000000000000000000000000000000000000000000000000000000000000000000000000000000000000000000000000000000000000000000000000000000000000000000000000000000000000000000000F5000000000000000000000000000000000000000000000000000000000000000000000000
310
000000000000000000000000000000000000000000000000000000000000000000000000000000000000000000000000000000000000000000000000000000000000000000000000F5000000000000000000000000000000000000000000000000000000000000000000000000000000000000000000000000000000000000
310
0000000000000000000000000000000000000000000000000000000000000000000000000000000000000000000000000000000000000000000000000000000000000000000000000000000000000000000000000000000000000000F500000000000000000000000000000000000000000000000000000000000000000000
310
0000000000000000000000000000000000000000000000000000000000000000000000000000000000000000000000000000000000000000000000000000000000000000000000000000F500000000000000000000000000000000000000000000000000000000000000000000000000000000000000000000000000000000
310
00000000000000000000000000000000000000000000000000000000000000000000000000000000000000000000000000000000000000000000000000000000000000000000000000000000000000000000000000000000000000000000F50000000000000000000000000000000000000000000000000000000000000000
310
00000000000000000000000000000000000000000000000000000000000000000000000000000000000000000000000000000000000000000000000000000000000000000000000000000000F50000000000000000000000000000000000000000000000000000000000000000000000000000000000000000000000000000
310
000000000000000000000000000000000000000000000000000000000000000000000000000000000000000000000000000000000000000000000000000000000000000000000000000000000000000000000000000000000000000000000000F5000000000000000000000000000000000000000000000000000000000000
310
000000000000000000000000000000000000000000000000000000000000000000000000000000000000000000000000000000000000000000000000000000000000000000000000000000000000F5000000000000000000000000000000000000000000000000000000000000000000000000000000000000000000000000
310
0000000000000000000000000000000000000000000000000000000000000000000000000000000000000000000000000000000000000000000000000000000000000000000000000000000000000000000000000000000000000000000000000000F500000000000000000000000000000000000000000000000000000000
310
0000000000000000000000000000000000000000000000000000000000000000000000000000000000000000000000000000000000000000000000000000000000000000000000000000000000000000F500000000000000000000000000000000000000000000000000000000000000000000000000000000000000000000
310
00000000000000000000000000000000000000000000000000000000000000000000000000000000000000000000000000000000000000000000000000000000000000000000000000000000000000000000000000000000000000000000000000000000F50000000000000000000000000000000000000000000000000000
310
00000000000000000000000000000000000000000000000000000000000000000000000000000000000000000000000000000000000000000000000000000000000000000000000000000000000000000000F50000000000000000000000000000000000000000000000000000000000000000000000000000000000000000
310
000000000000000000000000000000000000000000000000000000000000000000000000000000000000000000000000000000000000000000000000000000000000000000000000000000000000000000000000000000000000000000000000000000000000F5000000000000000000000000000000000000000000000000
310
000000000000000000000000000000000000000000000000000000000000000000000000000000000000000000000000000000000000000000000000000000000000000000000000000000000000000000000000F5000000000000000000000000000000000000000000000000000000000000000000000000000000000000
310
0000000000000000000000000000000000000000000000000000000000000000000000000000000000000000000000000000000000000000000000000000000000000000000000000000000000000000000000000000000000000000000000000000000000000000F500000000000000000000000000000000000000000000
310
0000000000000000000000002828000000000000000000002828000000000000000000000000000000000000000000000000000000000000000028280028000000000000000000000000000000000000000000000000F500000000000000000000000000000000000000000000000000000000000000000000000000000000
310
00000000000000000000000000000000000000000000000000000000000000000000000000000000000000000000000000000000000000000000000000000000000000000000000000000000000000000000000000000000000000000000000000000000000000000000F50000000000000000000000000000000000000000
310
00000000000000000000000000002828282828282828282828282828000000000000000000000000000000000000000000000000000000000000282828282828282828282828000000000000000000000000000000000000F50000000000000000000000000000000000000000000000000000000000000000000000000000
310
000000000000000000000000000000000000000000000000000000000000000000000000000000000000000000000000000000000000000000000000000000000000000000000000000000000000000000000000000000000000000000000000000000000000000000000000F5000000000000000000000000000000000000
310
000000000000000028282828282800002800000000DCDCDC00000000002800000000000000000000000000000000000000000000000000000000000000000028000000DCDCDCDC00000000000000000000000000000000000000F5000000000000000000000000000000000000000000000000000000000000000000000000
310
0000000000000000000000000000000000000000000000000000000000000000000000000000000000000000000000000000000000000000000000000000000000000000000000000000000000000000000000000000000000000000000000000000000000000000000000000000F500000000000000000000000000000000
310
00000000000000000000DCDCDCDCDC0028002800000000DCDCDC00000000002800002828282828282828282800000000000000000000000000000000000000000028000000DCDCDCDC00000000000000000000000000000000000000F500000000000000000000000000000000000000000000000000000000000000000000
310
00000000000000000000000000000000000000000000000000000000000000000000000000000000000000000000000000000000000000000000000000000000000000000000000000000000000000000000000000000000000000000000000000000000000000000000000000000000F50000000000000000000000000000
310
000000000000000000000000DCDCDCDCDC0028002800000000000000000000000028002800DCDCDCDCDCDCDCDCDC000000000000000000000000000000000000000000280000000000000000000000000000000000000000000000000000F50000000000000000000000000000000000000000000000000000000000000000
310
000000000000000000000000000000000000000000000000000000000000000000000000000000000000000000000000000000000000000000000000000000000000000000000000000000000000000000000000000000000000000000000000000000000000000000000000000000000000F5000000000000000000000000
310
0000000000000000000000000000DCDCDCDCDC0000282800000000000000000000000028002800DCDC00DCDCDC00DC00000000000000000000000000000000000000000000280000000000000000000000000000000000000000000000000000F5000000000000000000000000000000000000000000000000000000000000
310
0000000000000000000000000000000000000000000000000000000000000000000000000000000000000000000000000000000000000000000000000000000000000000000000000000000000000000000000000000000000000000000000000000000000000000000000000000000000000000F500000000000000000000
310
0000000000000000000000000000000000000000000000002800000000002D00000000000028280000000000000000000000000000000000000000000000000000000000000000280000000000000000000000000000000000000000000000000000F500000000000000000000000000000000000000000000000000000000
310
00000000000000000000000000000000000000000000000000000000000000000000000000000000000000000000000000000000000000000000000000000000000000000000000000000000000000000000000000000000000000000000000000000000000000000000000000000000000000000000F50000000000000000
310
00000000000000000028282828282828282828282828282828282828282828282828282828282828282828282828282828282828000000000000000000000000000000000000F50000280000000000000000000000000000000000000000000000000000F50000000000000000000000000000000000000000000000000000
310
000000000000000000000000000000000000000000000000000000000000000000000000000000000000000000000000000000000000000000000000000000000000000000000000000000000000000000000000000000000000000000000000000000000000000000000000000000000000000000000000F5000000000000
310
00000000000000000000000028000000000000000000000000000000282800F5F5F52DF5F5F5000000280000000000000000000000280000000000000000000000000000000000F5F50000280000000000000000000000000000000000000000000000000000F5000000000000000000000000000000000000000000000000
310
0000000000000000000000000000000000000000000000000000000000000000000000000000000000000000000000000000000000000000000000000000000000000000000000000000000000000000000000000000000000000000000000000000000000000000000000000000000000000000000000000000F500000000
310
0000000000000000000000000028280000000000000000000000000000002800280000002D000000F5F500280000000000000000000000280000000000000000000000000000000000F5F50000280000000000000000000000000000000000000000000000000000F500000000000000000000000000000000000000000000
310
00000000000000000000000000000000000000000000000000000000000000000000000000000000000000000000000000000000000000000000000000000000000000000000000000000000000000000000000000000000000000000000000000000000000000000000000000000000000000000000000000000000F50000
310
000000000000000000000000000000002800000000282828282828282828282828282828F5F52DF5F5F5000028280000000000000000DCDCDC280000000000000000000000000000000000F5000000280000000000000000000000000000000000000000000000000000F50000000000000000000000000000000000000000
310
000000000000000000000000000000000000000000000000000000000000000000000000000000000000000000000000000000000000000000000000000000000000000000000000000000000000000000000000000000000000000000000000000000000000000000000000000000000000000000000000000000000000F5
310
0000000000000000000000000000000000002800000000282800000000000000000028F5F5F500002D000000F528F5280000000000000000DCDCDC280000000000000000000000000000000000F5000000F50000000000000000000000000000000000000000000000000000F5000000000000000000000000000000000000
310
00000000000000000000000000000000000000000000000000000000000000000000000000000000000000000000000000000000000000000000000000000000000000000000000000000000000000000000000000000000000000000000000000000000000000000000000000000000000000000000000000000000000000
310
00F5000000000000000000000000000000000000280000000028280000000000000000F528F5000000002D0000000000F5280000000000000000DCDCDC280000000000000000000000000000000000F5000000F50000000000000000000000000000000000000000000000000000F500000000000000000000000000000000
310
00000000000000000000000000000000000000000000000000000000000000000000000000000000000000000000000000000000000000000000000000000000000000000000000000000000000000000000000000000000000000000000000000000000000000000000000000000000000000000000000000000000000000
310
000000F5000000000000000000000000000000000000280000000028000000000000000000F52800000000002D00000000000028000000000000000000DCDC280000000000000000000000000000000000F5000000F50000000000000000000000000000000000000000000000000000F50000000000000000000000000000
310
00000000000000000000000000000000000000000000000000000000000000000000000000000000000000000000000000000000000000000000000000000000000000000000000000000000000000000000000000000000000000000000000000000000000000000000000000000000000000000000000000000000000000
310
0000000000F5000000000000000000000000000000000000280000000028000000000000000000F528000000F5F52DF5F528000000280000000000000000DCDCDC28000000000000000000000000000000000028000000F50000000000000000000000000000000000000000000000000000F5000000000000000000000000
310
00000000000000000000000000000000000000000000000000000000000000000000000000000000000000000000000000000000000000000000000000000000000000000000000000000000000000000000000000000000000000000000000000000000000000000000000000000000000000000000000000000000000000
310
00000000000000F5000000000000000000000000000000000000280000000028000000000000000000F5F5000000F50028000028000000F5000000000000000000000028000000000000000000000000000000000028000000F50000000000000000000000000000000000000000000000000000F500000000000000000000
310
00000000000000000000000000000000000000000000000000000000000000000000000000000000000000000000000000000000000000000000000000000000000000000000000000000000000000000000000000000000000000000000000000000000000000000000000000000000000000000000000000000000000000
310
000000000000000000F5000000000000000000000000000000000000280000000028000000000000000000F5F5002D2D2D282D2D2D2D2D282828282828282828282828282828000000000000000000000000000000000028000000F50000000000000000000000000000000000000000000000000000F50000000000000000
310
00000000000000000000000000000000000000000000000000000000000000000000000000000000000000000000000000000000000000000000000000000000000000000000000000000000000000000000000000000000000000000000000000000000000000000000000000000000000000000000000000000000000000
310
0000000000000000000000F5000000000000000000000000000000000000280000000028000000000000000000F5F5000000F5002D282828000000F5000000000000000000000028000000000000000000000000000000000028000000F50000000000000000000000000000000000000000000000000000F5000000000000
310
00000000000000000000000000000000000000000000000000000000000000000000000000000000000000000000000000000000000000000000000000000000000000000000000000000000000000000000000000000000000000000000000000000000000000000000000000000000000000000000000000000000000000
310
00000000000000000000000000F5000000000000000000000000000000000000280000000028000000000000000000F5F500000028002D002828000000F5000000000000000000000028000000000000000000000000000000000028F50000F50000000000000000000000000000000000000000000000000000F500000000
310
00000000000000000000000000000000000000000000000000000000000000000000000000000000000000000000000000000000000000000000000000000000000000000000000000000000000000000000000000000000000000000000000000000000000000000000000000000000000000000000000000000000000000
310
000000000000000000000000000000F5000000000000000000000000000000000000280000000028000000000000000000F5F500002800F52DF5F500282800F5000000000000000000000028000000000000000000000000000000000028F50000F50000000000000000000000000000000000000000000000000000F50000
310
00000000000000000000000000000000000000000000000000000000000000000000000000000000000000000000000000000000000000000000000000000000000000000000000000000000000000000000000000000000000000000000000000000000000000000000000000000000000000000000000000000000000000
310
0000000000000000000000000000000000F5000000000000000000000000000000000000280000000028000000000000000000F5F500280000002D00000000002828000000000000000000000028000000000000000000000000000000000028F50000F50000000000000000000000000000000000000000000000000000F5
310
00000000000000000000000000000000000000000000000000000000000000000000000000000000000000000000000000000000000000000000000000000000000000000000000000000000000000000000000000000000000000000000000000000000000000000000000000000000000000000000000000000000000000
310
00000000000000000000000000000000000000F5000000000000000000000000000000000000280000000028000000000000000000F5F528000000002D000000000000F5282828282828280000000028000000000000000000000000000000000028F50000F500000000000000000000000000000000000000000000000000
310
00F50000000000000000000000000000000000000000000000000000000000000000000000000000000000000000000000000000000000000000000000000000000000000000000000000000000000000000000000000000000000000000000000000000000000000000000000000000000000000000000000000000000000
310
000000000000000000000000000000000000000000F5000000000000000000000000000000DCDCDC280000000028000000000000000000F52800000000002D000000000000F500DCDC00DC00DC0000000028000000000000000000000000000000000028F50000F50000000000000000000000000000000000000000000000
310
000000F5000000000000000000000000000000000000000000000000000000000000000000000000000000000000000000000000000000000000000000000000000000000000000000000000000000000000000000000000000000000000000000000000000000000000000000000000000000000000000000000000000000
310
0000000000000000000000000000000000000000000000F5000000000000000000000000000000DCDCDC280000000028000000000000000000280000000000002D000000000000F500DCDCDCDCDCDC00DC00DC28000000000000000000000000000000000028F50000F5000000000000000000000000000000000000000000
310
0000000000F500000000000000000000000000000000000000000000000000000000000000000000000000000000000000000000000000000000000000000000000000000000000000000000000000000000000000000000000000000000000000000000000000000000000000000000000000000000000000000000000000
310
00000000000000000000000000000000000000000000000000F5000000000000000000000000000000DCDCDC280000DCDCDC00000028DC28DCDC28F50000000000002D000000000000F5F5DCDC00DCDCDC00DCDCDC28000000000000000000000000000000000028F5F500F500000000000000000000000000000000000000
310
00000000000000F50000000000000000000000000000000000000000000000000000000000000000000000000000000000000000000000000000000000000000000000000000000000000000000000000000000000000000000000000000000000000000000000000000000000000000000000000000000000000000000000
310
000000000000000000000000000000000000000000000000000000F5000000000000000000000000000000DC00DC280000DCDCDC000000DCDCDCDCDC00F50000000000002D000000000000F5F500000000000000DCDCDC28000000000000000000000000000000000028F5F500F50000000000000000000000000000000000
310
000000000000000000F5000000000000000000000000000000000000000000000000000000000000000000000000000000000000000000000000000000000000000000000000000000000000000000000000000000000000000000000000000000000000000000000000000000000000000000000000000000000000000000
310
0000000000000000000000000000000000000000000000000000000000F5000000000000000000000000000000DCDCDC280000DCDC2800000000DCDCDCDCF5F50000000000002D000000000000F500F5000000000000DCDCDC28000000000000000000000000000000000028F5F500F5000000000000000000000000000000
310
0000000000000000000000F500000000000000000000000000000000000000000000000000000000000000000000000000000000000000000000000000000000000000000000000000000000000000000000000000000000000000000000000000000000000000000000000000000000000000000000000000000000000000
310
00000000000000000000000000000000000000000000000000000000000000F500000000000000000000000000000000000028000000002800000000000000F500F50000000000002D000000000000F500F5000000000000DCDCDC28000000000000000000000000000000000028F5F500F500000000000000000000000000
310
00000000000000000000000000F50000000000000000000000000000000000000000000000000000000000000000000000000000000000000000000000000000000000000000000000000000000000000000000000000000000000000000000000000000000000000000000000000000000000000000000000000000000000
310
000000000000000000000000000000000000000000000000000000000000000000F500000000000000000000000000000000000028000000002800000000000000F500F50000000000002D000000000000F50000F5000000000000000028000000000000000000000000000000000028F5F500F50000000000000000000000
310
000000000000000000000000000000F5000000000000000000000000000000000000000000000000000000000000000000000000000000000000000000000000000000000000000000000000000000000000000000000000000000000000000000000000000000000000000000000000000000000000000000000000000000
310
0000000000000000000000000000000000000000000000000000000000000000000000F5000000000000000000000000000000000000280000000028000000000000F50000F50000000000002D000000000000F5000000F50000000000000028000000000000000000000000000000000028F5F500F5000000000000000000
310
0000000000000000000000000000000000F500000000000000000000000000000000000000000000000000000000000000000000000000000000000000000000000000000000000000000000000000000000000000000000000000000000000000000000000000000000000000000000000000000000000000000000000000
310
00000000000000000000000000000000000000000000000000000000000000000000000000F50000000000000000000000000000000000002800000000280000000000F5000000F50000000000002D000000000000F5000000F50000000000000028000000000000000000000000000000000028F5F500F500000000000000
310
00000000000000000000000000000000000000F50000000000000000000000000000000000000000000000000000000000000000000000000000000000000000000000000000000000000000000000000000000000000000000000000000000000000000000000000000000000000000000000000000000000000000000000
310
000000000000000000000000000000000000000000000000000000000000000000000000000000F50000000000000000000000000000000000002800000000280000000000F500002DF50000000000002D000000000000F5002D0000F500000000000028000000000000000000000000000000000028F5F500F50000000000
310
000000000000000000000000000000000000000000F5000000000000000000000000000000000000000000000000000000000000000000000000000000000000000000000000000000000000000000000000000000000000000000000000000000000000000000000000000000000000000000000000000000000000000000
310
0000000000000000000000000000000000000000000000000000000000000000000000000000000000F50000000000000000000000000000000000002800000000280000000000F500002DF50000000000002D000000000000F5002D0000F500000000000028000000000000000000000000000000000028F5F500F5000000
310
0000000000000000000000000000000000000000000000F500000000000000000000000000000000000000000000000000000000000000000000000000000000000000000000000000000000000000000000000000000000000000000000000000000000000000000000000000000000000000000000000000000000000000
310
00000000000000000000000000000000000000000000000000000000000000000000000000000000000000F50000000000000000000000000000000000002800000000280000000000F500F52DF50000000000002D000000000000F5F52DF500F500000000000028000000000000000000000000000000000028F5F500F500
310
00000000000000000000000000000000000000000000000000F50000000000000000000000000000000000000000000000000000000000000000000000000000000000000000000000000000000000000000000000000000000000000000000000000000000000000000000000000000000000000000000000000000000000
310
000000000000000000000000000000000000000000000000000000000000000000000000000000000000000000F500000000000000000000000000000000000028000000002800000000002D2D2D2D2D2D2D2D2D2D2D2D2D2D2D2D2D2D2D2D2D2D2D2828282828282828000000000000000000000000000000000028F5F500
310
F50000000000000000000000000000000000000000000000000000F5000000000000000000000000000000000000000000000000000000000000000000000000000000000000000000000000000000000000000000000000000000000000000000000000000000000000000000000000000000000000000000000000000000
310
0000000000000000000000000000000000000000000000000000000000000000000000000000000000000000000000F50000000000000000000000000000000000002800000000280000000000F500F52DF50000000000002D000000000000F5F52DF500F500000000000028000000000000000000000000000000000028F5
310
F500F50000000000000000000000000000000000000000000000000000F500000000000000000000000000000000000000000000000000000000000000000000000000000000000000000000000000000000000000000000000000000000000000000000000000000000000000000000000000000000000000000000000000
310
00000000000000000000000000000000000000000000000000000000000000000000000000000000000000000000000000F50000000000000000000000000000000000002800000000280000000000F500002DF50000000000002D000000000000F5002D0000F5000000DCDCDC280000000000000000000000000000000000
310
28F5F500F50000000000000000000000000000000000000000000000000000F50000000000000000000000000000000000000000000000000000000000000000000000000000000000000000000000000000000000000000000000000000000000000000000000000000000000000000000000000000000000000000000000
310
000000000000000000000000000000000000000000000000000000000000000000000000000000000000000000000000000000F50000000000000000000000000000000000002800000000282800000000F5000028F50000000000002D0000002D2D2DF500280000F5000000DCDCDC28000000000000000000000000000000
310
000028F50000F50000000000000000000000000000000000000000000000000000F5000000000000000000000000000000000000000000000000000000000000000000000000000000000000000000000000000000000000000000000000000000000000000000000000000000000000000000000000000000000000000000
310
0000000000000000000000000000000000000000000000000000000000000000000000000000000000000000000000000000000000F5000000000000000000000000000000000000280000000028280000000028280028F50000000000002D0000002D282DF5002800F528000000DCDCDC2800000000000000000000000000
310
0000000028F50000F50000000000000000000000000000000000000000000000000000F500000000000000000000000000000000000000000000000000000000000000000000000000000000000000000000000000000000000000000000000000000000000000000000000000000000000000000000000000000000000000
310
00000000000000000000000000000000000000000000000000000000000000000000000000000000000000000000000000000000000000F500000000000000000000000000000000002828000000002828282828282828F528F50000000000002D0000002D2D28F5F528F5F528000000DCDCDC280000000000000000000000
310
00000000000028280000280000000000000000000000000000000000000000000000000000F50000000000000000000000000000000000000000000000000000000000000000000000000000000000000000000000000000000000000000000000000000000000000000000000000000000000000000000000000000000000
310
000000000000000000000000000000000000000000000000000000000000000000000000000000000000000000000000000000000000000000F5000000000000000000000000000000000000280000000028000000000028280028F50000000000002D000000000000F5282800002800000000000028000000000000000000
310
00000000000000002828F5F5280000000000000000000000000000000000000000000000000000F5000000000000000000000000000000000000000000000000000000000000000000000000000000000000000000000000000000000000000000000000000000000000000000000000000000000000000000000000000000
310
0000000000000000000000000000000000000000000000000000000000000000000000000000000000000000000000000000000000000000000000F500000000000000000000000000000000002828282828282828282828282828282828F5F5F5F5F5F52DF5F5F5F5F5F52828282828282828282828282800000000000000
310
000000000000000000002828F5F5280000000000000000000000000000000000000000000000000000F500000000000000000000000000000000000000000000000000000000000000000000000000000000000000000000000000000000000000000000000000000000000000000000000000000000000000000000000000
310
00000000000000000000000000000000000000000000000000000000000000000000000000000000000000000000000000000000000000000000000000F5000000000000000000000000000000000000000000000028280000002828000028280000000000002D000000000000280028000028000000000000000000000000
310
00000000000000000000000028280000280000000000000000000000000000000000000000000000000000F50000000000000000000000000000000000000000000000000000000000000000000000000000000000000000000000000000000000000000000000000000000000000000000000000000000000000000000000
310
000000000000000000000000000000000000000000000000000000000000000000000000000000000000000000000000000000000000000000000000000000F5000000000000000000000000000000000000000000000028000000002828000028280000000000002D00000000000028002828002800000000000000000000
310
000000000000000000000000000028280000280000000000000000000000000000000000000000000000000000F5000000000000000000000000000000000000000000000000000000000000000000000000000000000000000000000000000000000000000000000000000000000000000000000000000000000000000000
310
0000000000000000000000000000000000000000000000000000000000000000000000000000000000000000000000000000000000000000000000000000000000F500000000000000000000000000000000000000000000002800000028002800002828000000000000000000000000002800280028280000000000000000
310
0000000000000000000000000000000028280000280000000000000000000000000000000000000000000000000000F500000000000000000000000000000000000000000000000000000000000000000000000000000000000000000000000000000000000000000000000000000000000000000000000000000000000000
310
00000000000000000000000000000000000000000000000000000000000000000000000000000000000000000000000000000000000000000000000000000000000000F5000000000000000000000000000000000000000000DCDCDC0000002800280000282800000000000000000000000000280028000028000000000000
310
00000000000000000000000000000000000028280000280000000000000000000000000000000000000000000000000000F50000000000000000000000000000000000000000000000000000000000000000000000000000000000000000000000000000000000000000000000000000000000000000000000000000000000
310
000000000000000000000000000000000000000000000000000000000000000000000000000000000000000000000000000000000000000000000000000000000000000000F5000000000000000000000000000000000000000000DCDCDC000000280028000028280000000000000000000000000028002800002800000000
310
000000000000000000000000000000000000000028280000280000000000000000000000000000000000000000000000000000F5000000000000000000000000000000000000000000000000000000000000000000000000000000000000000000000000000000000000000000000000000000000000000000000000000000
310
0000000000000000000000000000000000000000000000000000000000000000000000000000000000000000000000000000000000000000000000000000000000000000000000F5000000000000000000000000000000000000000000DCDCDC00002800002800002828002800000000000000000000282800280000282800
310
0000000000000000000000000000000000000000002828280000280028000000000000000000000000000000000000000000000000F500000000000000000000000000000000000000000000000000000000000000000000000000000000000000000000000000000000000000000000000000000000000000000000000000
310
00000000000000000000000000000000000000000000000000000000000000000000000000000000000000000000000000000000000000000000000000000000000000000000000000F50000000000000000000000000000000000000000000000280000280000280000282828282828282828282828282828280028000028
310
0028000000000000000000000000000000000000000028282828282828282828DC282828DC280000000000000000000000000000000000F50000000000000000000000000000000000000000000000000000000000000000000000000000000000000000000000000000000000000000000000000000000000000000000000
310
000000000000000000000000000000000000000000000000000000000000000000000000000000000000000000000000000000000000000000000000000000000000000000000000000000F50000000000000000000000000000000000000000000000000028000000280000280000000000DCDCDCDCDCDC00000000002800
310
00280000280000000000000000000000000000000000000000002800000028000000DCDCDCDCDC000000000000000000000000000000000000F5000000000000000000000000000000000000000000000000000000000000000000000000000000000000000000000000000000000000000000000000000000000000000000
310
0000000000000000000000000000000000000000000000000000000000000000000000000000000000000000000000000000000000000000000000000000000000000000000000000000000000F50000000000000000000000000000000000000028282828282828000000280000280000000000DCDCDC00DC000000000000
310
280000280000280000000028000000000000000000000000000000002800000028000000DCDCDCDCDC000000000000000000000000000000000000F500000000000000000000000000000000000000000000000000000000000000000000000000000000000000000000000000000000000000000000000000000000000000
310
00000000000000000000000000000000000000000000000000000000000000000000000000000000000000000000000000000000000000000000000000000000000000000000000000000000000000F500000000000000000000000000000000000000DC00DCDCDCDC00000000280000280000000000000000000000000000
310
0000280000280000002828282800282828280000000000000000000000002800000028000000DC000000DC000000000000000000000000000000000000F50000000000000000000000000000000000000000000000000000000000000000000000000000000000000000000000000000000000000000000000000000000000
310
000000000000000000000000000000000000000000000000000000000000000000000000000000000000000000000000000000000000000000000000000000000000000000000000000000000000000000F500000000000000000000000000000000000000DCDCDCDC00DC0000000028000028000000000000000000000000
310
000000002800002800000000280000000000000028000000000000000000000028000000280000000000000000000000000000000000000000000000000000F5000000000000000000000000000000000000000000000000000000000000000000000000000000000000000000000000000000000000000000000000000000
310
0000000000000000000000000000000000000000000000000000000000000000000000000000000000000000000000000000000000000000000000000000000000000000000000000000000000000000000000F500000000000000000000000000000000000000DC00DCDCDCDC000000002800002828282828282828282828
310
2828282828282800002800000028000000000000000028000000000000000028282828282828282828280000000000000000000000000000000000000000000000F500000000000000000000000000000000000000000000000000000000000000000000000000000000000000000000000000000000000000000000000000
310
00000000000000000000000000000000000000000000000000000000000000000000000000000000000000000000000000000000000000000000000000000000000000000000000000000000000000000000000000F500000000000000000000000000000000000000000000000000000000002800002828000000000000DC
310
DC000000000000282800002800002800000000000000000000280000000000000000282828DCDCDC282828000000000000000000000000000000000000000000000000F50000000000000000000000000000000000000000000000000000000000000000000000000000000000000000000000000000000000000000000000
310
000000000000000000000000000000000000000000000000000000000000000000000000000000000000000000000000000000000000000000000000000000000000000000000000000000000000000000000000000000F5000000000000000000000000000000000000000000000000000000000028000000000000000000
310
00DCDC00000000000000000000280000280000000000F500000000280000000000000000000000DCDCDC000000000000000000000000000000000000000000000000000000F5000000000000000000000000000000000000000000000000000000000000000000000000000000000000000000000000000000000000000000
310
0000000000000000000000000000000000000000000000000000000000000000000000000000000000000000000000000000000000000000000000000000000000000000000000000000000000000000000000000000000000F500000000000000000000000000000000000000000000000000000000002800000000000000
310
000000DCDC00000000000000000000280000280000000000F500000000280000000000000000000000DCDCDC000000000000000000000000000000000000000000000000000000F500000000000000000000000000000000000000000000000000000000000000000000000000000000000000000000000000000000000000
310
00000000000000000000000000000000000000000000000000000000000000000000000000000000000000000000000000000000000000000000000000000000000000000000000000000000000000000000000000000000000000F50000000000000000000000000000000000000000000000000000000000280000000000
310
00000000000000000000000000000000002800002800000000F5F500000000280000000000000000000000000000000000000000000000000000000000000000000000000000000000F50000000000000000000000000000000000000000000000000000000000000000000000000000000000000000000000000000000000
310
000000000000000000000000000000000000000000000000000000000000000000000000000000000000000000000000000000000000000000000000000000000000000000000000000000000000000000000000000000000000000000F5000000000000000000000000000000000000000000000000000000000028000000
310
000000000000000000000000000000000000002800002800000000000000000000280000000000000000000000000000000000000000000000000000000000000000000000000000000000F5000000000000000000000000000000000000000000000000000000000000000000000000000000000000000000000000000000
310
0000000000000000000000000000000000000000000000000000000000000000000000000000000000000000000000000000000000000000000000000000000000000000000000000000000000000000000000000000000000000000000000F500000000000000000000000000000000000000000000000000000000002828
310
2828282828282828282828282828282828282828282800000028000000000000000028000000000000000000000000000000000000000000000000000000000000000000000000000000000000F500000000000000000000000000000000000000000000000000000000000000000000000000000000000000000000000000
310
00000000000000000000000000000000000000000000000000000000000000000000000000000000000000000000000000000000000000000000000000000000000000000000000000000000000000000000000000000000000000000000000000F50000000000000000000000000000000000000000000000000000000000
310
280000000000000000DCDCDCDCDC0000000000000000002800000000280000000000000028000000000000000000000000000000000000000000000000000000000000000000000000000000000000F50000000000000000000000000000000000000000000000000000000000000000000000000000000000000000000000
310
000000000000000000000000000000000000000000000000000000000000000000000000000000000000000000000000000000000000000000000000000000000000000000000000000000000000000000000000000000000000000000000000000000F5000000000000000000000000000000000000000000000000000000
310
0000000000000000000000DCDCDC00DC0000000000000000000000000000282828000028282800000000000000000000000000000000000000000000000000000000000000000000000000000000000000F5000000000000000000000000000000000000000000000000000000000000000000000000000000000000000000
310
0000000000000000000000000000000000000000000000000000000000000000000000000000000000000000000000000000000000000000000000000000000000000000000000000000000000000000000000000000000000000000000000000000000000F500000000000000000000000000000000000000000000000000
310
00000000000000000000000000DCDCDC00DC0000000000000000000000000000000000282800000000000000000000000000000000000000000000000000000000000000000000000000000000000000000000F500000000000000000000000000000000000000000000000000000000000000000000000000000000000000
310
00000000000000000000000000000000000000000000000000000000000000000000000000000000000000000000000000000000000000000000000000000000000000000000000000000000000000000000000000000000000000000000000000000000000000F50000000000000000000000000000000000000000000000
310
00000000000000000000000000000000000000000000000000000000000000000000000000000000000000000000000000000000000000000000000000000000000000000000000000000000000000000000000000F50000000000000000000000000000000000000000000000000000000000000000000000000000000000
310
000000000000000000000000000000000000000000000000000000000000000000000000000000000000000000000000000000000000000000000000000000000000000000000000000000000000000000000000000000000000000000000000000000000000000000F5000000000000000000000000000000000000000000
310
000000000000000000000000000000000000000000000000000000000000000000000000000000000000000000000000000000000000000000000000000000000000000000000000000000000000000000000000000000F5000000000000000000000000000000000000000000000000000000000000000000000000000000
310
0000000000000000000000000000000000000000000000000000000000000000000000000000000000000000000000000000000000000000000000000000000000000000000000000000000000000000000000000000000000000000000000000000000000000000000000F500000000000000000000000000000000000000
310
0000000000000000000000000000000000000000000000000000000000000000000000000000000000000000000000000000000000000000000000000000000000000000000000000000000000000000000000000000000000F500000000000000000000000000000000000000000000000000000000000000000000000000
310
00000000000000000000000000000000000000000000000000000000000000000000000000000000000000000000000000000000000000000000000000000000000000000000000000000000000000000000000000000000000000000000000000000000000000000000000000F50000000000000000000000000000000000
310
00000000000000000000000000000000000000000000000000000000000000000000000000000000000000000000000000000000000000000000000000000000000000000000000000000000000000000000000000000000000000F50000000000000000000000000000000000000000000000000000000000000000000000
310
000000000000000000000000000000000000000000000000000000000000000000000000000000000000000000000000000000000000000000000000000000000000000000000000000000000000000000000000000000000000000000000000000000000000000000000000000000F5000000000000000000000000000000
310
000000000000000000000000000000000000000000000000000000000000000000000000000000000000000000000000000000000000000000000000000000000000000000000000000000000000000000000000000000000000000000F5000000000000000000000000000000000000000000000000000000000000000000
310
0000000000000000000000000000000000000000000000000000000000000000000000000000000000000000000000000000000000000000000000000000000000000000000000000000000000000000000000000000000000000000000000000000000000000000000000000000000000F500000000000000000000000000
310
0000000000000000000000000000000000000000000000000000000000000000000000000000000000000000000000000000000000000000000000000000000000000000000000000000000000000000000000000000000000000000000000F500000000000000000000000000000000000000000000000000000000000000
310
00000000000000000000000000000000000000000000000000000000000000000000000000000000000000000000000000000000000000000000000000000000000000000000000000000000000000000000000000000000000000000000000000000000000000000000000000000000000000F50000000000000000000000
310
00000000000000000000000000000000000000000000000000000000000000000000000000000000000000000000000000000000000000000000000000000000000000000000000000000000000000000000000000000000000000000000000000F50000000000000000000000000000000000000000000000000000000000
310
000000000000000000000000000000000000000000000000000000000000000000000000000000000000000000000000000000000000000000000000000000000000000000000000000000000000000000000000000000000000000000000000000000000000000000000000000000000000000000F5000000000000000000
310
000000000000000000000000000000000000000000000000000000000000000000000000000000000000000000000000000000000000000000000000000000000000000000000000000000000000000000000000000000000000000000000000000000F5000000000000000000000000000000000000000000000000000000
310
0000000000000000000000000000000000000000000000000000000000000000000000000000000000000000000000000000000000000000000000000000000000000000000000000000000000000000000000000000000000000000000000000000000000000000000000000000000000000000000000F500000000000000
310
0000000000000000000000000000000000000000000000000000000000000000000000000000000000000000000000000000000000000000000000000000000000000000000000000000000000000000000000000000000000000000000000000000000000F500000000000000000000000000000000000000000000000000
310
00000000000000000000000000000000000000000000000000000000000000000000000000000000000000000000000000000000000000000000000000000000000000000000000000000000000000000000000000000000000000000000000000000000000000000000000000000000000000000000000000F50000000000
310
00000000000000000000000000000000000000000000000000000000000000000000000000000000000000000000000000000000000000000000000000000000000000000000000000000000000000000000000000000000000000000000000000000000000000F50000000000000000000000000000000000000000000000
310
000000000000000000000000000000000000000000000000000000000000000000000000000000000000000000000000000000000000000000000000000000000000000000000000000000000000000000000000000000000000000000000000000000000000000000000000000000000000000000000000000000F5000000
310
000000000000000000000000000000000000000000000000000000000000000000000000000000000000000000000000000000000000000000000000000000000000000000000000000000000000000000000000000000000000000000000000000000000000000000F5000000000000000000000000000000000000000000
310
0000000000000000000000000000000000000000000000000000000000000000000000000000000000000000000000000000000000000000000000000000000000000000000000000000000000000000000000000000000000000000000000000000000000000000000000000000000000000000000000000000000000F500
310
0000000000000000000000000000000000000000000000000000000000000000000000000000000000000000000000000000000000000000000000000000000000000000000000000000000000000000000000000000000000000000000000000000000000000000000000F500000000000000000000000000000000000000
310
00000000000000000000000000000000000000000000000000000000000000000000000000000000000000000000000000000000000000000000000000000000000000000000000000000000000000000000000000000000000000000000000000000000000000000000000000000000000000000000000000000000000000
310
F5000000000000000000000000000000000000000000000000000000000000000000000000000000000000000000000000000000000000000000000000000000000000000000000000000000000000000000000000000000000000000000000000000000000000000000000000F50000000000000000000000000000000000
310
00000000000000000000000000000000000000000000000000000000000000000000000000000000000000000000000000000000000000000000000000000000000000000000000000000000000000000000000000000000000000000000000000000000000000000000000000000000000000000000000000000000000000
310
0000F5000000000000000000000000000000000000000000000000000000000000000000000000000000000000000000000000000000000000000000000000000000000000000000000000000000000000000000000000000000000000000000000000000000000000000000000000F5000000000000000000000000000000
310
00000000000000000000000000000000000000000000000000000000000000000000000000000000000000000000000000000000000000000000000000000000000000000000000000000000000000000000000000000000000000000000000000000000000000000000000000000000000000000000000000000000000000
310
00000000F5000000000000000000000000000000000000000000000000000000000000000000000000000000000000000000000000000000000000000000000000000000000000000000000000000000000000000000000000000000000000000000000000000000000000000000000000F500000000000000000000000000
310
00000000000000000000000000000000000000000000000000000000000000000000000000000000000000000000000000000000000000000000000000000000000000000000000000000000000000000000000000000000000000000000000000000000000000000000000000000000000000000000000000000000000000
310
000000000000F5000000000000000000000000000000000000000000000000000000000000000000000000000000000000000000000000000000000000000000000000000000000000000000000000000000000000000000000000000000000000000000000000000000000000000000000000F50000000000000000000000
310
00000000000000000000000000000000000000000000000000000000000000000000000000000000000000000000000000000000000000000000000000000000000000000000000000000000000000000000000000000000000000000000000000000000000000000000000000000000000000000000000000000000000000
310
0000000000000000F5000000000000000000000000000000000000000000000000000000000000000000000000000000000000000000000000000000000000000000000000000000000000000000000000000000000000000000000000000000000000000000000000000000000000000000000000F5000000000000000000
310
00000000000000000000000000000000000000000000000000000000000000000000000000000000000000000000000000000000000000000000000000000000000000000000000000000000000000000000000000000000000000000000000000000000000000000000000000000000000000000000000000000000000000
310
00000000000000000000F5000000000000000000000000000000000000000000000000000000000000000000000000000000000000000000000000000000000000000000000000000000000000000000000000000000000000000000000000000000000000000000000000000000000000000000000000F500000000000000
310
00000000000000000000000000000000000000000000000000000000000000000000000000000000000000000000000000000000000000000000000000000000000000000000000000000000000000000000000000000000000000000000000000000000000000000000000000000000000000000000000000000000000000
310
000000000000000000000000F5000000000000000000000000000000000000000000000000000000000000000000000000000000000000000000000000000000000000000000000000000000000000000000000000000000000000000000000000000000000000000000000000000000000000000000000000F50000000000
310
00000000000000000000000000000000000000000000000000000000000000000000000000000000000000000000000000000000000000000000000000000000000000000000000000000000000000000000000000000000000000000000000000000000000000000000000000000000000000000000000000000000000000
310
0000000000000000000000000000F5000000000000000000000000000000000000000000000000000000000000000000000000000000000000000000000000000000000000000000000000000000000000000000000000000000000000000000000000000000000000000000000000000000000000000000000000F5000000
310
00000000000000000000000000000000000000000000000000000000000000000000000000000000000000000000000000000000000000000000000000000000000000000000000000000000000000000000000000000000000000000000000000000000000000000000000000000000000000000000000000000000000000
310
00000000000000000000000000000000F5000000000000000000000000000000000000000000000000000000000000000000000000000000000000000000000000000000000000000000000000000000000000000000000000000000000000000000000000000000000000000000000000000000000000000000000000F500
310
00000000000000000000000000000000000000000000000000000000000000000000000000000000000000000000000000000000000000000000000000000000000000000000000000000000000000000000000000000000000000000000000000000000000000000000000000000000000000000000000000000000000000
310
000000000000000000000000000000000000F5000000000000000000000000000000000000000000000000000000000000000000000000000000000000000000000000000000000000000000000000000000000000000000000000000000000000000000000000000000000000000000000000000000000000000000000000
310
F5000000000000000000000000000000000000000000000000000000000000000000000000000000000000000000000000000000000000000000000000000000000000000000000000000000000000000000000000000000000000000000000000000000000000000000000000000000000000000000000000000000000000
310
0000000000000000000000000000000000000000F500000000000000000000000000000000000000000000000000000000000000000000000000000000000000000000000000000000000000000000000000000000000000000000000000000000000000000000000000000000000000000000000000000000000000000000
310
0000F500000000000000000000000000000000000000000000000000000000000000000000000000000000000000000000000000000000000000000000000000000000000000000000000000000000000000000000000000000000000000000000000000000000000000000000000000000000000000000000000000000000
310
00000000000000000000000000000000000000000000F50000000000000000000000000000000000000000000000000000000000000000000000000000000000000000000000000000000000000000000000000000000000000000000000000000000000000000000000000000000000000000000000000000000000000000
310
00000000F50000000000000000000000000000000000000000000000000000000000000000000000000000000000000000000000000000000000000000000000000000000000000000000000000000000000000000000000000000000000000000000000000000000000000000000000000000000000000000000000000000
310
000000000000000000000000000000000000000000000000F5000000000000000000000000000000000000000000000000000000000000000000000000000000000000000000000000000000000000000000000000000000000000000000000000000000000000000000000000000000000000000000000000000000000000
310
000000000000F5000000000000000000000000000000000000000000000000000000000000000000000000000000000000000000000000000000000000000000000000000000000000000000000000000000000000000000000000000000000000000000000000000000000000000000000000000000000000000000000000
310
0000000000000000000000000000000000000000000000000000F500000000000000000000000000000000000000000000000000000000000000000000000000000000000000000000000000000000000000000000000000000000000000000000000000000000000000000000000000000000000000000000000000000000
310
0000000000000000F500000000000000000000000000000000000000000000000000000000000000000000000000000000000000000000000000000000000000000000000000000000000000000000000000000000000000000000000000000000000000000000000000000000000000000000000000000000000000000000
310
00000000000000000000000000000000000000000000000000000000F50000000000000000000000000000000000000000000000000000000000000000000000000000000000000000000000000000000000000000000000000000000000000000000000000000000000000000000000000000000000000000000000000000
310
00000000000000000000F50000000000000000000000000000000000000000000000000000000000000000000000000000000000000000000000000000000000000000000000000000000000000000000000000000000000000000000000000000000000000000000000000000000000000000000000000000000000000000
310
000000000000000000000000000000000000000000000000000000000000F5000000000000000000000000000000000000000000000000000000000000000000000000000000000000000000000000000000000000000000000000000000000000000000000000000000000000000000000000000000000000000000000000
310
000000000000000000000000F5000000000000000000000000000000000000000000000000000000000000000000000000000000000000000000000000000000000000000000000000000000000000000000000000000000000000000000000000000000000000000000000000000000000000000000000000000000000000
310
0000000000000000000000000000000000000000000000000000000000000000F500000000000000000000000000000000000000000000000000000000000000000000000000000000000000000000000000000000000000000000000000000000000000000000000000000000000000000000000000000000000000000000
310
0000000000000000000000000000F500000000000000000000000000000000000000000000000000000000000000000000000000000000000000000000000000000000000000000000000000000000000000000000000000000000000000000000000000000000000000000000000000000000000000000000000000000000
310
00000000000000000000000000000000000000000000000000000000000000000000F50000000000000000000000000000000000000000000000000000000000000000000000000000000000000000000000000000000000000000000000000000000000000000000000000000000000000000000000000000000000000000
310
00000000000000000000000000000000F50000000000000000000000000000000000000000000000000000000000000000000000000000000000000000000000000000000000000000000000000000000000000000000000000000000000000000000000000000000000000000000000000000000000000000000000000000
310
000000000000000000000000000000000000000000000000000000000000000000000000F5000000000000000000000000000000000000000000000000000000000000000000000000000000000000000000000000000000000000000000000000000000000000000000000000000000000000000000000000000000000000
310
000000000000000000000000000000000000F5000000000000000000000000000000000000000000000000000000000000000000000000000000000000000000000000000000000000000000000000000000000000000000000000000000000000000000000000000000000000000000000000000000000000000000000000
310
0000000000000000000000000000000000000000000000000000000000000000000000000000F5F5F5F5F5F5F5F5F5F5F5F5F5F5F5F5F5F5F5F5F5F5F5F5F5F5F5F5F5F5F5F5F5F5F5F5F5F5F5F5F5F5F5F5F5F5F5F5F5F5F5F5F5F5F5F5F5F5F5F5F5F5F5F5F5F5F5F5F5F5F5F5F5F5F5F5F5F5F5F5F5F5F5F5F5F5F5F5F5
310
F5F5F5F5F5F5F5F5F5F5F5F5F5F5F5F5F5F5F5F5F500000000000000000000000000000000000000000000000000000000000000000000000000000000000000000000000000000000000000000000000000000000000000000000000000000000000000000000000000000000000000000000000000000000000000000000
310
00000000000000000000000000000000000000000000000000000000000000000000000000000000F5000000DC000000BE00DCDCDC00DC00DCDC00DC00DC00DCDC000000000000000000000000BE000000DC000000BEDCDC00DCDCDC00DCDCDCDCDC0000000000000000000000000000000000BEDC00DCDC000000DCDCDCDC
310
00DC0000DC0000000000000000000000000000000000F50000000000000000000000000000000000000000000000000000000000000000000000000000000000000000000000000000000000000000000000000000000000000000000000000000000000000000000000000000000000000000000000000000000000000000
310
000000000000000000000000000000000000000000000000000000000000000000000000000000000000F5000000DC000000BEDCDCDCDC00DCDCDCDCDCDC00DCDCDCDCDC0000000000000000000000BE000000DC000000BEDCDCDCDCDC0000DCDCDCDCDC0000000000000000000000000000000000BEDCDCDCDCDCDCDCDC00
310
00DC00DCDCDCDC0000000000000000000000000000000000F5000000000000000000000000000000000000000000000000000000000000000000000000000000000000000000000000000000000000000000000000000000000000000000000000000000000000000000000000000000000000000000000000000000000000
310
0000000000000000000000000000000000000000000000000000000000000000000000000000000000000000F5BEBEBEBEBEBEBEBEBEBEBEBEBEBEBEBEBEBEBEBEBEBEBEBEBEBEBEBEBEBEBEBEBEBEBEBEBEBEBEBEBEBEBEBEBEBEBEBEBEBEBEBEBEBEBEBEBEBEBEBEBEBEBEBEBEBEBEBEBEBEBEBEBEBEBEBEBEBEBEBEBEBE
310
BEBEBEBEBEBEBEBEBEBEBEBEBEBEBEBEBEBEBEBEBEBEBEBEBEBEF500000000000000000000000000000000000000000000000000000000000000000000000000000000000000000000000000000000000000000000000000000000000000000000000000000000000000000000000000000000000000000000000000000000
310
00000000000000000000000000000000000000000000000000000000000000000000000000000000000000000000F500DCDCDCDCDC00BE000000000000000000000000DCDCDCDC000000000000000000000000BE00DCDCDCDCDC00BE000000000000000000000000DCDCDCDCDC000000000000000000000000BE0000000000
310
0000000000DCDC0000DCDCDCDCDCDCDCDCDCDC000000000000000000F50000000000000000000000000000000000000000000000000000000000000000000000000000000000000000000000000000000000000000000000000000000000000000000000000000000000000000000000000000000000000000000000000000
310
000000000000000000000000000000000000000000000000000000000000000000000000000000000000000000000000F500DCDCDCDCDC00BE0000000000000000000000DCDCDCDCDC000000000000000000000000BE00DCDCDCDCDC00BE000000000000000000000000DCDCDCDCDC000000000000000000000000BE000000
310
000000000000DCDCDC00DCDCDCDCDCDCDCDCDCDCDC000000000000000000F5000000000000000000000000000000000000000000000000000000000000000000000000000000000000000000000000000000000000000000000000000000000000000000000000000000000000000000000000000000000000000000000000
310
0000000000000000000000000000000000000000000000000000000000000000000000000000000000000000000000000000F500DCDCDCDCDC00BE0000000000000000000000DCDCDCDCDC000000000000000000000000BE00DCDCDCDCDC00BE000000000000000000000000DCDCDCDCDC000000000000000000000000BE00
310
000000000000000000DCDC0000DCDCDCDCDCDCDCDCDCDC000000000000000000F500000000000000000000000000000000000000000000000000000000000000000000000000000000000000000000000000000000000000000000000000000000000000000000000000000000000000000000000000000000000000000000
310
00000000000000000000000000000000000000000000000000000000000000000000000000000000000000000000000000000000F5BEBEBEBEBEBEBEBEBEBEBEBEBEBEBEBEBEBEBEBEBEBEBEBEBEBEBEBEBEBEBEBEBEBEBEBEBEBEBEBEBEBEBEBEBEBEBEBEBEBEBEBEBEBEBEBEBEBEBEBEBEBEBEBEBEBEBEBEBEBEBEBEBEBE
310
BEBEBEBEBEBEBEBEBEBEBEBEBEBEBEBEBEBEBEBEBEBEBEBEBEBEBEBEBEBEBEBEBEBEF50000000000000000000000000000000000000000000000000000000000000000000000000000000000000000000000000000000000000000000000000000000000000000000000000000000000000000000000000000000000000000
310
000000000000000000000000000000000000000000000000000000000000000000000000000000000000000000000000000000000000F500000000000000000000000000000000000000000000000000000000000000000000000000000000000000000000000000DCDCDCDCDCDCDCDCDCDC00000000000000000000000000
310
0000000000000000000000F5F5F5F5F5F5F5F5F5F5F5F5F5F5F5F5F5F5F5F5F5F5F5F5F5F5000000000000000000000000000000000000000000000000000000000000000000000000000000000000000000000000000000000000000000000000000000000000000000000000000000000000000000000000000000000000
310
0000000000000000000000000000000000000000000000000000000000000000000000000000000000000000000000000000000000000000F500000000000000000000000000000000000000000000000000000000000000000000000000000000000000000000000000DCDCDCDCDCDCDCDCDCDC0000000000000000000000
310
00000000000000000000000000F500F5F5F5F5F5F5F5F500F5F5F5F5F5F5F5F5F5F5F5F5F5F5F500000000000000000000000000000000000000000000000000000000000000000000000000000000000000000000000000000000000000000000000000000000000000000000000000000000000000000000000000000000
310
00000000000000000000000000000000000000000000000000000000000000000000000000000000000000000000000000000000000000000000F5F5F5F5F5F5F5F5F5F5F5F5F5F5F5F5F5F5F5F5F5F5F5F5F5F5F5F5F5F5F5F5F5F5F5F5F5F5F5F5F5F5F5F5F5F5F5F5F5F5F5F5F5F5F5F5F5F5F5F5F5F5F5F5F5F5F5F5F5
310
F5F5F5F5F5F5F5F5F5F5F5F5F5F5F5F5F5F5F5F5F5F5F5F5F5F5F5F5F5F5F5F5F5F5F5F5F5F5F5F5F50000000000000000000000000000000000000000000000000000000000000000000000000000000000000000000000000000000000000000000000000000000000000000000000000000000000000000000000000000
310
00000000000000000000000000000000000000000000000000000000000000000000000000000000000000000000000000000000000000000000000000000000000000000000000000000000000000000000000000000000000000000000000000000000000000000000000000000000000000000000000000000000000000
310
0000000000000000000000000000000000000000000000000000000000000000000000000000000000000000000000000000000000000000000000000000000000000000000000000000000000000000000000000000000000000000000000000000000000000000000000000000000000000000
  0
XRECORD
  5
1DD8
102
{ACAD_REACTORS
330
1DD7
102
}
330
1DD7
100
AcDbXrecord
280
     1
102
SHADEPLOT
 70
     1
102
SHADEPLOTRESLEVEL
 70
     2
102
SHADEPLOTCUSTOMDPI
 70
   300
  0
XRECORD
  5
1DDB
102
{ACAD_REACTORS
330
1DDA
102
}
330
1DDA
100
AcDbXrecord
280
     1
102
SHADEPLOT
 70
     1
102
SHADEPLOTRESLEVEL
 70
     2
102
SHADEPLOTCUSTOMDPI
 70
   300
  0
XRECORD
  5
1DE1
102
{ACAD_REACTORS
330
BD9
102
}
330
BD9
100
AcDbXrecord
280
     1
102
MATERIAL
148
0.0
149
0.0
149
0.0
 93
        0
 94
      127
282
     0
 72
     0
 77
     0
171
     0
175
     0
179
     0
273
     0
  0
XRECORD
  5
BDB
102
{ACAD_REACTORS
330
BD9
102
}
330
BD9
100
AcDbXrecord
280
     1
270
     1
271
     1
  0
XRECORD
  5
BDA
102
{ACAD_REACTORS
330
BD9
102
}
330
BD9
100
AcDbXrecord
280
     1
270
     1
271
     1
  0
XRECORD
  5
BDE
102
{ACAD_REACTORS
330
BD9
102
}
330
BD9
100
AcDbXrecord
280
     1
270
     1
271
     1
  0
XRECORD
  5
BDD
102
{ACAD_REACTORS
330
BD9
102
}
330
BD9
100
AcDbXrecord
280
     1
270
     1
271
     1
  0
XRECORD
  5
BDF
102
{ACAD_REACTORS
330
BD9
102
}
330
BD9
100
AcDbXrecord
280
     1
270
     1
271
     1
  0
XRECORD
  5
BDC
102
{ACAD_REACTORS
330
BD9
102
}
330
BD9
100
AcDbXrecord
280
     1
270
     1
271
     1
  0
XRECORD
  5
1DE0
102
{ACAD_REACTORS
330
BD1
102
}
330
BD1
100
AcDbXrecord
280
     1
102
MATERIAL
148
0.0
149
0.0
149
0.0
 93
        0
 94
      127
282
     0
 72
     0
 77
     0
171
     0
175
     0
179
     0
273
     0
  0
XRECORD
  5
BD3
102
{ACAD_REACTORS
330
BD1
102
}
330
BD1
100
AcDbXrecord
280
     1
270
     1
271
     1
  0
XRECORD
  5
BD2
102
{ACAD_REACTORS
330
BD1
102
}
330
BD1
100
AcDbXrecord
280
     1
270
     1
271
     1
  0
XRECORD
  5
BD6
102
{ACAD_REACTORS
330
BD1
102
}
330
BD1
100
AcDbXrecord
280
     1
270
     1
271
     1
  0
XRECORD
  5
BD5
102
{ACAD_REACTORS
330
BD1
102
}
330
BD1
100
AcDbXrecord
280
     1
270
     1
271
     1
  0
XRECORD
  5
BD7
102
{ACAD_REACTORS
330
BD1
102
}
330
BD1
100
AcDbXrecord
280
     1
270
     1
271
     1
  0
XRECORD
  5
BD4
102
{ACAD_REACTORS
330
BD1
102
}
330
BD1
100
AcDbXrecord
280
     1
270
     1
271
     1
  0
XRECORD
  5
1DE2
102
{ACAD_REACTORS
330
BE1
102
}
330
BE1
100
AcDbXrecord
280
     1
102
MATERIAL
148
0.0
149
0.0
149
0.0
 93
        0
 94
      127
282
     0
 72
     0
 77
     0
171
     0
175
     0
179
     0
273
     0
  0
XRECORD
  5
BE3
102
{ACAD_REACTORS
330
BE1
102
}
330
BE1
100
AcDbXrecord
280
     1
270
     1
271
     1
  0
XRECORD
  5
BE2
102
{ACAD_REACTORS
330
BE1
102
}
330
BE1
100
AcDbXrecord
280
     1
270
     1
271
     1
  0
XRECORD
  5
BE6
102
{ACAD_REACTORS
330
BE1
102
}
330
BE1
100
AcDbXrecord
280
     1
270
     1
271
     1
  0
XRECORD
  5
BE5
102
{ACAD_REACTORS
330
BE1
102
}
330
BE1
100
AcDbXrecord
280
     1
270
     1
271
     1
  0
XRECORD
  5
BE7
102
{ACAD_REACTORS
330
BE1
102
}
330
BE1
100
AcDbXrecord
280
     1
270
     1
271
     1
  0
XRECORD
  5
BE4
102
{ACAD_REACTORS
330
BE1
102
}
330
BE1
100
AcDbXrecord
280
     1
270
     1
271
     1
  0
CELLSTYLEMAP
  5
1DD4
102
{ACAD_REACTORS
330
1DD3
102
}
330
1DD3
100
AcDbCellStyleMap
 90
        3
300
CELLSTYLE
  1
TABLEFORMAT_BEGIN
 90
        5
170
     1
 91
        0
 92
    32768
 62
   257
 93
        1
300
CONTENTFORMAT
  1
CONTENTFORMAT_BEGIN
 90
        0
 91
        0
 92
      512
 93
        0
300

 40
0.0
140
1.0
 94
        5
 62
     0
340
11
144
6.0
309
CONTENTFORMAT_END
171
     1
301
MARGIN
  1
CELLMARGIN_BEGIN
 40
1.5
 40
1.5
 40
1.5
 40
1.5
 40
4.5
 40
4.5
309
CELLMARGIN_END
 94
        6
 95
        1
302
GRIDFORMAT
  1
GRIDFORMAT_BEGIN
 90
        0
 91
        1
 62
     0
 92
       -2
340
0
 93
        0
 40
1.125
309
GRIDFORMAT_END
 95
        2
302
GRIDFORMAT
  1
GRIDFORMAT_BEGIN
 90
        0
 91
        1
 62
     0
 92
       -2
340
0
 93
        0
 40
1.125
309
GRIDFORMAT_END
 95
        4
302
GRIDFORMAT
  1
GRIDFORMAT_BEGIN
 90
        0
 91
        1
 62
     0
 92
       -2
340
0
 93
        0
 40
1.125
309
GRIDFORMAT_END
 95
        8
302
GRIDFORMAT
  1
GRIDFORMAT_BEGIN
 90
        0
 91
        1
 62
     0
 92
       -2
340
0
 93
        0
 40
1.125
309
GRIDFORMAT_END
 95
       16
302
GRIDFORMAT
  1
GRIDFORMAT_BEGIN
 90
        0
 91
        1
 62
     0
 92
       -2
340
0
 93
        0
 40
1.125
309
GRIDFORMAT_END
 95
       32
302
GRIDFORMAT
  1
GRIDFORMAT_BEGIN
 90
        0
 91
        1
 62
     0
 92
       -2
340
0
 93
        0
 40
1.125
309
GRIDFORMAT_END
309
TABLEFORMAT_END
  1
CELLSTYLE_BEGIN
 90
        1
 91
        1
300
_TITLE
309
CELLSTYLE_END
300
CELLSTYLE
  1
TABLEFORMAT_BEGIN
 90
        5
170
     1
 91
        0
 92
        0
 62
   257
 93
        1
300
CONTENTFORMAT
  1
CONTENTFORMAT_BEGIN
 90
        0
 91
        0
 92
      512
 93
        0
300

 40
0.0
140
1.0
 94
        5
 62
     0
340
11
144
4.5
309
CONTENTFORMAT_END
171
     1
301
MARGIN
  1
CELLMARGIN_BEGIN
 40
1.5
 40
1.5
 40
1.5
 40
1.5
 40
4.5
 40
4.5
309
CELLMARGIN_END
 94
        6
 95
        1
302
GRIDFORMAT
  1
GRIDFORMAT_BEGIN
 90
        0
 91
        1
 62
     0
 92
       -2
340
0
 93
        0
 40
1.125
309
GRIDFORMAT_END
 95
        2
302
GRIDFORMAT
  1
GRIDFORMAT_BEGIN
 90
        0
 91
        1
 62
     0
 92
       -2
340
0
 93
        0
 40
1.125
309
GRIDFORMAT_END
 95
        4
302
GRIDFORMAT
  1
GRIDFORMAT_BEGIN
 90
        0
 91
        1
 62
     0
 92
       -2
340
0
 93
        0
 40
1.125
309
GRIDFORMAT_END
 95
        8
302
GRIDFORMAT
  1
GRIDFORMAT_BEGIN
 90
        0
 91
        1
 62
     0
 92
       -2
340
0
 93
        0
 40
1.125
309
GRIDFORMAT_END
 95
       16
302
GRIDFORMAT
  1
GRIDFORMAT_BEGIN
 90
        0
 91
        1
 62
     0
 92
       -2
340
0
 93
        0
 40
1.125
309
GRIDFORMAT_END
 95
       32
302
GRIDFORMAT
  1
GRIDFORMAT_BEGIN
 90
        0
 91
        1
 62
     0
 92
       -2
340
0
 93
        0
 40
1.125
309
GRIDFORMAT_END
309
TABLEFORMAT_END
  1
CELLSTYLE_BEGIN
 90
        2
 91
        1
300
_HEADER
309
CELLSTYLE_END
300
CELLSTYLE
  1
TABLEFORMAT_BEGIN
 90
        5
170
     1
 91
        0
 92
        0
 62
   257
 93
        1
300
CONTENTFORMAT
  1
CONTENTFORMAT_BEGIN
 90
        0
 91
        0
 92
      512
 93
        0
300

 40
0.0
140
1.0
 94
        2
 62
     0
340
11
144
4.5
309
CONTENTFORMAT_END
171
     1
301
MARGIN
  1
CELLMARGIN_BEGIN
 40
1.5
 40
1.5
 40
1.5
 40
1.5
 40
4.5
 40
4.5
309
CELLMARGIN_END
 94
        6
 95
        1
302
GRIDFORMAT
  1
GRIDFORMAT_BEGIN
 90
        0
 91
        1
 62
     0
 92
       -2
340
0
 93
        0
 40
1.125
309
GRIDFORMAT_END
 95
        2
302
GRIDFORMAT
  1
GRIDFORMAT_BEGIN
 90
        0
 91
        1
 62
     0
 92
       -2
340
0
 93
        0
 40
1.125
309
GRIDFORMAT_END
 95
        4
302
GRIDFORMAT
  1
GRIDFORMAT_BEGIN
 90
        0
 91
        1
 62
     0
 92
       -2
340
0
 93
        0
 40
1.125
309
GRIDFORMAT_END
 95
        8
302
GRIDFORMAT
  1
GRIDFORMAT_BEGIN
 90
        0
 91
        1
 62
     0
 92
       -2
340
0
 93
        0
 40
1.125
309
GRIDFORMAT_END
 95
       16
302
GRIDFORMAT
  1
GRIDFORMAT_BEGIN
 90
        0
 91
        1
 62
     0
 92
       -2
340
0
 93
        0
 40
1.125
309
GRIDFORMAT_END
 95
       32
302
GRIDFORMAT
  1
GRIDFORMAT_BEGIN
 90
        0
 91
        1
 62
     0
 92
       -2
340
0
 93
        0
 40
1.125
309
GRIDFORMAT_END
309
TABLEFORMAT_END
  1
CELLSTYLE_BEGIN
 90
        3
 91
        2
300
_DATA
309
CELLSTYLE_END
  0
XRECORD
  5
1E13
102
{ACAD_REACTORS
330
1DD3
102
}
330
1DD3
100
AcDbXrecord
280
     1
102
ACAD_ROUNDTRIP_PRE2007_TABLESTYLE
 90
      512
 91
        0
  1

 92
      512
 93
        0
  2

 94
      512
 95
        0
  3

  0
XRECORD
  5
1DEE
102
{ACAD_REACTORS
330
1DED
102
}
330
1DED
100
AcDbXrecord
280
     1
102
RTVSPropertyOp0
 70
     1
102
RTVSPropertyOp1
 70
     1
102
RTVSPropertyOp2
 70
     1
102
RTVSPropertyOp3
 70
     1
102
RTVSPropertyOp4
 70
     1
102
RTVSPropertyOp5
 70
     1
102
RTVSPropertyOp6
 70
     1
102
RTVSPropertyOp7
 70
     1
102
RTVSPropertyOp8
 70
     1
102
RTVSPropertyOp9
 70
     1
102
RTVSPropertyOp10
 70
     1
102
RTVSPropertyOp11
 70
     1
102
RTVSPropertyOp12
 70
     1
102
RTVSPropertyOp13
 70
     1
102
RTVSPropertyOp14
 70
     1
102
RTVSPropertyOp15
 70
     1
102
RTVSPropertyOp16
 70
     1
102
RTVSPropertyOp17
 70
     1
102
RTVSPropertyOp18
 70
     1
102
RTVSPropertyOp19
 70
     1
102
RTVSPropertyOp20
 70
     1
102
RTVSPropertyOp21
 70
     1
102
RTVSPropertyOp22
 70
     1
102
RTVSPropertyOp23
 70
     1
102
RTVSPropertyOp24
 70
     1
102
RTVSPropertyOp25
 70
     1
102
RTVSPropertyOp26
 70
     1
102
RTVSPropertyOp27
 70
     1
102
RTVSPropertyOp28
 70
     1
102
RTVSPropertyOp29
 70
     1
102
RTVSPropertyOp30
 70
     1
102
RTVSPropertyOp31
 70
     1
102
RTVSPropertyOp32
 70
     1
  0
XRECORD
  5
1DEC
102
{ACAD_REACTORS
330
1DEB
102
}
330
1DEB
100
AcDbXrecord
280
     1
102
RTVSPropertyOp0
 70
     1
102
RTVSPropertyOp1
 70
     1
102
RTVSPropertyOp2
 70
     1
102
RTVSPropertyOp3
 70
     1
102
RTVSPropertyOp4
 70
     1
102
RTVSPropertyOp5
 70
     1
102
RTVSPropertyOp6
 70
     1
102
RTVSPropertyOp7
 70
     1
102
RTVSPropertyOp8
 70
     1
102
RTVSPropertyOp9
 70
     1
102
RTVSPropertyOp10
 70
     1
102
RTVSPropertyOp11
 70
     1
102
RTVSPropertyOp12
 70
     1
102
RTVSPropertyOp13
 70
     1
102
RTVSPropertyOp14
 70
     1
102
RTVSPropertyOp15
 70
     1
102
RTVSPropertyOp16
 70
     1
102
RTVSPropertyOp17
 70
     1
102
RTVSPropertyOp18
 70
     1
102
RTVSPropertyOp19
 70
     1
102
RTVSPropertyOp20
 70
     1
102
RTVSPropertyOp21
 70
     1
102
RTVSPropertyOp22
 70
     1
102
RTVSPropertyOp23
 70
     1
102
RTVSPropertyOp24
 70
     1
102
RTVSPropertyOp25
 70
     1
102
RTVSPropertyOp26
 70
     1
102
RTVSPropertyOp27
 70
     1
102
RTVSPropertyOp28
 70
     1
102
RTVSPropertyOp29
 70
     1
102
RTVSPropertyOp30
 70
     1
102
RTVSPropertyOp31
 70
     1
102
RTVSPropertyOp32
 70
     1
  0
XRECORD
  5
1DFA
102
{ACAD_REACTORS
330
1DF9
102
}
330
1DF9
100
AcDbXrecord
280
     1
102
RTVSPropertyOp0
 70
     1
102
RTVSPropertyOp1
 70
     1
102
RTVSPropertyOp2
 70
     1
102
RTVSPropertyOp3
 70
     1
102
RTVSPropertyOp4
 70
     1
102
RTVSPropertyOp5
 70
     1
102
RTVSPropertyOp6
 70
     1
102
RTVSPropertyOp7
 70
     1
102
RTVSPropertyOp8
 70
     1
102
RTVSPropertyOp9
 70
     1
102
RTVSPropertyOp10
 70
     1
102
RTVSPropertyOp11
 70
     1
102
RTVSPropertyOp12
 70
     1
102
RTVSPropertyOp13
 70
     1
102
RTVSPropertyOp14
 70
     1
102
RTVSPropertyOp15
 70
     1
102
RTVSPropertyOp16
 70
     1
102
RTVSPropertyOp17
 70
     1
102
RTVSPropertyOp18
 70
     1
102
RTVSPropertyOp19
 70
     1
102
RTVSPropertyOp20
 70
     1
102
RTVSPropertyOp21
 70
     1
102
RTVSPropertyOp22
 70
     1
102
RTVSPropertyOp23
 70
     1
102
RTVSPropertyOp24
 70
     1
102
RTVSPropertyOp25
 70
     1
102
RTVSPropertyOp26
 70
     1
102
RTVSPropertyOp27
 70
     1
102
RTVSPropertyOp28
 70
     1
102
RTVSPropertyOp29
 70
     1
102
RTVSPropertyOp30
 70
     1
102
RTVSPropertyOp31
 70
     1
102
RTVSPropertyOp32
 70
     1
  0
XRECORD
  5
1E02
102
{ACAD_REACTORS
330
1E01
102
}
330
1E01
100
AcDbXrecord
280
     1
102
RTVSPropertyOp0
 70
     1
102
RTVSPropertyOp1
 70
     1
102
RTVSPropertyOp2
 70
     1
102
RTVSPropertyOp3
 70
     1
102
RTVSPropertyOp4
 70
     1
102
RTVSPropertyOp5
 70
     1
102
RTVSPropertyOp6
 70
     1
102
RTVSPropertyOp7
 70
     1
102
RTVSPropertyOp8
 70
     1
102
RTVSPropertyOp9
 70
     1
102
RTVSPropertyOp10
 70
     1
102
RTVSPropertyOp11
 70
     1
102
RTVSPropertyOp12
 70
     1
102
RTVSPropertyOp13
 70
     1
102
RTVSPropertyOp14
 70
     1
102
RTVSPropertyOp15
 70
     1
102
RTVSPropertyOp16
 70
     1
102
RTVSPropertyOp17
 70
     1
102
RTVSPropertyOp18
 70
     1
102
RTVSPropertyOp19
 70
     1
102
RTVSPropertyOp20
 70
     1
102
RTVSPropertyOp21
 70
     1
102
RTVSPropertyOp22
 70
     1
102
RTVSPropertyOp23
 70
     1
102
RTVSPropertyOp24
 70
     1
102
RTVSPropertyOp25
 70
     1
102
RTVSPropertyOp26
 70
     1
102
RTVSPropertyOp27
 70
     1
102
RTVSPropertyOp28
 70
     1
102
RTVSPropertyOp29
 70
     1
102
RTVSPropertyOp30
 70
     1
102
RTVSPropertyOp31
 70
     1
102
RTVSPropertyOp32
 70
     1
  0
XRECORD
  5
1DF4
102
{ACAD_REACTORS
330
1DF3
102
}
330
1DF3
100
AcDbXrecord
280
     1
102
RTVSPropertyOp0
 70
     1
102
RTVSPropertyOp1
 70
     1
102
RTVSPropertyOp2
 70
     1
102
RTVSPropertyOp3
 70
     1
102
RTVSPropertyOp4
 70
     1
102
RTVSPropertyOp5
 70
     1
102
RTVSPropertyOp6
 70
     1
102
RTVSPropertyOp7
 70
     1
102
RTVSPropertyOp8
 70
     1
102
RTVSPropertyOp9
 70
     1
102
RTVSPropertyOp10
 70
     1
102
RTVSPropertyOp11
 70
     1
102
RTVSPropertyOp12
 70
     1
102
RTVSPropertyOp13
 70
     1
102
RTVSPropertyOp14
 70
     1
102
RTVSPropertyOp15
 70
     1
102
RTVSPropertyOp16
 70
     1
102
RTVSPropertyOp17
 70
     1
102
RTVSPropertyOp18
 70
     1
102
RTVSPropertyOp19
 70
     1
102
RTVSPropertyOp20
 70
     1
102
RTVSPropertyOp21
 70
     1
102
RTVSPropertyOp22
 70
     1
102
RTVSPropertyOp23
 70
     1
102
RTVSPropertyOp24
 70
     1
102
RTVSPropertyOp25
 70
     1
102
RTVSPropertyOp26
 70
     1
102
RTVSPropertyOp27
 70
     1
102
RTVSPropertyOp28
 70
     1
102
RTVSPropertyOp29
 70
     1
102
RTVSPropertyOp30
 70
     1
102
RTVSPropertyOp31
 70
     1
102
RTVSPropertyOp32
 70
     1
  0
XRECORD
  5
1DF8
102
{ACAD_REACTORS
330
1DF7
102
}
330
1DF7
100
AcDbXrecord
280
     1
102
RTVSPropertyOp0
 70
     1
102
RTVSPropertyOp1
 70
     1
102
RTVSPropertyOp2
 70
     1
102
RTVSPropertyOp3
 70
     1
102
RTVSPropertyOp4
 70
     1
102
RTVSPropertyOp5
 70
     1
102
RTVSPropertyOp6
 70
     1
102
RTVSPropertyOp7
 70
     1
102
RTVSPropertyOp8
 70
     1
102
RTVSPropertyOp9
 70
     1
102
RTVSPropertyOp10
 70
     1
102
RTVSPropertyOp11
 70
     1
102
RTVSPropertyOp12
 70
     1
102
RTVSPropertyOp13
 70
     1
102
RTVSPropertyOp14
 70
     1
102
RTVSPropertyOp15
 70
     1
102
RTVSPropertyOp16
 70
     1
102
RTVSPropertyOp17
 70
     1
102
RTVSPropertyOp18
 70
     1
102
RTVSPropertyOp19
 70
     1
102
RTVSPropertyOp20
 70
     1
102
RTVSPropertyOp21
 70
     1
102
RTVSPropertyOp22
 70
     1
102
RTVSPropertyOp23
 70
     1
102
RTVSPropertyOp24
 70
     1
102
RTVSPropertyOp25
 70
     1
102
RTVSPropertyOp26
 70
     1
102
RTVSPropertyOp27
 70
     1
102
RTVSPropertyOp28
 70
     1
102
RTVSPropertyOp29
 70
     1
102
RTVSPropertyOp30
 70
     1
102
RTVSPropertyOp31
 70
     1
102
RTVSPropertyOp32
 70
     1
  0
XRECORD
  5
1E12
102
{ACAD_REACTORS
330
1E11
102
}
330
1E11
100
AcDbXrecord
280
     1
102
RTVSPropertyOp0
 70
     0
102
RTVSPropertyOp1
 70
     0
102
RTVSPropertyOp2
 70
     0
102
RTVSPropertyOp3
 70
     0
102
RTVSPropertyOp4
 70
     0
102
RTVSPropertyOp5
 70
     0
102
RTVSPropertyOp6
 70
     0
102
RTVSPropertyOp7
 70
     0
102
RTVSPropertyOp8
 70
     0
102
RTVSPropertyOp9
 70
     0
102
RTVSPropertyOp10
 70
     0
102
RTVSPropertyOp11
 70
     0
102
RTVSPropertyOp12
 70
     0
102
RTVSPropertyOp13
 70
     0
102
RTVSPropertyOp14
 70
     2
102
RTVSPropertyOp15
 70
     0
102
RTVSPropertyOp16
 70
     0
102
RTVSPropertyOp17
 70
     0
102
RTVSPropertyOp18
 70
     0
102
RTVSPropertyOp19
 70
     0
102
RTVSPropertyOp20
 70
     0
102
RTVSPropertyOp21
 70
     0
102
RTVSPropertyOp22
 70
     0
102
RTVSPropertyOp23
 70
     0
102
RTVSPropertyOp24
 70
     0
102
RTVSPropertyOp25
 70
     0
102
RTVSPropertyOp26
 70
     0
102
RTVSPropertyOp27
 70
     0
102
RTVSPropertyOp28
 70
     1
102
RTVSPropertyOp29
 70
     1
102
RTVSPropertyOp30
 70
     1
102
RTVSPropertyOp31
 70
     1
102
RTVSPropertyOp32
 70
     1
  0
XRECORD
  5
1E00
102
{ACAD_REACTORS
330
1DFF
102
}
330
1DFF
100
AcDbXrecord
280
     1
102
RTVSPropertyOp0
 70
     1
102
RTVSPropertyOp1
 70
     1
102
RTVSPropertyOp2
 70
     1
102
RTVSPropertyOp3
 70
     1
102
RTVSPropertyOp4
 70
     1
102
RTVSPropertyOp5
 70
     1
102
RTVSPropertyOp6
 70
     1
102
RTVSPropertyOp7
 70
     1
102
RTVSPropertyOp8
 70
     1
102
RTVSPropertyOp9
 70
     1
102
RTVSPropertyOp10
 70
     1
102
RTVSPropertyOp11
 70
     1
102
RTVSPropertyOp12
 70
     1
102
RTVSPropertyOp13
 70
     1
102
RTVSPropertyOp14
 70
     1
102
RTVSPropertyOp15
 70
     1
102
RTVSPropertyOp16
 70
     1
102
RTVSPropertyOp17
 70
     1
102
RTVSPropertyOp18
 70
     1
102
RTVSPropertyOp19
 70
     1
102
RTVSPropertyOp20
 70
     1
102
RTVSPropertyOp21
 70
     1
102
RTVSPropertyOp22
 70
     1
102
RTVSPropertyOp23
 70
     1
102
RTVSPropertyOp24
 70
     1
102
RTVSPropertyOp25
 70
     1
102
RTVSPropertyOp26
 70
     1
102
RTVSPropertyOp27
 70
     1
102
RTVSPropertyOp28
 70
     1
102
RTVSPropertyOp29
 70
     1
102
RTVSPropertyOp30
 70
     1
102
RTVSPropertyOp31
 70
     1
102
RTVSPropertyOp32
 70
     1
  0
XRECORD
  5
1DE4
102
{ACAD_REACTORS
330
1DE3
102
}
330
1DE3
100
AcDbXrecord
280
     1
102
RTVSPropertyOp0
 70
     1
102
RTVSPropertyOp1
 70
     1
102
RTVSPropertyOp2
 70
     1
102
RTVSPropertyOp3
 70
     1
102
RTVSPropertyOp4
 70
     1
102
RTVSPropertyOp5
 70
     1
102
RTVSPropertyOp6
 70
     1
102
RTVSPropertyOp7
 70
     1
102
RTVSPropertyOp8
 70
     1
102
RTVSPropertyOp9
 70
     1
102
RTVSPropertyOp10
 70
     1
102
RTVSPropertyOp11
 70
     1
102
RTVSPropertyOp12
 70
     1
102
RTVSPropertyOp13
 70
     1
102
RTVSPropertyOp14
 70
     1
102
RTVSPropertyOp15
 70
     1
102
RTVSPropertyOp16
 70
     1
102
RTVSPropertyOp17
 70
     1
102
RTVSPropertyOp18
 70
     1
102
RTVSPropertyOp19
 70
     1
102
RTVSPropertyOp20
 70
     1
102
RTVSPropertyOp21
 70
     1
102
RTVSPropertyOp22
 70
     1
102
RTVSPropertyOp23
 70
     1
102
RTVSPropertyOp24
 70
     1
102
RTVSPropertyOp25
 70
     1
102
RTVSPropertyOp26
 70
     1
102
RTVSPropertyOp27
 70
     1
102
RTVSPropertyOp28
 70
     1
102
RTVSPropertyOp29
 70
     1
102
RTVSPropertyOp30
 70
     1
102
RTVSPropertyOp31
 70
     1
102
RTVSPropertyOp32
 70
     1
  0
XRECORD
  5
1DE6
102
{ACAD_REACTORS
330
1DE5
102
}
330
1DE5
100
AcDbXrecord
280
     1
102
RTVSPropertyOp0
 70
     1
102
RTVSPropertyOp1
 70
     1
102
RTVSPropertyOp2
 70
     1
102
RTVSPropertyOp3
 70
     1
102
RTVSPropertyOp4
 70
     1
102
RTVSPropertyOp5
 70
     1
102
RTVSPropertyOp6
 70
     1
102
RTVSPropertyOp7
 70
     1
102
RTVSPropertyOp8
 70
     1
102
RTVSPropertyOp9
 70
     1
102
RTVSPropertyOp10
 70
     1
102
RTVSPropertyOp11
 70
     1
102
RTVSPropertyOp12
 70
     1
102
RTVSPropertyOp13
 70
     1
102
RTVSPropertyOp14
 70
     1
102
RTVSPropertyOp15
 70
     1
102
RTVSPropertyOp16
 70
     1
102
RTVSPropertyOp17
 70
     1
102
RTVSPropertyOp18
 70
     1
102
RTVSPropertyOp19
 70
     1
102
RTVSPropertyOp20
 70
     1
102
RTVSPropertyOp21
 70
     1
102
RTVSPropertyOp22
 70
     1
102
RTVSPropertyOp23
 70
     1
102
RTVSPropertyOp24
 70
     1
102
RTVSPropertyOp25
 70
     1
102
RTVSPropertyOp26
 70
     1
102
RTVSPropertyOp27
 70
     1
102
RTVSPropertyOp28
 70
     1
102
RTVSPropertyOp29
 70
     1
102
RTVSPropertyOp30
 70
     1
102
RTVSPropertyOp31
 70
     1
102
RTVSPropertyOp32
 70
     1
  0
XRECORD
  5
1DE8
102
{ACAD_REACTORS
330
1DE7
102
}
330
1DE7
100
AcDbXrecord
280
     1
102
RTVSPropertyOp0
 70
     1
102
RTVSPropertyOp1
 70
     1
102
RTVSPropertyOp2
 70
     1
102
RTVSPropertyOp3
 70
     1
102
RTVSPropertyOp4
 70
     1
102
RTVSPropertyOp5
 70
     1
102
RTVSPropertyOp6
 70
     1
102
RTVSPropertyOp7
 70
     1
102
RTVSPropertyOp8
 70
     1
102
RTVSPropertyOp9
 70
     1
102
RTVSPropertyOp10
 70
     1
102
RTVSPropertyOp11
 70
     1
102
RTVSPropertyOp12
 70
     1
102
RTVSPropertyOp13
 70
     1
102
RTVSPropertyOp14
 70
     1
102
RTVSPropertyOp15
 70
     1
102
RTVSPropertyOp16
 70
     1
102
RTVSPropertyOp17
 70
     1
102
RTVSPropertyOp18
 70
     1
102
RTVSPropertyOp19
 70
     1
102
RTVSPropertyOp20
 70
     1
102
RTVSPropertyOp21
 70
     1
102
RTVSPropertyOp22
 70
     1
102
RTVSPropertyOp23
 70
     1
102
RTVSPropertyOp24
 70
     1
102
RTVSPropertyOp25
 70
     1
102
RTVSPropertyOp26
 70
     1
102
RTVSPropertyOp27
 70
     1
102
RTVSPropertyOp28
 70
     1
102
RTVSPropertyOp29
 70
     1
102
RTVSPropertyOp30
 70
     1
102
RTVSPropertyOp31
 70
     1
102
RTVSPropertyOp32
 70
     1
  0
XRECORD
  5
1DEA
102
{ACAD_REACTORS
330
1DE9
102
}
330
1DE9
100
AcDbXrecord
280
     1
102
RTVSPropertyOp0
 70
     1
102
RTVSPropertyOp1
 70
     1
102
RTVSPropertyOp2
 70
     1
102
RTVSPropertyOp3
 70
     1
102
RTVSPropertyOp4
 70
     1
102
RTVSPropertyOp5
 70
     1
102
RTVSPropertyOp6
 70
     1
102
RTVSPropertyOp7
 70
     1
102
RTVSPropertyOp8
 70
     1
102
RTVSPropertyOp9
 70
     1
102
RTVSPropertyOp10
 70
     1
102
RTVSPropertyOp11
 70
     1
102
RTVSPropertyOp12
 70
     1
102
RTVSPropertyOp13
 70
     1
102
RTVSPropertyOp14
 70
     1
102
RTVSPropertyOp15
 70
     1
102
RTVSPropertyOp16
 70
     1
102
RTVSPropertyOp17
 70
     1
102
RTVSPropertyOp18
 70
     1
102
RTVSPropertyOp19
 70
     1
102
RTVSPropertyOp20
 70
     1
102
RTVSPropertyOp21
 70
     1
102
RTVSPropertyOp22
 70
     1
102
RTVSPropertyOp23
 70
     1
102
RTVSPropertyOp24
 70
     1
102
RTVSPropertyOp25
 70
     1
102
RTVSPropertyOp26
 70
     1
102
RTVSPropertyOp27
 70
     1
102
RTVSPropertyOp28
 70
     1
102
RTVSPropertyOp29
 70
     1
102
RTVSPropertyOp30
 70
     1
102
RTVSPropertyOp31
 70
     1
102
RTVSPropertyOp32
 70
     1
  0
XRECORD
  5
1DF2
102
{ACAD_REACTORS
330
1DF1
102
}
330
1DF1
100
AcDbXrecord
280
     1
102
RTVSPropertyOp0
 70
     1
102
RTVSPropertyOp1
 70
     1
102
RTVSPropertyOp2
 70
     1
102
RTVSPropertyOp3
 70
     1
102
RTVSPropertyOp4
 70
     1
102
RTVSPropertyOp5
 70
     1
102
RTVSPropertyOp6
 70
     1
102
RTVSPropertyOp7
 70
     1
102
RTVSPropertyOp8
 70
     1
102
RTVSPropertyOp9
 70
     1
102
RTVSPropertyOp10
 70
     1
102
RTVSPropertyOp11
 70
     1
102
RTVSPropertyOp12
 70
     1
102
RTVSPropertyOp13
 70
     1
102
RTVSPropertyOp14
 70
     1
102
RTVSPropertyOp15
 70
     1
102
RTVSPropertyOp16
 70
     1
102
RTVSPropertyOp17
 70
     1
102
RTVSPropertyOp18
 70
     1
102
RTVSPropertyOp19
 70
     1
102
RTVSPropertyOp20
 70
     1
102
RTVSPropertyOp21
 70
     1
102
RTVSPropertyOp22
 70
     1
102
RTVSPropertyOp23
 70
     1
102
RTVSPropertyOp24
 70
     1
102
RTVSPropertyOp25
 70
     1
102
RTVSPropertyOp26
 70
     1
102
RTVSPropertyOp27
 70
     1
102
RTVSPropertyOp28
 70
     1
102
RTVSPropertyOp29
 70
     1
102
RTVSPropertyOp30
 70
     1
102
RTVSPropertyOp31
 70
     1
102
RTVSPropertyOp32
 70
     1
  0
XRECORD
  5
1E0E
102
{ACAD_REACTORS
330
1E0D
102
}
330
1E0D
100
AcDbXrecord
280
     1
102
RTVSPropertyOp0
 70
     0
102
RTVSPropertyOp1
 70
     0
102
RTVSPropertyOp2
 70
     0
102
RTVSPropertyOp3
 70
     0
102
RTVSPropertyOp4
 70
     0
102
RTVSPropertyOp5
 70
     0
102
RTVSPropertyOp6
 70
     0
102
RTVSPropertyOp7
 70
     0
102
RTVSPropertyOp8
 70
     0
102
RTVSPropertyOp9
 70
     0
102
RTVSPropertyOp10
 70
     0
102
RTVSPropertyOp11
 70
     0
102
RTVSPropertyOp12
 70
     0
102
RTVSPropertyOp13
 70
     0
102
RTVSPropertyOp14
 70
     2
102
RTVSPropertyOp15
 70
     0
102
RTVSPropertyOp16
 70
     0
102
RTVSPropertyOp17
 70
     0
102
RTVSPropertyOp18
 70
     0
102
RTVSPropertyOp19
 70
     0
102
RTVSPropertyOp20
 70
     0
102
RTVSPropertyOp21
 70
     0
102
RTVSPropertyOp22
 70
     0
102
RTVSPropertyOp23
 70
     0
102
RTVSPropertyOp24
 70
     0
102
RTVSPropertyOp25
 70
     0
102
RTVSPropertyOp26
 70
     0
102
RTVSPropertyOp27
 70
     0
102
RTVSPropertyOp28
 70
     1
102
RTVSPropertyOp29
 70
     1
102
RTVSPropertyOp30
 70
     1
102
RTVSPropertyOp31
 70
     1
102
RTVSPropertyOp32
 70
     1
  0
XRECORD
  5
1DFE
102
{ACAD_REACTORS
330
1DFD
102
}
330
1DFD
100
AcDbXrecord
280
     1
102
RTVSPropertyOp0
 70
     1
102
RTVSPropertyOp1
 70
     1
102
RTVSPropertyOp2
 70
     1
102
RTVSPropertyOp3
 70
     1
102
RTVSPropertyOp4
 70
     1
102
RTVSPropertyOp5
 70
     1
102
RTVSPropertyOp6
 70
     1
102
RTVSPropertyOp7
 70
     1
102
RTVSPropertyOp8
 70
     1
102
RTVSPropertyOp9
 70
     1
102
RTVSPropertyOp10
 70
     1
102
RTVSPropertyOp11
 70
     1
102
RTVSPropertyOp12
 70
     1
102
RTVSPropertyOp13
 70
     1
102
RTVSPropertyOp14
 70
     1
102
RTVSPropertyOp15
 70
     1
102
RTVSPropertyOp16
 70
     1
102
RTVSPropertyOp17
 70
     1
102
RTVSPropertyOp18
 70
     1
102
RTVSPropertyOp19
 70
     1
102
RTVSPropertyOp20
 70
     1
102
RTVSPropertyOp21
 70
     1
102
RTVSPropertyOp22
 70
     1
102
RTVSPropertyOp23
 70
     1
102
RTVSPropertyOp24
 70
     1
102
RTVSPropertyOp25
 70
     1
102
RTVSPropertyOp26
 70
     1
102
RTVSPropertyOp27
 70
     1
102
RTVSPropertyOp28
 70
     1
102
RTVSPropertyOp29
 70
     1
102
RTVSPropertyOp30
 70
     1
102
RTVSPropertyOp31
 70
     1
102
RTVSPropertyOp32
 70
     1
  0
XRECORD
  5
1E10
102
{ACAD_REACTORS
330
1E0F
102
}
330
1E0F
100
AcDbXrecord
280
     1
102
RTVSPropertyOp0
 70
     0
102
RTVSPropertyOp1
 70
     0
102
RTVSPropertyOp2
 70
     0
102
RTVSPropertyOp3
 70
     0
102
RTVSPropertyOp4
 70
     0
102
RTVSPropertyOp5
 70
     0
102
RTVSPropertyOp6
 70
     0
102
RTVSPropertyOp7
 70
     0
102
RTVSPropertyOp8
 70
     0
102
RTVSPropertyOp9
 70
     0
102
RTVSPropertyOp10
 70
     0
102
RTVSPropertyOp11
 70
     0
102
RTVSPropertyOp12
 70
     0
102
RTVSPropertyOp13
 70
     0
102
RTVSPropertyOp14
 70
     2
102
RTVSPropertyOp15
 70
     0
102
RTVSPropertyOp16
 70
     0
102
RTVSPropertyOp17
 70
     0
102
RTVSPropertyOp18
 70
     0
102
RTVSPropertyOp19
 70
     0
102
RTVSPropertyOp20
 70
     0
102
RTVSPropertyOp21
 70
     0
102
RTVSPropertyOp22
 70
     0
102
RTVSPropertyOp23
 70
     0
102
RTVSPropertyOp24
 70
     0
102
RTVSPropertyOp25
 70
     0
102
RTVSPropertyOp26
 70
     0
102
RTVSPropertyOp27
 70
     0
102
RTVSPropertyOp28
 70
     1
102
RTVSPropertyOp29
 70
     1
102
RTVSPropertyOp30
 70
     1
102
RTVSPropertyOp31
 70
     1
102
RTVSPropertyOp32
 70
     1
  0
XRECORD
  5
1DF6
102
{ACAD_REACTORS
330
1DF5
102
}
330
1DF5
100
AcDbXrecord
280
     1
102
RTVSPropertyOp0
 70
     1
102
RTVSPropertyOp1
 70
     1
102
RTVSPropertyOp2
 70
     1
102
RTVSPropertyOp3
 70
     1
102
RTVSPropertyOp4
 70
     1
102
RTVSPropertyOp5
 70
     1
102
RTVSPropertyOp6
 70
     1
102
RTVSPropertyOp7
 70
     1
102
RTVSPropertyOp8
 70
     1
102
RTVSPropertyOp9
 70
     1
102
RTVSPropertyOp10
 70
     1
102
RTVSPropertyOp11
 70
     1
102
RTVSPropertyOp12
 70
     1
102
RTVSPropertyOp13
 70
     1
102
RTVSPropertyOp14
 70
     1
102
RTVSPropertyOp15
 70
     1
102
RTVSPropertyOp16
 70
     1
102
RTVSPropertyOp17
 70
     1
102
RTVSPropertyOp18
 70
     1
102
RTVSPropertyOp19
 70
     1
102
RTVSPropertyOp20
 70
     1
102
RTVSPropertyOp21
 70
     1
102
RTVSPropertyOp22
 70
     1
102
RTVSPropertyOp23
 70
     1
102
RTVSPropertyOp24
 70
     1
102
RTVSPropertyOp25
 70
     1
102
RTVSPropertyOp26
 70
     1
102
RTVSPropertyOp27
 70
     1
102
RTVSPropertyOp28
 70
     1
102
RTVSPropertyOp29
 70
     1
102
RTVSPropertyOp30
 70
     1
102
RTVSPropertyOp31
 70
     1
102
RTVSPropertyOp32
 70
     1
  0
XRECORD
  5
1E0C
102
{ACAD_REACTORS
330
1E0B
102
}
330
1E0B
100
AcDbXrecord
280
     1
102
RTVSPropertyOp0
 70
     1
102
RTVSPropertyOp1
 70
     1
102
RTVSPropertyOp2
 70
     1
102
RTVSPropertyOp3
 70
     1
102
RTVSPropertyOp4
 70
     1
102
RTVSPropertyOp5
 70
     1
102
RTVSPropertyOp6
 70
     1
102
RTVSPropertyOp7
 70
     1
102
RTVSPropertyOp8
 70
     1
102
RTVSPropertyOp9
 70
     1
102
RTVSPropertyOp10
 70
     1
102
RTVSPropertyOp11
 70
     1
102
RTVSPropertyOp12
 70
     1
102
RTVSPropertyOp13
 70
     1
102
RTVSPropertyOp14
 70
     1
102
RTVSPropertyOp15
 70
     1
102
RTVSPropertyOp16
 70
     1
102
RTVSPropertyOp17
 70
     1
102
RTVSPropertyOp18
 70
     1
102
RTVSPropertyOp19
 70
     1
102
RTVSPropertyOp20
 70
     1
102
RTVSPropertyOp21
 70
     1
102
RTVSPropertyOp22
 70
     1
102
RTVSPropertyOp23
 70
     1
102
RTVSPropertyOp24
 70
     1
102
RTVSPropertyOp25
 70
     1
102
RTVSPropertyOp26
 70
     1
102
RTVSPropertyOp27
 70
     1
102
RTVSPropertyOp28
 70
     1
102
RTVSPropertyOp29
 70
     1
102
RTVSPropertyOp30
 70
     1
102
RTVSPropertyOp31
 70
     1
102
RTVSPropertyOp32
 70
     1
  0
XRECORD
  5
1E0A
102
{ACAD_REACTORS
330
1E09
102
}
330
1E09
100
AcDbXrecord
280
     1
102
RTVSPropertyOp0
 70
     1
102
RTVSPropertyOp1
 70
     1
102
RTVSPropertyOp2
 70
     1
102
RTVSPropertyOp3
 70
     1
102
RTVSPropertyOp4
 70
     1
102
RTVSPropertyOp5
 70
     1
102
RTVSPropertyOp6
 70
     1
102
RTVSPropertyOp7
 70
     1
102
RTVSPropertyOp8
 70
     1
102
RTVSPropertyOp9
 70
     1
102
RTVSPropertyOp10
 70
     1
102
RTVSPropertyOp11
 70
     1
102
RTVSPropertyOp12
 70
     1
102
RTVSPropertyOp13
 70
     1
102
RTVSPropertyOp14
 70
     1
102
RTVSPropertyOp15
 70
     1
102
RTVSPropertyOp16
 70
     1
102
RTVSPropertyOp17
 70
     1
102
RTVSPropertyOp18
 70
     1
102
RTVSPropertyOp19
 70
     1
102
RTVSPropertyOp20
 70
     1
102
RTVSPropertyOp21
 70
     1
102
RTVSPropertyOp22
 70
     1
102
RTVSPropertyOp23
 70
     1
102
RTVSPropertyOp24
 70
     1
102
RTVSPropertyOp25
 70
     1
102
RTVSPropertyOp26
 70
     1
102
RTVSPropertyOp27
 70
     1
102
RTVSPropertyOp28
 70
     1
102
RTVSPropertyOp29
 70
     1
102
RTVSPropertyOp30
 70
     1
102
RTVSPropertyOp31
 70
     1
102
RTVSPropertyOp32
 70
     1
  0
XRECORD
  5
1E04
102
{ACAD_REACTORS
330
1E03
102
}
330
1E03
100
AcDbXrecord
280
     1
102
RTVSPropertyOp0
 70
     1
102
RTVSPropertyOp1
 70
     1
102
RTVSPropertyOp2
 70
     1
102
RTVSPropertyOp3
 70
     1
102
RTVSPropertyOp4
 70
     1
102
RTVSPropertyOp5
 70
     1
102
RTVSPropertyOp6
 70
     1
102
RTVSPropertyOp7
 70
     1
102
RTVSPropertyOp8
 70
     1
102
RTVSPropertyOp9
 70
     1
102
RTVSPropertyOp10
 70
     1
102
RTVSPropertyOp11
 70
     1
102
RTVSPropertyOp12
 70
     1
102
RTVSPropertyOp13
 70
     1
102
RTVSPropertyOp14
 70
     1
102
RTVSPropertyOp15
 70
     1
102
RTVSPropertyOp16
 70
     1
102
RTVSPropertyOp17
 70
     1
102
RTVSPropertyOp18
 70
     1
102
RTVSPropertyOp19
 70
     1
102
RTVSPropertyOp20
 70
     1
102
RTVSPropertyOp21
 70
     1
102
RTVSPropertyOp22
 70
     1
102
RTVSPropertyOp23
 70
     1
102
RTVSPropertyOp24
 70
     1
102
RTVSPropertyOp25
 70
     1
102
RTVSPropertyOp26
 70
     1
102
RTVSPropertyOp27
 70
     1
102
RTVSPropertyOp28
 70
     1
102
RTVSPropertyOp29
 70
     1
102
RTVSPropertyOp30
 70
     1
102
RTVSPropertyOp31
 70
     1
102
RTVSPropertyOp32
 70
     1
  0
XRECORD
  5
1E06
102
{ACAD_REACTORS
330
1E05
102
}
330
1E05
100
AcDbXrecord
280
     1
102
RTVSPropertyOp0
 70
     1
102
RTVSPropertyOp1
 70
     1
102
RTVSPropertyOp2
 70
     1
102
RTVSPropertyOp3
 70
     1
102
RTVSPropertyOp4
 70
     1
102
RTVSPropertyOp5
 70
     1
102
RTVSPropertyOp6
 70
     1
102
RTVSPropertyOp7
 70
     1
102
RTVSPropertyOp8
 70
     1
102
RTVSPropertyOp9
 70
     1
102
RTVSPropertyOp10
 70
     1
102
RTVSPropertyOp11
 70
     1
102
RTVSPropertyOp12
 70
     1
102
RTVSPropertyOp13
 70
     1
102
RTVSPropertyOp14
 70
     1
102
RTVSPropertyOp15
 70
     1
102
RTVSPropertyOp16
 70
     1
102
RTVSPropertyOp17
 70
     1
102
RTVSPropertyOp18
 70
     1
102
RTVSPropertyOp19
 70
     1
102
RTVSPropertyOp20
 70
     1
102
RTVSPropertyOp21
 70
     1
102
RTVSPropertyOp22
 70
     1
102
RTVSPropertyOp23
 70
     1
102
RTVSPropertyOp24
 70
     1
102
RTVSPropertyOp25
 70
     1
102
RTVSPropertyOp26
 70
     1
102
RTVSPropertyOp27
 70
     1
102
RTVSPropertyOp28
 70
     1
102
RTVSPropertyOp29
 70
     1
102
RTVSPropertyOp30
 70
     1
102
RTVSPropertyOp31
 70
     1
102
RTVSPropertyOp32
 70
     1
  0
XRECORD
  5
1DFC
102
{ACAD_REACTORS
330
1DFB
102
}
330
1DFB
100
AcDbXrecord
280
     1
102
RTVSPropertyOp0
 70
     1
102
RTVSPropertyOp1
 70
     1
102
RTVSPropertyOp2
 70
     1
102
RTVSPropertyOp3
 70
     1
102
RTVSPropertyOp4
 70
     1
102
RTVSPropertyOp5
 70
     1
102
RTVSPropertyOp6
 70
     1
102
RTVSPropertyOp7
 70
     1
102
RTVSPropertyOp8
 70
     1
102
RTVSPropertyOp9
 70
     1
102
RTVSPropertyOp10
 70
     1
102
RTVSPropertyOp11
 70
     1
102
RTVSPropertyOp12
 70
     1
102
RTVSPropertyOp13
 70
     1
102
RTVSPropertyOp14
 70
     1
102
RTVSPropertyOp15
 70
     1
102
RTVSPropertyOp16
 70
     1
102
RTVSPropertyOp17
 70
     1
102
RTVSPropertyOp18
 70
     1
102
RTVSPropertyOp19
 70
     1
102
RTVSPropertyOp20
 70
     1
102
RTVSPropertyOp21
 70
     1
102
RTVSPropertyOp22
 70
     1
102
RTVSPropertyOp23
 70
     1
102
RTVSPropertyOp24
 70
     1
102
RTVSPropertyOp25
 70
     1
102
RTVSPropertyOp26
 70
     1
102
RTVSPropertyOp27
 70
     1
102
RTVSPropertyOp28
 70
     1
102
RTVSPropertyOp29
 70
     1
102
RTVSPropertyOp30
 70
     1
102
RTVSPropertyOp31
 70
     1
102
RTVSPropertyOp32
 70
     1
  0
XRECORD
  5
1DF0
102
{ACAD_REACTORS
330
1DEF
102
}
330
1DEF
100
AcDbXrecord
280
     1
102
RTVSPropertyOp0
 70
     1
102
RTVSPropertyOp1
 70
     1
102
RTVSPropertyOp2
 70
     1
102
RTVSPropertyOp3
 70
     1
102
RTVSPropertyOp4
 70
     1
102
RTVSPropertyOp5
 70
     1
102
RTVSPropertyOp6
 70
     1
102
RTVSPropertyOp7
 70
     1
102
RTVSPropertyOp8
 70
     1
102
RTVSPropertyOp9
 70
     1
102
RTVSPropertyOp10
 70
     1
102
RTVSPropertyOp11
 70
     1
102
RTVSPropertyOp12
 70
     1
102
RTVSPropertyOp13
 70
     1
102
RTVSPropertyOp14
 70
     1
102
RTVSPropertyOp15
 70
     1
102
RTVSPropertyOp16
 70
     1
102
RTVSPropertyOp17
 70
     1
102
RTVSPropertyOp18
 70
     1
102
RTVSPropertyOp19
 70
     1
102
RTVSPropertyOp20
 70
     1
102
RTVSPropertyOp21
 70
     1
102
RTVSPropertyOp22
 70
     1
102
RTVSPropertyOp23
 70
     1
102
RTVSPropertyOp24
 70
     1
102
RTVSPropertyOp25
 70
     1
102
RTVSPropertyOp26
 70
     1
102
RTVSPropertyOp27
 70
     1
102
RTVSPropertyOp28
 70
     1
102
RTVSPropertyOp29
 70
     1
102
RTVSPropertyOp30
 70
     1
102
RTVSPropertyOp31
 70
     1
102
RTVSPropertyOp32
 70
     1
  0
XRECORD
  5
1E08
102
{ACAD_REACTORS
330
1E07
102
}
330
1E07
100
AcDbXrecord
280
     1
102
RTVSPropertyOp0
 70
     1
102
RTVSPropertyOp1
 70
     1
102
RTVSPropertyOp2
 70
     1
102
RTVSPropertyOp3
 70
     1
102
RTVSPropertyOp4
 70
     1
102
RTVSPropertyOp5
 70
     1
102
RTVSPropertyOp6
 70
     1
102
RTVSPropertyOp7
 70
     1
102
RTVSPropertyOp8
 70
     1
102
RTVSPropertyOp9
 70
     1
102
RTVSPropertyOp10
 70
     1
102
RTVSPropertyOp11
 70
     1
102
RTVSPropertyOp12
 70
     1
102
RTVSPropertyOp13
 70
     1
102
RTVSPropertyOp14
 70
     1
102
RTVSPropertyOp15
 70
     1
102
RTVSPropertyOp16
 70
     1
102
RTVSPropertyOp17
 70
     1
102
RTVSPropertyOp18
 70
     1
102
RTVSPropertyOp19
 70
     1
102
RTVSPropertyOp20
 70
     1
102
RTVSPropertyOp21
 70
     1
102
RTVSPropertyOp22
 70
     1
102
RTVSPropertyOp23
 70
     1
102
RTVSPropertyOp24
 70
     1
102
RTVSPropertyOp25
 70
     1
102
RTVSPropertyOp26
 70
     1
102
RTVSPropertyOp27
 70
     1
102
RTVSPropertyOp28
 70
     1
102
RTVSPropertyOp29
 70
     1
102
RTVSPropertyOp30
 70
     1
102
RTVSPropertyOp31
 70
     1
102
RTVSPropertyOp32
 70
     1
  0
ENDSEC
  0
EOF
