  0
SECTION
  2
HEADER
  9
$ACADVER
  1
AC1015
  9
$ACADMAINTVER
 70
    20
  9
$DWGCODEPAGE
  3
ANSI_932
  9
$INSBASE
 10
0.0
 20
0.0
 30
0.0
  9
$EXTMIN
 10
-0.003767879890006
 20
-0.0161734653897838
 30
-0.0000000349181948
  9
$EXTMAX
 10
193.0050667792425
 20
280.0180072652314
 30
0.0000000814935746
  9
$LIMMIN
 10
5.0
 20
5.0
  9
$LIMMAX
 10
198.0
 20
285.0000000000001
  9
$ORTHOMODE
 70
     0
  9
$REGENMODE
 70
     1
  9
$FILLMODE
 70
     1
  9
$QTEXTMODE
 70
     0
  9
$MIRRTEXT
 70
     1
  9
$LTSCALE
 40
1.0
  9
$ATTMODE
 70
     1
  9
$TEXTSIZE
 40
2.5
  9
$TRACEWID
 40
0.05
  9
$TEXTSTYLE
  7
takachi1
  9
$CLAYER
  8
0
  9
$CELTYPE
  6
ByLayer
  9
$CECOLOR
 62
   256
  9
$CELTSCALE
 40
1.0
  9
$DISPSILH
 70
     0
  9
$DIMSCALE
 40
1.0
  9
$DIMASZ
 40
2.5
  9
$DIMEXO
 40
1.0
  9
$DIMDLI
 40
10.0
  9
$DIMRND
 40
0.0
  9
$DIMDLE
 40
0.0
  9
$DIMEXE
 40
1.0
  9
$DIMTP
 40
0.1
  9
$DIMTM
 40
0.1
  9
$DIMTXT
 40
3.5
  9
$DIMCEN
 40
0.0
  9
$DIMTSZ
 40
0.0
  9
$DIMTOL
 70
     0
  9
$DIMLIM
 70
     0
  9
$DIMTIH
 70
     0
  9
$DIMTOH
 70
     0
  9
$DIMSE1
 70
     0
  9
$DIMSE2
 70
     0
  9
$DIMTAD
 70
     1
  9
$DIMZIN
 70
     8
  9
$DIMBLK
  1
Open30
  9
$DIMASO
 70
     1
  9
$DIMSHO
 70
     1
  9
$DIMPOST
  1

  9
$DIMAPOST
  1
"
  9
$DIMALT
 70
     0
  9
$DIMALTD
 70
     2
  9
$DIMALTF
 40
0.0393701
  9
$DIMLFAC
 40
1.0
  9
$DIMTOFL
 70
     1
  9
$DIMTVP
 40
0.0
  9
$DIMTIX
 70
     0
  9
$DIMSOXD
 70
     0
  9
$DIMSAH
 70
     0
  9
$DIMBLK1
  1

  9
$DIMBLK2
  1

  9
$DIMSTYLE
  2
AM_ISO
  9
$DIMCLRD
 70
     3
  9
$DIMCLRE
 70
     3
  9
$DIMCLRT
 70
     2
  9
$DIMTFAC
 40
0.71
  9
$DIMGAP
 40
1.5
  9
$DIMJUST
 70
     0
  9
$DIMSD1
 70
     0
  9
$DIMSD2
 70
     0
  9
$DIMTOLJ
 70
     0
  9
$DIMTZIN
 70
     8
  9
$DIMALTZ
 70
     0
  9
$DIMALTTZ
 70
     0
  9
$DIMUPT
 70
     0
  9
$DIMDEC
 70
     2
  9
$DIMTDEC
 70
     2
  9
$DIMALTU
 70
     2
  9
$DIMALTTD
 70
     2
  9
$DIMTXSTY
  7
STANDARD
  9
$DIMAUNIT
 70
     0
  9
$DIMADEC
 70
     0
  9
$DIMALTRND
 40
0.0
  9
$DIMAZIN
 70
     2
  9
$DIMDSEP
 70
    46
  9
$DIMATFIT
 70
     3
  9
$DIMFRAC
 70
     0
  9
$DIMLDRBLK
  1
Open30
  9
$DIMLUNIT
 70
     2
  9
$DIMLWD
 70
    -1
  9
$DIMLWE
 70
    -1
  9
$DIMTMOVE
 70
     0
  9
$LUNITS
 70
     2
  9
$LUPREC
 70
     2
  9
$SKETCHINC
 40
0.1
  9
$FILLETRAD
 40
2.5
  9
$AUNITS
 70
     0
  9
$AUPREC
 70
     0
  9
$MENU
  1
.
  9
$ELEVATION
 40
0.0
  9
$PELEVATION
 40
0.0
  9
$THICKNESS
 40
0.0
  9
$LIMCHECK
 70
     0
  9
$CHAMFERA
 40
2.5
  9
$CHAMFERB
 40
2.5
  9
$CHAMFERC
 40
1.0
  9
$CHAMFERD
 40
0.0
  9
$SKPOLY
 70
     0
  9
$TDCREATE
 40
2454678.564949722
  9
$TDUCREATE
 40
2454678.189949722
  9
$TDUPDATE
 40
2454978.570809456
  9
$TDUUPDATE
 40
2454978.195809456
  9
$TDINDWG
 40
0.5069381134
  9
$TDUSRTIMER
 40
0.5069381134
  9
$USRTIMER
 70
     1
  9
$ANGBASE
 50
0.0
  9
$ANGDIR
 70
     0
  9
$PDMODE
 70
     0
  9
$PDSIZE
 40
0.0
  9
$PLINEWID
 40
0.0
  9
$SPLFRAME
 70
     0
  9
$SPLINETYPE
 70
     6
  9
$SPLINESEGS
 70
     8
  9
$HANDSEED
  5
32EF
  9
$SURFTAB1
 70
     6
  9
$SURFTAB2
 70
     6
  9
$SURFTYPE
 70
     6
  9
$SURFU
 70
     6
  9
$SURFV
 70
     6
  9
$UCSBASE
  2

  9
$UCSNAME
  2

  9
$UCSORG
 10
0.0
 20
0.0
 30
0.0
  9
$UCSXDIR
 10
1.0
 20
0.0
 30
0.0
  9
$UCSYDIR
 10
0.0
 20
1.0
 30
0.0
  9
$UCSORTHOREF
  2

  9
$UCSORTHOVIEW
 70
     0
  9
$UCSORGTOP
 10
0.0
 20
0.0
 30
0.0
  9
$UCSORGBOTTOM
 10
0.0
 20
0.0
 30
0.0
  9
$UCSORGLEFT
 10
0.0
 20
0.0
 30
0.0
  9
$UCSORGRIGHT
 10
0.0
 20
0.0
 30
0.0
  9
$UCSORGFRONT
 10
0.0
 20
0.0
 30
0.0
  9
$UCSORGBACK
 10
0.0
 20
0.0
 30
0.0
  9
$PUCSBASE
  2

  9
$PUCSNAME
  2

  9
$PUCSORG
 10
0.0
 20
0.0
 30
0.0
  9
$PUCSXDIR
 10
1.0
 20
0.0
 30
0.0
  9
$PUCSYDIR
 10
0.0
 20
1.0
 30
0.0
  9
$PUCSORTHOREF
  2

  9
$PUCSORTHOVIEW
 70
     0
  9
$PUCSORGTOP
 10
0.0
 20
0.0
 30
0.0
  9
$PUCSORGBOTTOM
 10
0.0
 20
0.0
 30
0.0
  9
$PUCSORGLEFT
 10
0.0
 20
0.0
 30
0.0
  9
$PUCSORGRIGHT
 10
0.0
 20
0.0
 30
0.0
  9
$PUCSORGFRONT
 10
0.0
 20
0.0
 30
0.0
  9
$PUCSORGBACK
 10
0.0
 20
0.0
 30
0.0
  9
$USERI1
 70
     0
  9
$USERI2
 70
     0
  9
$USERI3
 70
     0
  9
$USERI4
 70
     0
  9
$USERI5
 70
     0
  9
$USERR1
 40
0.0
  9
$USERR2
 40
0.0
  9
$USERR3
 40
0.0
  9
$USERR4
 40
0.0
  9
$USERR5
 40
0.0
  9
$WORLDVIEW
 70
     1
  9
$SHADEDGE
 70
     3
  9
$SHADEDIF
 70
    70
  9
$TILEMODE
 70
     1
  9
$MAXACTVP
 70
    64
  9
$PINSBASE
 10
0.0
 20
0.0
 30
0.0
  9
$PLIMCHECK
 70
     0
  9
$PEXTMIN
 10
1.000000000000000E+20
 20
1.000000000000000E+20
 30
1.000000000000000E+20
  9
$PEXTMAX
 10
-1.000000000000000E+20
 20
-1.000000000000000E+20
 30
-1.000000000000000E+20
  9
$PLIMMIN
 10
-0.2500002402958907
 20
-0.2499999962453767
  9
$PLIMMAX
 10
10.74999951940821
 20
8.249999763458731
  9
$UNITMODE
 70
     0
  9
$VISRETAIN
 70
     1
  9
$PLINEGEN
 70
     0
  9
$PSLTSCALE
 70
     1
  9
$TREEDEPTH
 70
  3020
  9
$CMLSTYLE
  2
Standard
  9
$CMLJUST
 70
     0
  9
$CMLSCALE
 40
1.0
  9
$PROXYGRAPHICS
 70
     1
  9
$MEASUREMENT
 70
     1
  9
$CELWEIGHT
370
    -1
  9
$ENDCAPS
280
     0
  9
$JOINSTYLE
280
     0
  9
$LWDISPLAY
290
     0
  9
$INSUNITS
 70
     4
  9
$HYPERLINKBASE
  1

  9
$STYLESHEET
  1
takachi-2.ctb
  9
$XEDIT
290
     1
  9
$CEPSNTYPE
380
     0
  9
$PSTYLEMODE
290
     1
  9
$FINGERPRINTGUID
  2
{E9DFF613-1A55-461C-846D-5503256AFCFA}
  9
$VERSIONGUID
  2
{A0073AF9-66E7-49C2-8E41-DE8DBA9DA787}
  9
$EXTNAMES
290
     1
  9
$PSVPSCALE
 40
0.0
  9
$OLESTARTUP
290
     0
  0
ENDSEC
  0
SECTION
  2
CLASSES
  0
CLASS
  1
ACDBDICTIONARYWDFLT
  2
AcDbDictionaryWithDefault
  3
ObjectDBX Classes
 90
        0
280
     0
281
     0
  0
CLASS
  1
ACDBPLACEHOLDER
  2
AcDbPlaceHolder
  3
ObjectDBX Classes
 90
        0
280
     0
281
     0
  0
CLASS
  1
LAYOUT
  2
AcDbLayout
  3
ObjectDBX Classes
 90
        0
280
     0
281
     0
  0
CLASS
  1
ACME_DOCUMENT
  2
AcMeDbDoc
  3
AcMeServices
 90
        0
280
     0
281
     0
  0
CLASS
  1
AMGSETTINGSOBJ
  2
AmgSettingsObj
  3
"AcadM|Product Description: AutoCAD Mechanical 2000|Company: Autodesk"
 90
        0
280
     0
281
     0
  0
CLASS
  1
ACMESCOPE
  2
AcMeScope
  3
AcMeServices
 90
        0
280
     0
281
     0
  0
CLASS
  1
ACMECOMMANDHISTORY
  2
AcMeCommandHistory
  3
AcMeServices
 90
        0
280
     0
281
     0
  0
CLASS
  1
ACIMSYSVARMAN
  2
AcImSysVarManager
  3
AcMeServices
 90
        0
280
     0
281
     0
  0
CLASS
  1
ACIMREALSYSVAR
  2
AcImRealSysVar
  3
AcMeServices
 90
        0
280
     0
281
     0
  0
CLASS
  1
ACIMINTSYSVAR
  2
AcImIntSysVar
  3
AcMeServices
 90
        0
280
     0
281
     0
  0
CLASS
  1
ACMEDRAWINGMAN
  2
AcMeDrawingMan
  3
AcMeServices
 90
        0
280
     0
281
     0
  0
CLASS
  1
ACMEVIEW
  2
AcMeView
  3
AcMeServices
 90
        0
280
     0
281
     0
  0
CLASS
  1
ACDBENTITYCACHE
  2
AcMeEntityCache
  3
AcMeServices
 90
        0
280
     0
281
     0
  0
CLASS
  1
GSMANAGER
  2
AcMeGSManager
  3
AcMeServices
 90
        0
280
     0
281
     0
  0
CLASS
  1
AMDTINTERNALREACTOR
  2
AmdtInternalReactor
  3
AcMeServices
 90
        0
280
     0
281
     0
  0
CLASS
  1
ACMESTATEMGR
  2
AcMeStateMgr
  3
AcMeServices
 90
        0
280
     0
281
     0
  0
CLASS
  1
ACGREFMASTER
  2
AcGrefMaster
  3
AcAttribServices
 90
        0
280
     0
281
     0
  0
CLASS
  1
ACME_DATABASE
  2
AcMeDbDatabase
  3
AcMeServices
 90
        0
280
     0
281
     0
  0
CLASS
  1
ACRFINSADJUSTERMGR
  2
AcRfInsAdjusterMgr
  3
AcMeServices
 90
        0
280
     0
281
     0
  0
CLASS
  1
ACGREFACADMASTER
  2
AcGrefacadMaster
  3
AcGrefServices
 90
        0
280
     0
281
     0
  0
CLASS
  1
AMIMASTER
  2
AmiMaster
  3
AmiServices
 90
        0
280
     0
281
     0
  0
CLASS
  1
ACMDATADICTIONARY
  2
AcmDataDictionary
  3
"AcmSymBB|Product Description: AutoCAD Mechanical 2004 DX|Company: Autodesk"
 90
        0
280
     0
281
     0
  0
CLASS
  1
ACMDATAENTRYBLOCK
  2
AcmDataEntryBlock
  3
"AcmSymBB|Product Description: AutoCAD Mechanical 2004 DX|Company: Autodesk"
 90
        0
280
     0
281
     0
  0
CLASS
  1
ACIMSTRSYSVAR
  2
AcImStrSysVar
  3
AcMeServices
 90
        0
280
     0
281
     0
  0
CLASS
  1
ACMSTANDARDANSI
  2
AcmStandardANSI
  3
"Amdt_StdImp|Product Description: AutoCAD Mechanical 2004 DX|Company: Autodesk"
 90
        0
280
     0
281
     0
  0
CLASS
  1
AMGOBJPROPCFG
  2
AmgObjPropCfg
  3
"AmgLay|Product Description: AutoCAD Mechanical 2000|Company: Autodesk"
 90
        1
280
     0
281
     0
  0
CLASS
  1
ACMSURFSTANDARDANSI
  2
AcmSurfTextStdANSI
  3
"Amdt_StdImp|Product Description: AutoCAD Mechanical 2004 DX|Company: Autodesk"
 90
        0
280
     0
281
     0
  0
CLASS
  1
ACMFCFSTANDARDANSI
  2
AcmFCFStdANSI
  3
"Amdt_StdImp|Product Description: AutoCAD Mechanical 2004 DX|Company: Autodesk"
 90
        0
280
     0
281
     0
  0
CLASS
  1
ACMWELDSTANDARDANSI
  2
AcmWeldingStdANSI
  3
"Amdt_StdImp|Product Description: AutoCAD Mechanical 2004 DX|Company: Autodesk"
 90
        0
280
     0
281
     0
  0
CLASS
  1
ACMIDSTANDARDANSI
  2
AcmIdStdANSI
  3
"Amdt_StdImp|Product Description: AutoCAD Mechanical 2004 DX|Company: Autodesk"
 90
        0
280
     0
281
     0
  0
CLASS
  1
ACMDATUMSTANDARDANSI
  2
AcmDatumStdANSI
  3
"Amdt_StdImp|Product Description: AutoCAD Mechanical 2004 DX|Company: Autodesk"
 90
        0
280
     0
281
     0
  0
CLASS
  1
ACMBOMSTANDARDANSI
  2
AcmBOMStdANSI
  3
"Amdt_StdImp|Product Description: AutoCAD Mechanical 2004 DX|Company: Autodesk"
 90
        0
280
     0
281
     0
  0
CLASS
  1
ACMDETAILSTANDARDANSI
  2
AmdtDetailSymStdANSI
  3
"Amdt_StdImp|Product Description: AutoCAD Mechanical 2004 DX|Company: Autodesk"
 90
        0
280
     0
281
     0
  0
CLASS
  1
ACMSECTIONSTANDARDANSI
  2
AmdtSectionSymStdANSI
  3
"Amdt_StdImp|Product Description: AutoCAD Mechanical 2004 DX|Company: Autodesk"
 90
        0
280
     0
281
     0
  0
CLASS
  1
ACMCENTERLINESTANDARDANSI
  2
AmdtCenterLineStdANSI
  3
"Amdt_StdImp|Product Description: AutoCAD Mechanical 2004 DX|Company: Autodesk"
 90
        0
280
     0
281
     0
  0
CLASS
  1
ACMNOTESTANDARDANSI
  2
AmdtNoteStdANSI
  3
"Amdt_StdImp|Product Description: AutoCAD Mechanical 2004 DX|Company: Autodesk"
 90
        0
280
     0
281
     0
  0
CLASS
  1
ACAMGLAYSTD
  2
AcAmgLayStd
  3
"AcAmgLayStd|Product Description: AutoCAD Mechanical 2000|Company: Autodesk"
 90
        0
280
     0
281
     0
  0
CLASS
  1
ACAMGDIMSTD
  2
AcAmgDimStd
  3
"AcAmgDimStd|Product Description: AutoCAD Mechanical 2000|Company: Autodesk"
 90
        0
280
     0
281
     0
  0
CLASS
  1
ACAMGHOLECHARTSTDANSI
  2
AcAmgHoleChartStdANSI
  3
ACMSYMBB_MODULE_NAME
 90
        0
280
     0
281
     0
  0
CLASS
  1
ACAMGTITLESTD
  2
AcAmgTitleStd
  3
"TITLEAPP"
 90
        0
280
     0
281
     0
  0
CLASS
  1
LAYER_INDEX
  2
AcDbLayerIndex
  3
ObjectDBX Classes
 90
    32768
280
     0
281
     0
  0
CLASS
  1
IDBUFFER
  2
AcDbIdBuffer
  3
ObjectDBX Classes
 90
    32768
280
     0
281
     0
  0
CLASS
  1
DICTIONARYVAR
  2
AcDbDictionaryVar
  3
ObjectDBX Classes
 90
        0
280
     0
281
     0
  0
CLASS
  1
AM_DRAWING_MGR
  2
AcDmDwgMgr
  3
AcMechDwgViewMgmt
 90
        0
280
     0
281
     0
  0
CLASS
  1
AM_DWG_DOCUMENT
  2
AcDmDwgDocument
  3
AcMechDwgViewMgmt
 90
        0
280
     0
281
     0
  0
CLASS
  1
AM_DWG_SHEET
  2
AcDmSheet
  3
AcMechDwgViewMgmt
 90
        0
280
     0
281
     0
  0
CLASS
  1
AM_VIEWDIMPARMAP
  2
AcDmViewDimParMap
  3
AcMechDwgViewMgmt
 90
        0
280
     0
281
     0
  0
CLASS
  1
AM_DWGMGR_NAME
  2
AcDmDwgMgrName
  3
AcMechDwgViewMgmt
 90
        0
280
     0
281
     0
  0
CLASS
  1
AMDTMENUSTATEMGR
  2
AmdtMenuStateMgr
  3
McadcomServices
 90
        0
280
     0
281
     0
  0
CLASS
  1
AMDTMCOMMENUSTATE
  2
AmdtMcomMenuState
  3
McadcomServices
 90
        0
280
     0
281
     0
  0
CLASS
  1
MAPIAMMOUDLE
  2
MApiAmModule
  3
MApiAmServices
 90
        0
280
     0
281
     0
  0
CLASS
  1
AMDTADMENUSTATE
  2
AmdtAdMenuState
  3
DesignerServices
 90
        0
280
     0
281
     0
  0
CLASS
  1
ADAPPL
  2
AcAdAppl
  3
DesignerServices
 90
        0
280
     0
281
     0
  0
CLASS
  1
DEPMGR
  2
AcAdDepMgr
  3
DesignerServices
 90
        0
280
     0
281
     0
  0
CLASS
  1
PARAMMGR
  2
AcAdParamMgr
  3
DesignerServices
 90
        0
280
     0
281
     0
  0
CLASS
  1
PARAMSCOPE
  2
AcAdParamScope
  3
DesignerServices
 90
        0
280
     0
281
     0
  0
CLASS
  1
NAMEDAPPL
  2
AcAdNamedAppl
  3
DesignerServices
 90
        0
280
     0
281
     0
  0
CLASS
  1
AMDTDMMENUSTATE
  2
AmdtDmMenuState
  3
AcMechDwgViewMgmt
 90
        0
280
     0
281
     0
  0
CLASS
  1
AMDTAMMENUSTATE
  2
AmdtAmMenuState
  3
DesignerAssemblies
 90
        0
280
     0
281
     0
  0
CLASS
  1
ACAMPROJECT
  2
AcAmProject
  3
DesignerAssemblies
 90
        0
280
     0
281
     0
  0
CLASS
  1
ACAMGRCOMPDEF
  2
AcAmGrCompDef
  3
DesignerAssemblies
 90
        0
280
     0
281
     0
  0
CLASS
  1
ACCMCONTEXT
  2
AcCmContext
  3
DesignerAssemblies
 90
        0
280
     0
281
     0
  0
CLASS
  1
ACAMCOMPDEF
  2
AcAmCompDef
  3
DesignerAssemblies
 90
        0
280
     0
281
     0
  0
CLASS
  1
ACAMCOMPDEFMGR
  2
AcAmCompDefMgr
  3
DesignerAssemblies
 90
        0
280
     0
281
     0
  0
CLASS
  1
AMCONTEXTMGR
  2
AcAmContextMgr
  3
DesignerAssemblies
 90
        0
280
     0
281
     0
  0
CLASS
  1
ACAMCONTEXTMODELER
  2
AcAmContextModeler
  3
DesignerAssemblies
 90
        0
280
     0
281
     0
  0
CLASS
  1
ACMTHREADLINESTANDARDANSI
  2
AmdtThreadLineStdANSI
  3
"Amdt_StdImp|Product Description: AutoCAD Mechanical 2004 DX|Company: Autodesk"
 90
        0
280
     0
281
     0
  0
CLASS
  1
CATALOGSTATE
  2
AcAmCatalogState
  3
DesignerAssemblies
 90
        0
280
     0
281
     0
  0
CLASS
  1
ACAMGRCOMPDEFSET
  2
AcAmGrCompDefSet
  3
DesignerAssemblies
 90
        0
280
     0
281
     0
  0
CLASS
  1
AMDTBROWSERDBTAB
  2
AmdtBrowserDbTab
  3
McadcomServices
 90
        0
280
     0
281
     0
  0
CLASS
  1
CBROWSERAPPOBJECT
  2
CBrowserAppObject
  3
McadcomServices
 90
        0
280
     0
281
     0
  0
CLASS
  1
DM_PLACEHOLDER
  2
AcDmSelsetPlaceholder
  3
AcMechDwgViewMgmt
 90
        0
280
     0
281
     0
  0
CLASS
  1
AMDTNOTETEMPLATEDB
  2
AmdtNoteTemplateDB
  3
AMDT_STDIMP_MODULE_NAME
 90
        0
280
     0
281
     0
  0
CLASS
  1
ACMSTANDARDISO
  2
AcmStandardISO
  3
"Amdt_StdImp|Product Description: AutoCAD Mechanical 2004 DX|Company: Autodesk"
 90
        0
280
     0
281
     0
  0
CLASS
  1
AMDTEDGESTANDARDISO
  2
AmdtEdgeStdISO
  3
"Amdt_StdImp|Product Description: AutoCAD Mechanical 2004 DX|Company: Autodesk"
 90
        0
280
     0
281
     0
  0
CLASS
  1
ACMSURFSTANDARDISO
  2
AcmSurfTextStdISO
  3
"Amdt_StdImp|Product Description: AutoCAD Mechanical 2004 DX|Company: Autodesk"
 90
        0
280
     0
281
     0
  0
CLASS
  1
ACMFCFSTANDARDISO
  2
AcmFCFStdISO
  3
"Amdt_StdImp|Product Description: AutoCAD Mechanical 2004 DX|Company: Autodesk"
 90
        0
280
     0
281
     0
  0
CLASS
  1
ACMWELDSTANDARDISO
  2
AcmWeldingStdISO
  3
"Amdt_StdImp|Product Description: AutoCAD Mechanical 2004 DX|Company: Autodesk"
 90
        0
280
     0
281
     0
  0
CLASS
  1
ACMIDSTANDARDISO
  2
AcmIdStdISO
  3
"Amdt_StdImp|Product Description: AutoCAD Mechanical 2004 DX|Company: Autodesk"
 90
        0
280
     0
281
     0
  0
CLASS
  1
ACMDATUMSTANDARDISO
  2
AcmDatumStdISO
  3
"Amdt_StdImp|Product Description: AutoCAD Mechanical 2004 DX|Company: Autodesk"
 90
        0
280
     0
281
     0
  0
CLASS
  1
ACMBOMSTANDARDISO
  2
AcmBOMStdISO
  3
"Amdt_StdImp|Product Description: AutoCAD Mechanical 2004 DX|Company: Autodesk"
 90
        0
280
     0
281
     0
  0
CLASS
  1
ACMDETAILSTANDARDISO
  2
AmdtDetailSymStdISO
  3
"Amdt_StdImp|Product Description: AutoCAD Mechanical 2004 DX|Company: Autodesk"
 90
        0
280
     0
281
     0
  0
CLASS
  1
ACMSECTIONSTANDARDISO
  2
AmdtSectionSymStdISO
  3
"Amdt_StdImp|Product Description: AutoCAD Mechanical 2004 DX|Company: Autodesk"
 90
        0
280
     0
281
     0
  0
CLASS
  1
ACMCENTERLINESTANDARDISO
  2
AmdtCenterLineStdISO
  3
"Amdt_StdImp|Product Description: AutoCAD Mechanical 2004 DX|Company: Autodesk"
 90
        0
280
     0
281
     0
  0
CLASS
  1
ACMTHREADLINESTANDARDISO
  2
AmdtThreadLineStdISO
  3
"Amdt_StdImp|Product Description: AutoCAD Mechanical 2004 DX|Company: Autodesk"
 90
        0
280
     0
281
     0
  0
CLASS
  1
ACMNOTESTANDARDISO
  2
AmdtNoteStdISO
  3
"Amdt_StdImp|Product Description: AutoCAD Mechanical 2004 DX|Company: Autodesk"
 90
        0
280
     0
281
     0
  0
CLASS
  1
ACAMGHOLECHARTSTDISO
  2
AcAmgHoleChartStdISO
  3
ACMSYMBB_MODULE_NAME
 90
        0
280
     0
281
     0
  0
CLASS
  1
ACAMGFILTERDAT
  2
AcAmgFilterDat
  3
"AcadM|Product Description: AutoCAD Mechanical 2000|Company: Autodesk"
 90
        0
280
     0
281
     0
  0
CLASS
  1
ACMBOM
  2
AcmBom
  3
"AcmSymBB|Product Description: AutoCAD Mechanical 2004 DX|Company: Autodesk"
 90
        0
280
     0
281
     0
  0
CLASS
  1
AMDTFORMULAUPDATEDISPATCHER
  2
AmdtFormulaUpdateDispatcher
  3
AcMeServices
 90
        0
280
     0
281
     0
  0
CLASS
  1
ACMPARTLIST
  2
AcmPartList
  3
"AcmSymBB|Product Description: AutoCAD Mechanical 2004 DX|Company: Autodesk"
 90
     1023
280
     0
281
     1
  0
CLASS
  1
ACDBOPPOLYLINERES
  2
AcDbOpPolylineRes
  3
AcGrefServices
 90
        0
280
     0
281
     0
  0
CLASS
  1
ACRFINSADJ
  2
AcRfInsAdjuster
  3
AcMeServices
 90
        0
280
     0
281
     0
  0
CLASS
  1
TABLESTYLE
  2
AcDbTableStyle
  3
ObjectDBX Classes
 90
     2047
280
     0
281
     0
  0
CLASS
  1
VAACXREFPANELOBJECT
  2
VaAcXREFPanelObject
  3
VAAC_ADDIN
 90
        0
280
     0
281
     0
  0
CLASS
  1
VAACIMAGEINVENTORY
  2
VaAcImageInventory
  3
VAAC_ADDIN
 90
        0
280
     0
281
     0
  0
CLASS
  1
AMDTNOTE
  2
AmdtNote
  3
"AcmSymBB|Product Description: AutoCAD Mechanical 2004 DX|Company: Autodesk"
 90
    33791
280
     0
281
     1
  0
CLASS
  1
ACMDATAENTRYPART
  2
AcmDataEntryPart
  3
"AcmSymBB|Product Description: AutoCAD Mechanical 2004 DX|Company: Autodesk"
 90
        0
280
     0
281
     0
  0
CLASS
  1
ACMPARTREF
  2
AcmPartRef
  3
"AcmSymBB|Product Description: AutoCAD Mechanical 2004 DX|Company: Autodesk"
 90
     1023
280
     0
281
     1
  0
CLASS
  1
ACMBOMROW
  2
AcmBomRow
  3
"AcmSymBB|Product Description: AutoCAD Mechanical 2004 DX|Company: Autodesk"
 90
        0
280
     0
281
     0
  0
CLASS
  1
ACMDATAENTRY
  2
AcmDataEntry
  3
"AcmSymBB|Product Description: AutoCAD Mechanical 2004 DX|Company: Autodesk"
 90
        0
280
     0
281
     0
  0
CLASS
  1
ACMBALLOON
  2
AcmBalloon
  3
"AcmSymBB|Product Description: AutoCAD Mechanical 2004 DX|Company: Autodesk"
 90
     1023
280
     0
281
     1
  0
CLASS
  1
ACDBCIRCARCRES
  2
AcDbCircArcRes
  3
AcGrefServices
 90
        0
280
     0
281
     0
  0
CLASS
  1
ACDBLINERES
  2
AcDbLineRes
  3
AcGrefServices
 90
        0
280
     0
281
     0
  0
CLASS
  1
SORTENTSTABLE
  2
AcDbSortentsTable
  3
ObjectDBX Classes
 90
    32768
280
     0
281
     0
  0
CLASS
  1
MATERIAL
  2
AcDbMaterial
  3
ObjectDBX Classes
 90
        0
280
     0
281
     0
  0
CLASS
  1
VISUALSTYLE
  2
AcDbVisualStyle
  3
ObjectDBX Classes
 90
     4095
280
     0
281
     0
  0
CLASS
  1
SCALE
  2
AcDbScale
  3
ObjectDBX Classes
 90
     1153
280
     0
281
     0
  0
CLASS
  1
MLEADERSTYLE
  2
AcDbMLeaderStyle
  3
ACDB_MLEADERSTYLE_CLASS
 90
     4095
280
     0
281
     0
  0
CLASS
  1
ACRFATTGENMGR
  2
AcRfAttGeneralMgr
  3
AcAttribServices
 90
        0
280
     0
281
     0
  0
CLASS
  1
ACRFOBJATTMGR
  2
AcRfObjAttGroupMgr
  3
AcAttribServices
 90
        0
280
     0
281
     0
  0
CLASS
  1
ACRFMCADAPIATTHOLDER
  2
AcRfMCADAPIAttHolder
  3
AcAttribServices
 90
        0
280
     0
281
     0
  0
CLASS
  1
AMDTSYSATTR
  2
AmdtSystemAttribute
  3
AcAttribServices
 90
        0
280
     0
281
     0
  0
CLASS
  1
ACMTAPERSTANDARDISO
  2
AcmTaperStdISO
  3
"Amdt_StdImp|Product Description: AutoCAD Mechanical|Company: Autodesk, Inc."
 90
    33792
280
     0
281
     0
  0
CLASS
  1
ACMANOOTATIONVIEWSTANDARDISO
  2
AmdtAnViewStdISO
  3
"Amdt_StdImp|Product Description: AutoCAD Mechanical|Company: Autodesk, Inc."
 90
    33792
280
     0
281
     0
  0
CLASS
  1
ACMTAPERSTANDARDANSI
  2
AcmTaperStdANSI
  3
"Amdt_StdImp|Product Description: AutoCAD Mechanical|Company: Autodesk, Inc."
 90
    33792
280
     0
281
     0
  0
CLASS
  1
ACMANOOTATIONVIEWSTANDARDANSI
  2
AmdtAnViewStdANSI
  3
"Amdt_StdImp|Product Description: AutoCAD Mechanical|Company: Autodesk, Inc."
 90
    33792
280
     0
281
     0
  0
CLASS
  1
EXACXREFPANELOBJECT
  2
ExAcXREFPanelObject
  3
EXAC_ESW
 90
    33793
280
     0
281
     0
  0
CLASS
  1
NPOCOLLECTION
  2
AcDbImpNonPersistentObjectsCollection
  3
ObjectDBX Classes
 90
    33921
280
     0
281
     0
  0
CLASS
  1
CELLSTYLEMAP
  2
AcDbCellStyleMap
  3
ObjectDBX Classes
 90
     1152
280
     0
281
     0
  0
ENDSEC
  0
SECTION
  2
TABLES
  0
TABLE
  2
VPORT
  5
8
102
{ACAD_XDICTIONARY
360
319A
102
}
330
0
100
AcDbSymbolTable
 70
     6
  0
VPORT
  5
32E6
330
8
100
AcDbSymbolTableRecord
100
AcDbViewportTableRecord
  2
*Active
 70
     0
 10
0.0
 20
0.0
 11
1.0
 21
1.0
 12
96.50064944967624
 22
140.0009168999208
 13
0.0
 23
0.0
 14
2.5
 24
2.5
 15
10.0
 25
10.0
 16
0.0
 26
0.0
 36
1.0
 17
0.0
 27
0.0
 37
0.0
 40
282.2566742284832
 41
1.597350993377483
 42
50.0
 43
0.0
 44
0.0
 50
0.0
 51
0.0
 71
    16
 72
   100
 73
     1
 74
     3
 75
     0
 76
     0
 77
     0
 78
     0
281
     0
 65
     1
110
0.0
120
0.0
130
0.0
111
1.0
121
0.0
131
0.0
112
0.0
122
1.0
132
0.0
 79
     0
146
0.0
  0
ENDTAB
  0
TABLE
  2
LTYPE
  5
5
330
0
100
AcDbSymbolTable
 70
    25
  0
LTYPE
  5
14
330
5
100
AcDbSymbolTableRecord
100
AcDbLinetypeTableRecord
  2
ByBlock
 70
     0
  3

 72
    65
 73
     0
 40
0.0
  0
LTYPE
  5
15
330
5
100
AcDbSymbolTableRecord
100
AcDbLinetypeTableRecord
  2
ByLayer
 70
     0
  3

 72
    65
 73
     0
 40
0.0
  0
LTYPE
  5
16
330
5
100
AcDbSymbolTableRecord
100
AcDbLinetypeTableRecord
  2
Continuous
 70
     0
  3
Solid line
 72
    65
 73
     0
 40
0.0
  0
LTYPE
  5
6C
330
5
100
AcDbSymbolTableRecord
100
AcDbLinetypeTableRecord
  2
AM_ISO02W050
 70
     0
  3
__ __ __ __ __ __ __ __ __ __ __ __ __ __ __
 72
    65
 73
     2
 40
7.5
 49
6.0
 74
     0
 49
-1.5
 74
     0
  0
LTYPE
  5
6D
330
5
100
AcDbSymbolTableRecord
100
AcDbLinetypeTableRecord
  2
AM_ISO08W050
 70
     0
  3
____ . ____ . ____ . ____ . ____ . ____ . ____
 72
    65
 73
     4
 40
18.0
 49
12.0
 74
     0
 49
-1.5
 74
     0
 49
3.0
 74
     0
 49
-1.5
 74
     0
  0
LTYPE
  5
6E
330
5
100
AcDbSymbolTableRecord
100
AcDbLinetypeTableRecord
  2
AM_ISO09W050
 70
     0
  3
_____ . . _____ . . _____ . . ____ .. ____
 72
    65
 73
     6
 40
22.5
 49
12.0
 74
     0
 49
-1.5
 74
     0
 49
3.0
 74
     0
 49
-1.5
 74
     0
 49
3.0
 74
     0
 49
-1.5
 74
     0
  0
LTYPE
  5
6F
330
5
100
AcDbSymbolTableRecord
100
AcDbLinetypeTableRecord
  2
Amconstr
 70
     0
  3
_______________________
 72
    65
 73
     2
 40
9999.0
 49
9999.0
 74
     0
 49
0.0
 74
     0
  0
LTYPE
  5
70
330
5
100
AcDbSymbolTableRecord
100
AcDbLinetypeTableRecord
  2
AM_ISO08W050x2
 70
     0
  3
__ . __ . __ . __ . __ . __
 72
    65
 73
     4
 40
9.0
 49
6.0
 74
     0
 49
-0.75
 74
     0
 49
1.5
 74
     0
 49
-0.75
 74
     0
  0
LTYPE
  5
71
330
5
100
AcDbSymbolTableRecord
100
AcDbLinetypeTableRecord
  2
AM_ISO02W050x2
 70
     0
  3
 _ _ _ _ _ _ _ _ _ _ _ _
 72
    65
 73
     2
 40
3.75
 49
3.0
 74
     0
 49
-0.75
 74
     0
  0
LTYPE
  5
74
330
5
100
AcDbSymbolTableRecord
100
AcDbLinetypeTableRecord
  2
Amzigzag
 70
     0
  3
/\/-/\/-/\/-/\/-/\/-/\/
 72
    65
 73
     2
 40
11.0001
 49
0.0001
 74
     4
 75
   135
340
73
 46
0.04
 50
0.0
 44
0.0
 45
0.0
 49
-11.0
 74
     0
  0
LTYPE
  5
75
330
5
100
AcDbSymbolTableRecord
100
AcDbLinetypeTableRecord
  2
HIDDEN
 70
     0
  3
Hidden __ __ __ __ __ __ __ __ __ __ __ __ __ _
 72
    65
 73
     2
 40
0.375
 49
0.25
 74
     0
 49
-0.125
 74
     0
  0
LTYPE
  5
76
330
5
100
AcDbSymbolTableRecord
100
AcDbLinetypeTableRecord
  2
CENTER
 70
     0
  3
Center ____ _ ____ _ ____ _ ____ _ ____ _ ____
 72
    65
 73
     4
 40
2.0
 49
1.25
 74
     0
 49
-0.25
 74
     0
 49
0.25
 74
     0
 49
-0.25
 74
     0
  0
LTYPE
  5
77
330
5
100
AcDbSymbolTableRecord
100
AcDbLinetypeTableRecord
  2
PHANTOM2
 70
     0
  3
Phantom (.5x) ___ _ _ ___ _ _ ___ _ _ ___ _ _
 72
    65
 73
     6
 40
1.25
 49
0.625
 74
     0
 49
-0.125
 74
     0
 49
0.125
 74
     0
 49
-0.125
 74
     0
 49
0.125
 74
     0
 49
-0.125
 74
     0
  0
LTYPE
  5
78
330
5
100
AcDbSymbolTableRecord
100
AcDbLinetypeTableRecord
  2
CENTER2
 70
     0
  3
Center (.5x) ___ _ ___ _ ___ _ ___ _ ___ _ ___
 72
    65
 73
     4
 40
1.125
 49
0.75
 74
     0
 49
-0.125
 74
     0
 49
0.125
 74
     0
 49
-0.125
 74
     0
  0
LTYPE
  5
79
330
5
100
AcDbSymbolTableRecord
100
AcDbLinetypeTableRecord
  2
HIDDEN2
 70
     0
  3
Hidden (.5x) _ _ _ _ _ _ _ _ _ _ _ _ _ _ _ _ _
 72
    65
 73
     2
 40
0.1875
 49
0.125
 74
     0
 49
-0.0625
 74
     0
  0
LTYPE
  5
7A
330
5
100
AcDbSymbolTableRecord
100
AcDbLinetypeTableRecord
  2
Amzigzag2
 70
     0
  3
/\/-/\/-/\/-/\/-/\/-/\/
 72
    65
 73
     2
 40
0.4401
 49
0.0001
 74
     4
 75
   135
340
73
 46
0.0016
 50
0.0
 44
0.0
 45
0.0
 49
-0.4400000000000001
 74
     0
  0
LTYPE
  5
87
330
5
100
AcDbSymbolTableRecord
100
AcDbLinetypeTableRecord
  2
ACANSTGB
 70
     0
  3
__ . . __ . .
 72
    65
 73
     6
 40
0.35433070866
 49
0.15748031496
 74
     0
 49
-0.03937007874
 74
     0
 49
0.03937007874
 74
     0
 49
-0.03937007874
 74
     0
 49
0.03937007874
 74
     0
 49
-0.03937007874
 74
     0
  0
LTYPE
  5
88
330
5
100
AcDbSymbolTableRecord
100
AcDbLinetypeTableRecord
  2
ACANSTGL
 70
     0
  3
_ _ _ _ _
 72
    65
 73
     2
 40
0.11811023622
 49
0.07874015748
 74
     0
 49
-0.03937007874
 74
     0
  0
LTYPE
  5
1DE
330
5
100
AcDbSymbolTableRecord
100
AcDbLinetypeTableRecord
  2
ACISOWELD
 70
     0
  3
_ _ _ _ _
 72
    65
 73
     2
 40
2.0
 49
2.0
 74
     0
 49
-1.0
 74
     0
  0
LTYPE
  5
1DF
330
5
100
AcDbSymbolTableRecord
100
AcDbLinetypeTableRecord
  2
ACISOTGB
 70
     0
  3
__ . . __ . .
 72
    65
 73
     6
 40
9.0
 49
4.0
 74
     0
 49
-1.0
 74
     0
 49
1.0
 74
     0
 49
-1.0
 74
     0
 49
1.0
 74
     0
 49
-1.0
 74
     0
  0
LTYPE
  5
1E0
330
5
100
AcDbSymbolTableRecord
100
AcDbLinetypeTableRecord
  2
ACISOTGL
 70
     0
  3
_ _ _ _ _
 72
    65
 73
     2
 40
3.0
 49
2.0
 74
     0
 49
-1.0
 74
     0
  0
LTYPE
  5
1FE
330
5
100
AcDbSymbolTableRecord
100
AcDbLinetypeTableRecord
  2
gen3
 70
     0
  3
-- -- -- -- -- -- -- -- -- -- -- -- -- -- --
 72
    65
 73
     2
 40
6.25
 49
4.75
 74
     0
 49
-1.5
 74
     0
  0
LTYPE
  5
1FF
330
5
100
AcDbSymbolTableRecord
100
AcDbLinetypeTableRecord
  2
gen7
 70
     0
  3
____ . ____ . ____ . ____ . ____ . ____ . ____
 72
    65
 73
     4
 40
13.75
 49
9.75
 74
     0
 49
-1.5
 74
     0
 49
1.0
 74
     0
 49
-1.5
 74
     0
  0
LTYPE
  5
200
330
5
100
AcDbSymbolTableRecord
100
AcDbLinetypeTableRecord
  2
gen3a
 70
     0
  3
 - - - - -
 72
    65
 73
     2
 40
3.125
 49
2.25
 74
     0
 49
-0.875
 74
     0
  0
LTYPE
  5
201
330
5
100
AcDbSymbolTableRecord
100
AcDbLinetypeTableRecord
  2
gen7a
 70
     0
  3
__ . __ . __
 72
    65
 73
     4
 40
6.875
 49
4.75
 74
     0
 49
-0.875
 74
     0
 49
0.375
 74
     0
 49
-0.875
 74
     0
  0
LTYPE
  5
202
330
5
100
AcDbSymbolTableRecord
100
AcDbLinetypeTableRecord
  2
gen4a
 70
     0
  3
_____ . . _____ . . _____ . . ____ .. ____
 72
    65
 73
     6
 40
16.25
 49
9.75
 74
     0
 49
-1.5
 74
     0
 49
1.0
 74
     0
 49
-1.5
 74
     0
 49
1.0
 74
     0
 49
-1.5
 74
     0
  0
LTYPE
  5
203
330
5
100
AcDbSymbolTableRecord
100
AcDbLinetypeTableRecord
  2
genzigzag
 70
     0
  3
/\/-/\/-/\/-/\/-/\/-/\/
 72
    65
 73
     2
 40
12.0001
 49
0.0001
 74
     4
 75
   135
340
73
 46
2.0
 50
0.0
 44
0.0
 45
0.0
 49
-12.0
 74
     0
  0
ENDTAB
  0
TABLE
  2
LAYER
  5
2
102
{ACAD_XDICTIONARY
360
2C1
102
}
330
0
100
AcDbSymbolTable
 70
    12
  0
LAYER
  5
10
102
{ACAD_XDICTIONARY
360
3185
102
}
330
2
100
AcDbSymbolTableRecord
100
AcDbLayerTableRecord
  2
0
 70
     0
 62
     7
  6
Continuous
370
    -3
390
F
  0
LAYER
  5
1F0
102
{ACAD_XDICTIONARY
360
3187
102
}
330
2
100
AcDbSymbolTableRecord
100
AcDbLayerTableRecord
  2
AM_5
 70
     0
 62
     3
  6
Continuous
370
    25
390
F
  0
LAYER
  5
204
330
2
100
AcDbSymbolTableRecord
100
AcDbLayerTableRecord
  2
Defpoints
 70
     0
 62
     7
  6
Continuous
290
     0
370
    -3
390
F
  0
LAYER
  5
23E
102
{ACAD_XDICTIONARY
360
3189
102
}
330
2
100
AcDbSymbolTableRecord
100
AcDbLayerTableRecord
  2
7A
 70
     0
 62
     4
  6
gen7a
370
    -3
390
F
  0
LAYER
  5
23F
102
{ACAD_XDICTIONARY
360
318B
102
}
330
2
100
AcDbSymbolTableRecord
100
AcDbLayerTableRecord
  2
RAHM2
 70
     0
 62
     1
  6
Continuous
370
    -3
390
F
  0
LAYER
  5
D8D
102
{ACAD_XDICTIONARY
360
D8E
102
}
330
2
100
AcDbSymbolTableRecord
100
AcDbLayerTableRecord
  2
ﾎﾞﾃﾞｨｰ
 70
     0
 62
     7
  6
Continuous
370
    25
390
F
  0
LAYER
  5
D90
102
{ACAD_XDICTIONARY
360
318D
102
}
330
2
100
AcDbSymbolTableRecord
100
AcDbLayerTableRecord
  2
端子
 70
     0
 62
     2
  6
Continuous
370
    25
390
F
1001
AcAecLayerStandard
1000

1000

  0
LAYER
  5
D91
102
{ACAD_XDICTIONARY
360
318F
102
}
330
2
100
AcDbSymbolTableRecord
100
AcDbLayerTableRecord
  2
zone
 70
     0
 62
     3
  6
Continuous
370
    25
390
F
1001
AcAecLayerStandard
1000

1000

  0
LAYER
  5
1343
102
{ACAD_XDICTIONARY
360
3191
102
}
330
2
100
AcDbSymbolTableRecord
100
AcDbLayerTableRecord
  2
AM_12
 70
     0
 62
     7
  6
Continuous
290
     0
370
    50
390
F
  0
LAYER
  5
1344
102
{ACAD_XDICTIONARY
360
3193
102
}
330
2
100
AcDbSymbolTableRecord
100
AcDbLayerTableRecord
  2
AM_PAREF
 70
     0
 62
     4
  6
Continuous
290
     0
370
    25
390
F
  0
LAYER
  5
13DA
102
{ACAD_XDICTIONARY
360
3195
102
}
330
2
100
AcDbSymbolTableRecord
100
AcDbLayerTableRecord
  2
AM_7
 70
     0
 62
     4
  6
AM_ISO08W050
370
    25
390
F
  0
LAYER
  5
222E
102
{ACAD_XDICTIONARY
360
222F
102
}
330
2
100
AcDbSymbolTableRecord
100
AcDbLayerTableRecord
  2
AM_8
 70
     0
 62
     1
  6
Continuous
370
    25
390
F
  0
ENDTAB
  0
TABLE
  2
STYLE
  5
3
330
0
100
AcDbSymbolTable
 70
    11
  0
STYLE
  5
11
330
3
100
AcDbSymbolTableRecord
100
AcDbTextStyleTableRecord
  2
STANDARD
 70
     0
 40
0.0
 41
1.0
 50
0.0
 71
     0
 42
0.2
  3
ISOCP.SHX
  4
EXTFONT.SHX
  0
STYLE
  5
73
330
3
100
AcDbSymbolTableRecord
100
AcDbTextStyleTableRecord
  2

 70
     1
 40
0.0
 41
1.0
 50
0.0
 71
     0
 42
0.2
  3
ltypeshp.shx
  4

  0
STYLE
  5
7B
330
3
100
AcDbSymbolTableRecord
100
AcDbTextStyleTableRecord
  2
ACANSTS
 70
     0
 40
1.0
 41
1.0
 50
0.0
 71
     0
 42
0.2
  3
isoct.shx
  4
extfont.shx
  0
STYLE
  5
86
330
3
100
AcDbSymbolTableRecord
100
AcDbTextStyleTableRecord
  2
ACANSGDT
 70
     0
 40
0.0
 41
1.0
 50
0.0
 71
     0
 42
0.2
  3
amgdtans.shx
  4

  0
STYLE
  5
13C
330
3
100
AcDbSymbolTableRecord
100
AcDbTextStyleTableRecord
  2
USER1
 70
     0
 40
0.0
 41
1.0
 50
0.0
 71
     0
 42
0.2
  3
TXT.SHX
  4

  0
STYLE
  5
13D
330
3
100
AcDbSymbolTableRecord
100
AcDbTextStyleTableRecord
  2
USER2
 70
     0
 40
0.0
 41
1.0
 50
0.0
 71
     0
 42
0.2
  3
SIMPLEX.SHX
  4

  0
STYLE
  5
13E
330
3
100
AcDbSymbolTableRecord
100
AcDbTextStyleTableRecord
  2
USER3
 70
     0
 40
0.0
 41
1.0
 50
0.0
 71
     0
 42
0.2
  3
ITALIC.SHX
  4

  0
STYLE
  5
1D0
330
3
100
AcDbSymbolTableRecord
100
AcDbTextStyleTableRecord
  2
ACISOTS
 70
     0
 40
1.0
 41
1.0
 50
0.0
 71
     0
 42
0.2
  3
isocp.shx
  4
extfont.shx
  0
STYLE
  5
1DD
330
3
100
AcDbSymbolTableRecord
100
AcDbTextStyleTableRecord
  2
ACISOGDT
 70
     0
 40
0.0
 41
1.0
 50
0.0
 71
     0
 42
0.2
  3
amgdt.shx
  4

  0
STYLE
  5
241
330
3
100
AcDbSymbolTableRecord
100
AcDbTextStyleTableRecord
  2

 70
     1
 40
0.0
 41
1.0
 50
0.0
 71
     0
 42
3.0
  3
genltshp.shx
  4

  0
STYLE
  5
94C
330
3
100
AcDbSymbolTableRecord
100
AcDbTextStyleTableRecord
  2
takachi1
 70
     0
 40
2.5
 41
1.0
 50
0.0
 71
     0
 42
2.5
  3
MS PGothic.ttf
  4

1001
ACAD
1000
MS PGothic
1071
    32818
  0
ENDTAB
  0
TABLE
  2
VIEW
  5
6
330
0
100
AcDbSymbolTable
 70
     6
  0
VIEW
  5
2A6
102
{ACAD_XDICTIONARY
360
31A1
102
}
330
6
100
AcDbSymbolTableRecord
100
AcDbViewTableRecord
  2
AM_VIEW1
 70
     0
 40
140.0
 10
107.1644498186215
 20
215.0000000000001
 41
204.3288996372431
 11
0.0
 21
0.0
 31
1.0
 12
0.0
 22
0.0
 32
0.0
 42
50.0
 43
0.0
 44
0.0
 50
0.0
 71
    16
281
     0
 72
     0
  0
VIEW
  5
2A7
102
{ACAD_XDICTIONARY
360
31A3
102
}
330
6
100
AcDbSymbolTableRecord
100
AcDbViewTableRecord
  2
AM_VIEW2
 70
     0
 40
140.0
 10
95.83555018137847
 20
215.0000000000001
 41
204.3288996372431
 11
0.0
 21
0.0
 31
1.0
 12
0.0
 22
0.0
 32
0.0
 42
50.0
 43
0.0
 44
0.0
 50
0.0
 71
    16
281
     0
 72
     0
  0
VIEW
  5
2A8
102
{ACAD_XDICTIONARY
360
31A5
102
}
330
6
100
AcDbSymbolTableRecord
100
AcDbViewTableRecord
  2
AM_VIEW3
 70
     0
 40
140.0
 10
107.1644498186215
 20
75.00000000000001
 41
204.3288996372431
 11
0.0
 21
0.0
 31
1.0
 12
0.0
 22
0.0
 32
0.0
 42
50.0
 43
0.0
 44
0.0
 50
0.0
 71
    16
281
     0
 72
     0
  0
VIEW
  5
2A9
102
{ACAD_XDICTIONARY
360
31A7
102
}
330
6
100
AcDbSymbolTableRecord
100
AcDbViewTableRecord
  2
AM_VIEW4
 70
     0
 40
140.0
 10
95.83555018137847
 20
75.00000000000001
 41
204.3288996372431
 11
0.0
 21
0.0
 31
1.0
 12
0.0
 22
0.0
 32
0.0
 42
50.0
 43
0.0
 44
0.0
 50
0.0
 71
    16
281
     0
 72
     0
  0
VIEW
  5
2AA
102
{ACAD_XDICTIONARY
360
31A9
102
}
330
6
100
AcDbSymbolTableRecord
100
AcDbViewTableRecord
  2
AM_VIEW5
 70
     0
 40
140.0
 10
101.5
 20
145.0
 41
204.3288996372431
 11
0.0
 21
0.0
 31
1.0
 12
0.0
 22
0.0
 32
0.0
 42
50.0
 43
0.0
 44
0.0
 50
0.0
 71
    16
281
     0
 72
     0
  0
VIEW
  5
2AB
102
{ACAD_XDICTIONARY
360
31AB
102
}
330
6
100
AcDbSymbolTableRecord
100
AcDbViewTableRecord
  2
AM_VIEW6
 70
     0
 40
279.9972000000001
 10
101.5
 20
145.0
 41
408.6537126964933
 11
0.0
 21
0.0
 31
1.0
 12
0.0
 22
0.0
 32
0.0
 42
50.0
 43
0.0
 44
0.0
 50
0.0
 71
    16
281
     0
 72
     0
  0
ENDTAB
  0
TABLE
  2
UCS
  5
7
330
0
100
AcDbSymbolTable
 70
     0
  0
ENDTAB
  0
TABLE
  2
APPID
  5
9
330
0
100
AcDbSymbolTable
 70
    37
  0
APPID
  5
12
330
9
100
AcDbSymbolTableRecord
100
AcDbRegAppTableRecord
  2
ACAD
 70
     0
  0
APPID
  5
4E
330
9
100
AcDbSymbolTableRecord
100
AcDbRegAppTableRecord
  2
MCAD_NO_VIS
 70
     0
  0
APPID
  5
4F
330
9
100
AcDbSymbolTableRecord
100
AcDbRegAppTableRecord
  2
ACAD_TEMP_GRAPHIC
 70
     0
  0
APPID
  5
60
330
9
100
AcDbSymbolTableRecord
100
AcDbRegAppTableRecord
  2
ACATTRIBSERVICES
 70
     0
  0
APPID
  5
F7
330
9
100
AcDbSymbolTableRecord
100
AcDbRegAppTableRecord
  2
AD_DRAW
 70
     0
  0
APPID
  5
115
330
9
100
AcDbSymbolTableRecord
100
AcDbRegAppTableRecord
  2
DESIGNERASSEMBLIES
 70
     0
  0
APPID
  5
11A
330
9
100
AcDbSymbolTableRecord
100
AcDbRegAppTableRecord
  2
ACADM_DIM_EDIT
 70
     0
  0
APPID
  5
11B
330
9
100
AcDbSymbolTableRecord
100
AcDbRegAppTableRecord
  2
AMDT_DM_ADJ
 70
     0
  0
APPID
  5
20C
330
9
100
AcDbSymbolTableRecord
100
AcDbRegAppTableRecord
  2
GENIUS_GENREC_14
 70
     0
  0
APPID
  5
20D
330
9
100
AcDbSymbolTableRecord
100
AcDbRegAppTableRecord
  2
GENIUS_GENODEF_13
 70
     0
  0
APPID
  5
20E
330
9
100
AcDbSymbolTableRecord
100
AcDbRegAppTableRecord
  2
GENIUS_GENOBJ-N-REC_13
 70
     0
  0
APPID
  5
20F
330
9
100
AcDbSymbolTableRecord
100
AcDbRegAppTableRecord
  2
GENIUS_GENCFG_13
 70
     0
  0
APPID
  5
210
330
9
100
AcDbSymbolTableRecord
100
AcDbRegAppTableRecord
  2
GENIUS_GENCFG0_13
 70
     0
  0
APPID
  5
211
330
9
100
AcDbSymbolTableRecord
100
AcDbRegAppTableRecord
  2
GENIUS_GENCFG1_13
 70
     0
  0
APPID
  5
212
330
9
100
AcDbSymbolTableRecord
100
AcDbRegAppTableRecord
  2
GENIUS_GENCFG2_13
 70
     0
  0
APPID
  5
213
330
9
100
AcDbSymbolTableRecord
100
AcDbRegAppTableRecord
  2
GENIUS_GENCFG3_13
 70
     0
  0
APPID
  5
214
330
9
100
AcDbSymbolTableRecord
100
AcDbRegAppTableRecord
  2
GENIUS_GENCFG4_13
 70
     0
  0
APPID
  5
215
330
9
100
AcDbSymbolTableRecord
100
AcDbRegAppTableRecord
  2
GENIUS_GEVCFG0_13
 70
     0
  0
APPID
  5
216
330
9
100
AcDbSymbolTableRecord
100
AcDbRegAppTableRecord
  2
GENIUS_GENOENT_13
 70
     0
  0
APPID
  5
217
330
9
100
AcDbSymbolTableRecord
100
AcDbRegAppTableRecord
  2
GENIUS_GENDIMSH_14
 70
     0
  0
APPID
  5
218
330
9
100
AcDbSymbolTableRecord
100
AcDbRegAppTableRecord
  2
GENIUS_GENOBJ-N-CRS_13
 70
     0
  0
APPID
  5
219
330
9
100
AcDbSymbolTableRecord
100
AcDbRegAppTableRecord
  2
GENIUS_GENOREF_13
 70
     0
  0
APPID
  5
21A
330
9
100
AcDbSymbolTableRecord
100
AcDbRegAppTableRecord
  2
GENIUS_GENOLIS_13
 70
     0
  0
APPID
  5
21B
330
9
100
AcDbSymbolTableRecord
100
AcDbRegAppTableRecord
  2
GENIUS_GENOBJ-N-TIT_13
 70
     0
  0
APPID
  5
21C
330
9
100
AcDbSymbolTableRecord
100
AcDbRegAppTableRecord
  2
GENIUS_GENTITLE_13
 70
     0
  0
APPID
  5
21D
330
9
100
AcDbSymbolTableRecord
100
AcDbRegAppTableRecord
  2
GENIUS_GENSCREG_15
 70
     0
  0
APPID
  5
21E
330
9
100
AcDbSymbolTableRecord
100
AcDbRegAppTableRecord
  2
GENIUS_GENOBJ-N-SDF_13
 70
     0
  0
APPID
  5
21F
330
9
100
AcDbSymbolTableRecord
100
AcDbRegAppTableRecord
  2
GENIUS_GENOBJ-N-CEN_13
 70
     0
  0
APPID
  5
220
330
9
100
AcDbSymbolTableRecord
100
AcDbRegAppTableRecord
  2
GENIUS_GENOBJ-N-HTC_13
 70
     0
  0
APPID
  5
221
330
9
100
AcDbSymbolTableRecord
100
AcDbRegAppTableRecord
  2
GENIUS_GENHATCH_13
 70
     0
  0
APPID
  5
222
330
9
100
AcDbSymbolTableRecord
100
AcDbRegAppTableRecord
  2
GENIUS_GENOBJ-N-ZOO_13
 70
     0
  0
APPID
  5
223
330
9
100
AcDbSymbolTableRecord
100
AcDbRegAppTableRecord
  2
GENIUS_GENZOO_17
 70
     0
  0
APPID
  5
D96
330
9
100
AcDbSymbolTableRecord
100
AcDbRegAppTableRecord
  2
GENIUS_GENOBJ-N-FIL_13
 70
     0
  0
APPID
  5
D97
330
9
100
AcDbSymbolTableRecord
100
AcDbRegAppTableRecord
  2
GENIUS_GENFIL_13
 70
     0
  0
APPID
  5
D98
330
9
100
AcDbSymbolTableRecord
100
AcDbRegAppTableRecord
  2
GENIUS_GENOBJ-N-CHA_13
 70
     0
  0
APPID
  5
D99
330
9
100
AcDbSymbolTableRecord
100
AcDbRegAppTableRecord
  2
AcAecLayerStandard
 70
     0
  0
APPID
  5
3153
330
9
100
AcDbSymbolTableRecord
100
AcDbRegAppTableRecord
  2
ACAD_MLEADERVER
 70
     0
  0
ENDTAB
  0
TABLE
  2
DIMSTYLE
  5
A
330
0
100
AcDbSymbolTable
 70
    26
100
AcDbDimStyleTable
 71
     2
340
1E7
340
8C
  0
DIMSTYLE
105
27
330
A
100
AcDbSymbolTableRecord
100
AcDbDimStyleTableRecord
  2
Standard
 70
     0
340
11
  0
DIMSTYLE
105
8C
330
A
100
AcDbSymbolTableRecord
100
AcDbDimStyleTableRecord
  2
AM_ANSI
 70
     0
  4
mm
 41
0.1
 42
0.05
 43
0.5
 44
0.1
 47
0.1
 48
0.1
 78
     7
 79
     2
140
0.12
141
0.0
146
0.71
147
0.06
176
   256
177
   256
178
     2
274
     4
284
     7
340
11
371
    -1
372
    -1
  0
DIMSTYLE
105
8D
330
A
100
AcDbSymbolTableRecord
100
AcDbDimStyleTableRecord
  2
AM_ANSI$3
 70
     0
  4
mm
 41
0.1
 42
0.05
 43
0.5
 44
0.1
 47
0.1
 48
0.1
 78
     7
 79
     2
140
0.12
141
0.0
146
0.71
147
0.06
176
   256
177
   256
178
     2
274
     4
284
     7
288
     1
289
     0
340
11
371
    -1
372
    -1
  0
DIMSTYLE
105
8E
330
A
100
AcDbSymbolTableRecord
100
AcDbDimStyleTableRecord
  2
AM_ANSI$4
 70
     0
  4
mm
 41
0.1
 42
0.05
 43
0.5
 44
0.1
 47
0.1
 48
0.1
 78
     7
 79
     2
140
0.12
141
0.0
146
0.71
147
0.06
176
   256
177
   256
178
     2
274
     4
284
     7
288
     1
289
     0
340
11
371
    -1
372
    -1
  0
DIMSTYLE
105
8F
330
A
100
AcDbSymbolTableRecord
100
AcDbDimStyleTableRecord
  2
AM_ANSI$7
 70
     0
  4
mm
 41
0.1
 42
0.05
 43
0.5
 44
0.1
 47
0.1
 48
0.1
 78
     7
 79
     2
140
0.24
141
0.0
146
0.71
147
0.06
176
   256
177
   256
178
     2
274
     4
284
     7
340
11
371
    -1
372
    -1
  0
DIMSTYLE
105
90
330
A
100
AcDbSymbolTableRecord
100
AcDbDimStyleTableRecord
  2
AM_ANSI$SF
 70
     0
  4
mm
 41
0.1
 42
0.05
 43
0.5
 44
0.1
 47
0.1
 48
0.1
 75
     1
 76
     1
 78
     7
 79
     2
140
0.12
141
0.0
146
0.71
147
0.06
176
   256
177
   256
178
     2
274
     4
284
     7
340
11
371
    -1
372
    -1
  0
DIMSTYLE
105
95
330
A
100
AcDbSymbolTableRecord
100
AcDbDimStyleTableRecord
  2
AM_ANSI$SH
 70
     0
  4
mm
 41
0.1
 42
0.05
 43
0.5
 44
0.1
 47
0.1
 48
0.1
 75
     1
 76
     1
 78
     7
 79
     2
140
0.12
141
0.0
146
0.71
147
0.06
173
     1
176
   256
177
   256
178
     2
274
     4
284
     7
340
11
343
91
371
    -1
372
    -1
  0
DIMSTYLE
105
1E7
330
A
100
AcDbSymbolTableRecord
100
AcDbDimStyleTableRecord
  2
AM_ISO
 70
     0
  4
"
 41
2.5
 42
1.0
 43
10.0
 44
1.0
 47
0.1
 48
0.1
 73
     0
 74
     0
 77
     1
 78
     8
 79
     2
140
3.5
141
0.0
143
0.0393701
146
0.71
147
1.5
172
     1
176
     3
177
     3
178
     2
271
     2
272
     2
283
     0
284
     8
340
11
341
1F8
342
1F8
371
    -1
372
    -1
  0
DIMSTYLE
105
1E8
102
{ACAD_REACTORS
330
2F9A
102
}
330
A
100
AcDbSymbolTableRecord
100
AcDbDimStyleTableRecord
  2
AM_ISO$3
 70
     0
  4
"
 41
2.5
 42
1.0
 43
10.0
 44
1.0
 47
0.1
 48
0.1
 73
     0
 77
     1
 78
     8
 79
     2
140
3.5
141
0.0
143
0.0393701
146
0.71
147
1.5
176
     3
177
     3
178
     2
271
     2
272
     2
283
     0
284
     8
288
     1
289
     0
340
11
341
1F8
342
1F8
371
    -1
372
    -1
  0
DIMSTYLE
105
1E9
330
A
100
AcDbSymbolTableRecord
100
AcDbDimStyleTableRecord
  2
AM_ISO$4
 70
     0
  4
"
 41
2.5
 42
1.0
 43
10.0
 44
1.0
 47
0.1
 48
0.1
 73
     0
 77
     1
 78
     8
 79
     2
140
3.5
141
0.0
143
0.0393701
146
0.71
147
1.5
176
     3
177
     3
178
     2
271
     2
272
     2
283
     0
284
     8
288
     1
289
     0
340
11
341
1F8
342
1F8
371
    -1
372
    -1
  0
DIMSTYLE
105
1EA
330
A
100
AcDbSymbolTableRecord
100
AcDbDimStyleTableRecord
  2
AM_ISO$6
 70
     0
  4
"
 41
2.5
 42
1.0
 43
10.0
 44
1.0
 47
0.1
 48
0.1
 73
     0
 74
     0
 78
     8
 79
     2
140
3.5
141
0.0
143
0.0393701
146
0.71
147
1.5
172
     1
176
     3
177
     3
178
     2
271
     2
272
     2
283
     0
284
     8
340
11
341
1F8
342
1F8
371
    -1
372
    -1
  0
DIMSTYLE
105
1EB
330
A
100
AcDbSymbolTableRecord
100
AcDbDimStyleTableRecord
  2
AM_ISO$7
 70
     0
  4
"
 41
2.5
 42
1.0
 43
10.0
 44
1.0
 47
0.1
 48
0.1
 73
     0
 74
     0
 77
     1
 78
     8
 79
     2
140
5.0
141
0.0
143
0.0393701
146
0.71
147
1.5
172
     1
176
     3
177
     3
178
     2
271
     2
272
     2
283
     0
284
     8
340
11
341
1F8
342
1F8
371
    -1
372
    -1
  0
DIMSTYLE
105
1EC
330
A
100
AcDbSymbolTableRecord
100
AcDbDimStyleTableRecord
  2
AM_ISO$SF
 70
     0
  4
"
 41
2.5
 42
1.0
 43
10.0
 44
1.0
 47
0.1
 48
0.1
 73
     0
 74
     0
 75
     1
 76
     1
 77
     1
 78
     8
 79
     2
140
3.5
141
0.0
143
0.0393701
146
0.71
147
1.5
172
     1
176
   256
177
   256
178
     2
271
     2
272
     3
274
     4
283
     0
284
     8
340
11
371
    -1
372
    -1
  0
DIMSTYLE
105
1ED
330
A
100
AcDbSymbolTableRecord
100
AcDbDimStyleTableRecord
  2
AM_ISO$SH
 70
     0
  4
"
 41
2.5
 42
1.0
 43
10.0
 44
1.0
 47
0.1
 48
0.1
 73
     0
 74
     0
 75
     1
 76
     1
 77
     1
 78
     8
 79
     2
140
3.5
141
0.0
143
0.0393701
144
2.0
146
0.71
147
1.5
172
     1
173
     1
176
   256
177
   256
178
     2
271
     2
272
     3
274
     4
283
     0
284
     8
340
11
343
91
371
    -1
372
    -1
  0
DIMSTYLE
105
205
330
A
100
AcDbSymbolTableRecord
100
AcDbDimStyleTableRecord
  2
GEN-ISO
 70
     0
  4
"
 41
2.5
 42
1.0
 43
10.0
 44
1.0
 47
0.1
 48
0.1
 73
     0
 74
     0
 77
     1
 78
     8
140
3.5
141
0.0
143
0.0393701
146
0.71
147
1.5
172
     1
176
   256
177
   256
178
     2
271
     2
272
     3
274
     4
283
     0
340
11
  0
DIMSTYLE
105
206
330
A
100
AcDbSymbolTableRecord
100
AcDbDimStyleTableRecord
  2
GEN-ISO$3
 70
     0
  4
"
 41
2.5
 42
1.0
 43
10.0
 44
1.0
 47
0.1
 48
0.1
 73
     0
 77
     1
 78
     8
140
3.5
141
0.0
143
0.0393701
146
0.71
147
1.5
176
   256
177
   256
178
     2
271
     2
272
     3
274
     4
283
     0
288
     1
289
     0
340
11
  0
DIMSTYLE
105
207
330
A
100
AcDbSymbolTableRecord
100
AcDbDimStyleTableRecord
  2
GEN-ISO$4
 70
     0
  4
"
 41
2.5
 42
1.0
 43
10.0
 44
1.0
 47
0.1
 48
0.1
 73
     0
 77
     1
 78
     8
140
3.5
141
0.0
143
0.0393701
146
0.71
147
1.5
176
   256
177
   256
178
     2
271
     2
272
     3
274
     4
283
     0
288
     1
289
     0
340
11
  0
DIMSTYLE
105
208
330
A
100
AcDbSymbolTableRecord
100
AcDbDimStyleTableRecord
  2
GEN-ISO$6
 70
     0
  4
"
 41
2.5
 42
1.0
 43
10.0
 44
1.0
 47
0.1
 48
0.1
 73
     0
 74
     0
 78
     8
140
3.5
141
0.0
143
0.0393701
146
0.71
147
1.5
176
   256
177
   256
178
     2
271
     2
272
     3
274
     4
283
     0
340
11
  0
DIMSTYLE
105
209
330
A
100
AcDbSymbolTableRecord
100
AcDbDimStyleTableRecord
  2
GEN-ISO-POS
 70
     0
  4
"
 41
2.5
 42
1.0
 43
10.0
 44
1.0
 47
0.1
 48
0.1
 73
     0
 74
     0
 78
     8
140
5.0
141
0.0
143
0.0393701
146
0.71
147
1.5
176
   256
177
   256
178
     2
271
     2
272
     3
274
     4
283
     0
340
11
  0
DIMSTYLE
105
20A
330
A
100
AcDbSymbolTableRecord
100
AcDbDimStyleTableRecord
  2
GEN-ISO-AXE-F
 70
     0
  4
"
 41
2.5
 42
1.0
 43
10.0
 44
1.0
 47
0.1
 48
0.1
 73
     0
 74
     0
 75
     1
 76
     1
 77
     1
 78
     8
140
3.5
141
0.0
143
0.0393701
146
0.71
147
1.5
172
     1
176
   256
177
   256
178
     2
271
     2
272
     3
274
     4
283
     0
340
11
  0
DIMSTYLE
105
20B
330
A
100
AcDbSymbolTableRecord
100
AcDbDimStyleTableRecord
  2
GEN-ISO-AXE-H
 70
     0
  4
"
 41
2.5
 42
1.0
 43
10.0
 44
1.0
 47
0.1
 48
0.1
 73
     0
 74
     0
 75
     1
 76
     1
 77
     1
 78
     8
140
3.5
141
0.0
143
0.0393701
144
2.0
146
0.71
147
1.5
172
     1
173
     1
176
   256
177
   256
178
     2
271
     2
272
     3
274
     4
283
     0
340
11
  0
DIMSTYLE
105
2BD
330
A
100
AcDbSymbolTableRecord
100
AcDbDimStyleTableRecord
  2
ISO-35
 70
     0
 41
3.5
 42
0.875
 43
5.25
 44
1.75
 73
     0
 74
     0
 77
     1
 78
     8
140
3.5
141
3.5
143
0.0394
147
0.875
171
     4
172
     1
273
     8
274
     4
277
     6
340
11
341
1F8
342
1F8
  0
DIMSTYLE
105
2BE
330
A
100
AcDbSymbolTableRecord
100
AcDbDimStyleTableRecord
  2
ISO-5
 70
     0
 41
5.0
 42
1.25
 43
7.5
 44
2.5
 73
     0
 74
     0
 77
     1
 78
     8
140
5.0
141
5.0
143
0.0394
147
1.25
171
     4
172
     1
273
     8
274
     4
277
     6
340
11
341
1F8
342
1F8
  0
DIMSTYLE
105
2BF
330
A
100
AcDbSymbolTableRecord
100
AcDbDimStyleTableRecord
  2
ISO-7
 70
     0
 41
7.0
 42
1.75
 43
10.5
 44
3.5
 73
     0
 74
     0
 77
     1
 78
     8
140
7.0
141
7.0
143
0.0394
147
1.75
171
     4
172
     1
273
     8
274
     4
277
     6
340
11
341
1F8
342
1F8
  0
DIMSTYLE
105
2C0
330
A
100
AcDbSymbolTableRecord
100
AcDbDimStyleTableRecord
  2
ISO-4
 70
     0
 41
14.0
 42
3.5
 43
21.0
 44
7.0
 73
     0
 74
     0
 77
     1
 78
     8
140
14.0
141
14.0
143
0.0394
147
3.5
171
     4
172
     1
273
     8
274
     4
277
     6
340
11
341
1F8
342
1F8
  0
DIMSTYLE
105
D95
102
{ACAD_REACTORS
330
2E9D
330
2EBF
330
2EE1
330
2F5D
330
2F7F
330
2FC1
330
2FED
102
}
330
A
100
AcDbSymbolTableRecord
100
AcDbDimStyleTableRecord
  2
AM_ISO$0
 70
     0
  4
"
 41
2.5
 42
1.0
 43
10.0
 44
1.0
 47
0.1
 48
0.1
 73
     0
 74
     0
 77
     1
 78
     8
 79
     2
140
3.5
141
0.0
143
0.0393701
146
0.71
147
1.5
172
     1
176
     3
177
     3
178
     2
271
     2
272
     2
283
     0
284
     8
340
11
341
1F8
342
1F8
371
    -1
372
    -1
  0
ENDTAB
  0
TABLE
  2
BLOCK_RECORD
  5
1
330
0
100
AcDbSymbolTable
 70
    28
  0
BLOCK_RECORD
  5
1F
102
{ACAD_XDICTIONARY
360
99
102
}
330
1
100
AcDbSymbolTableRecord
100
AcDbBlockTableRecord
  2
*Model_Space
340
22
  0
BLOCK_RECORD
  5
23
330
1
100
AcDbSymbolTableRecord
100
AcDbBlockTableRecord
  2
*Paper_Space
340
26
  0
BLOCK_RECORD
  5
1B
330
1
100
AcDbSymbolTableRecord
100
AcDbBlockTableRecord
  2
*Paper_Space0
340
1E
  0
BLOCK_RECORD
  5
91
330
1
100
AcDbSymbolTableRecord
100
AcDbBlockTableRecord
  2
GENAXEH
340
0
  0
BLOCK_RECORD
  5
1F8
330
1
100
AcDbSymbolTableRecord
100
AcDbBlockTableRecord
  2
_Open30
340
0
102
{BLKREFS
331
3208
331
3209
331
3211
331
3212
331
321C
331
321D
331
3225
331
3226
331
3230
331
3231
331
3238
331
3241
331
324C
102
}
  0
BLOCK_RECORD
  5
224
102
{ACAD_XDICTIONARY
360
22D
102
}
330
1
100
AcDbSymbolTableRecord
100
AcDbBlockTableRecord
  2
TAKACHI-A3
340
0
  0
BLOCK_RECORD
  5
242
102
{ACAD_XDICTIONARY
360
297
102
}
330
1
100
AcDbSymbolTableRecord
100
AcDbBlockTableRecord
  2
TAKACHI-TITLE
340
0
  0
BLOCK_RECORD
  5
A0D
102
{ACAD_XDICTIONARY
360
A15
102
}
330
1
100
AcDbSymbolTableRecord
100
AcDbBlockTableRecord
  2
TAKACHI-A3-2
340
0
  0
BLOCK_RECORD
  5
A20
102
{ACAD_XDICTIONARY
360
A79
102
}
330
1
100
AcDbSymbolTableRecord
100
AcDbBlockTableRecord
  2
TAKACHI-TITLEA3
340
0
  0
BLOCK_RECORD
  5
AA1
102
{ACAD_XDICTIONARY
360
AA9
102
}
330
1
100
AcDbSymbolTableRecord
100
AcDbBlockTableRecord
  2
TAKACHI-A4-2
340
0
  0
BLOCK_RECORD
  5
AE9
102
{ACAD_XDICTIONARY
360
AF1
102
}
330
1
100
AcDbSymbolTableRecord
100
AcDbBlockTableRecord
  2
TK-A3
340
0
  0
BLOCK_RECORD
  5
AFC
102
{ACAD_XDICTIONARY
360
B55
102
}
330
1
100
AcDbSymbolTableRecord
100
AcDbBlockTableRecord
  2
TK-TITLE
340
0
102
{BLKREFS
331
C63
102
}
  0
BLOCK_RECORD
  5
C4F
102
{ACAD_XDICTIONARY
360
C57
102
}
330
1
100
AcDbSymbolTableRecord
100
AcDbBlockTableRecord
  2
TK-A4
340
0
102
{BLKREFS
331
C61
102
}
  0
BLOCK_RECORD
  5
C70
330
1
100
AcDbSymbolTableRecord
100
AcDbBlockTableRecord
  2
GENDOT
340
0
102
{BLKREFS
331
3242
331
324D
102
}
  0
BLOCK_RECORD
  5
1366
102
{ACAD_XDICTIONARY
360
136D
102
}
330
1
100
AcDbSymbolTableRecord
100
AcDbBlockTableRecord
  2
A$C4EF1171D
340
0
102
{BLKREFS
331
2E8B
102
}
  0
BLOCK_RECORD
  5
1374
102
{ACAD_XDICTIONARY
360
1383
102
}
330
1
100
AcDbSymbolTableRecord
100
AcDbBlockTableRecord
  2
A$C736D53F2
340
0
102
{BLKREFS
331
2E8C
331
3029
102
}
  0
BLOCK_RECORD
  5
2E9E
330
1
100
AcDbSymbolTableRecord
100
AcDbBlockTableRecord
  2
*D15
340
0
  0
BLOCK_RECORD
  5
2EC0
330
1
100
AcDbSymbolTableRecord
100
AcDbBlockTableRecord
  2
*D16
340
0
  0
BLOCK_RECORD
  5
2EE2
330
1
100
AcDbSymbolTableRecord
100
AcDbBlockTableRecord
  2
*D17
340
0
  0
BLOCK_RECORD
  5
2F5E
330
1
100
AcDbSymbolTableRecord
100
AcDbBlockTableRecord
  2
*D18
340
0
  0
BLOCK_RECORD
  5
2F80
330
1
100
AcDbSymbolTableRecord
100
AcDbBlockTableRecord
  2
*D19
340
0
  0
BLOCK_RECORD
  5
2F9B
330
1
100
AcDbSymbolTableRecord
100
AcDbBlockTableRecord
  2
*D20
340
0
  0
BLOCK_RECORD
  5
2FC2
330
1
100
AcDbSymbolTableRecord
100
AcDbBlockTableRecord
  2
*D21
340
0
  0
BLOCK_RECORD
  5
2FEE
330
1
100
AcDbSymbolTableRecord
100
AcDbBlockTableRecord
  2
*D22
340
0
  0
BLOCK_RECORD
  5
32A1
330
1
100
AcDbSymbolTableRecord
100
AcDbBlockTableRecord
  2
*S23
340
0
  0
BLOCK_RECORD
  5
32A8
330
1
100
AcDbSymbolTableRecord
100
AcDbBlockTableRecord
  2
*S24
340
0
  0
BLOCK_RECORD
  5
32B0
330
1
100
AcDbSymbolTableRecord
100
AcDbBlockTableRecord
  2
*S25
340
0
  0
BLOCK_RECORD
  5
32B7
330
1
100
AcDbSymbolTableRecord
100
AcDbBlockTableRecord
  2
*S26
340
0
  0
BLOCK_RECORD
  5
32BF
330
1
100
AcDbSymbolTableRecord
100
AcDbBlockTableRecord
  2
*S27
340
0
  0
ENDTAB
  0
ENDSEC
  0
SECTION
  2
BLOCKS
  0
BLOCK
  5
20
330
1F
100
AcDbEntity
  8
0
100
AcDbBlockBegin
  2
*Model_Space
 70
     0
 10
0.0
 20
0.0
 30
0.0
  3
*Model_Space
  1

  0
ENDBLK
  5
21
330
1F
100
AcDbEntity
  8
0
100
AcDbBlockEnd
  0
BLOCK
  5
24
330
23
100
AcDbEntity
 67
     1
  8
0
100
AcDbBlockBegin
  2
*Paper_Space
 70
     0
 10
0.0
 20
0.0
 30
0.0
  3
*Paper_Space
  1

  0
ENDBLK
  5
25
330
23
100
AcDbEntity
 67
     1
  8
0
100
AcDbBlockEnd
  0
BLOCK
  5
1C
330
1B
100
AcDbEntity
  8
0
100
AcDbBlockBegin
  2
*Paper_Space0
 70
     0
 10
0.0
 20
0.0
 30
0.0
  3
*Paper_Space0
  1

  0
VIEWPORT
  5
182
102
{ACAD_XDICTIONARY
360
319D
102
}
330
1B
100
AcDbEntity
  8
0
100
AcDbViewport
 10
5.249999639556163
 20
3.999999883606677
 30
0.0
 40
14.57585398793907
 41
8.992999745766947
 69
     0
 12
5.249999639556163
 22
3.999999883606677
 13
0.0
 23
0.0
 14
10.0
 24
10.0
 15
10.0
 25
10.0
 16
0.0
 26
0.0
 36
1.0
 17
0.0
 27
0.0
 37
0.0
 42
50.0
 43
0.0
 44
0.0
 45
8.992999745766947
 50
0.0
 51
0.0
 72
   100
 90
    32800
  1

281
     0
 71
     1
 74
     0
110
0.0
120
0.0
130
0.0
111
1.0
121
0.0
131
0.0
112
0.0
122
1.0
132
0.0
 79
     0
146
0.0
  0
ENDBLK
  5
1D
330
1B
100
AcDbEntity
  8
0
100
AcDbBlockEnd
  0
BLOCK
  5
93
330
91
100
AcDbEntity
  8
0
100
AcDbBlockBegin
  2
GENAXEH
 70
     0
 10
0.0
 20
0.0
 30
0.0
  3
GENAXEH
  1

  0
LINE
  5
92
330
91
100
AcDbEntity
  8
0
100
AcDbLine
 10
-1.0
 20
0.0
 30
0.0
 11
1.0
 21
0.0
 31
0.0
  0
ENDBLK
  5
94
330
91
100
AcDbEntity
  8
0
100
AcDbBlockEnd
  0
BLOCK
  5
1F9
330
1F8
100
AcDbEntity
  8
0
100
AcDbBlockBegin
  2
_Open30
 70
     0
 10
0.0
 20
0.0
 30
0.0
  3
_Open30
  1

  0
LINE
  5
1FA
330
1F8
100
AcDbEntity
  8
0
  6
ByBlock
 62
     0
370
    -2
100
AcDbLine
 10
-1.0
 20
0.26794919
 30
0.0
 11
0.0
 21
0.0
 31
0.0
  0
LINE
  5
1FB
330
1F8
100
AcDbEntity
  8
0
  6
ByBlock
 62
     0
370
    -2
100
AcDbLine
 10
0.0
 20
0.0
 30
0.0
 11
-1.0
 21
-0.26794919
 31
0.0
  0
LINE
  5
1FC
330
1F8
100
AcDbEntity
  8
0
  6
ByBlock
 62
     0
370
    -2
100
AcDbLine
 10
0.0
 20
0.0
 30
0.0
 11
-1.0
 21
0.0
 31
0.0
  0
ENDBLK
  5
1FD
330
1F8
100
AcDbEntity
  8
0
100
AcDbBlockEnd
  0
BLOCK
  5
22E
330
224
100
AcDbEntity
  8
0
100
AcDbBlockBegin
  2
TAKACHI-A3
 70
     0
 10
0.0
 20
0.0
 30
0.0
  3
TAKACHI-A3
  1

  0
LWPOLYLINE
  5
225
330
224
100
AcDbEntity
  8
0
100
AcDbPolyline
 90
        4
 70
     1
 43
0.0
 10
10.0
 20
0.0
 10
410.0
 20
0.0
 10
410.0
 20
280.0
 10
10.00000000000003
 20
280.0
1001
GENIUS_GENREC_14
1002
{
1000
PYDIR
1011
10.00000000000001
1021
280.0
1031
0.0
1002
}
1002
{
1000
PXDIR
1011
410.0
1021
0.0
1031
0.0
1002
}
1002
{
1000
PORI
1011
10.0
1021
0.0
1031
0.0
1002
}
1002
{
1000
PINS
1011
210.0
1021
139.9999999999999
1031
0.0
1002
}
1002
{
1000
HVAL
1000
280
1002
}
1002
{
1000
H
1070
     2
1002
}
1002
{
1000
WVAL
1000
400
1002
}
1002
{
1000
W
1070
     2
1002
}
1002
{
1000
C
1070
     4
1002
}
1001
GENIUS_GENODEF_13
1002
{
1000
HIER
1070
     0
1002
}
1002
{
1000
MANEDIT
1070
     0
1002
}
1002
{
1000
NOSEL
1070
     0
1002
}
1002
{
1000
BEHIND
1070
     0
1002
}
1002
{
1000
REACTOR
1002
}
1001
GENIUS_GENOBJ-N-REC_13
1002
{
1000
OWNER
1000
GEN
1002
}
  0
TEXT
  5
226
330
224
100
AcDbEntity
  8
0
 60
     1
100
AcDbText
 10
15.00000000000003
 20
50.0
 30
0.0
 40
2.5
  1
!GENTITLE-LL
100
AcDbText
  0
TEXT
  5
227
330
224
100
AcDbEntity
  8
0
 60
     1
100
AcDbText
 10
410.0
 20
0.0
 30
0.0
 40
2.5
  1
!GENTITLE-INSERT
100
AcDbText
  0
TEXT
  5
228
330
224
100
AcDbEntity
  8
0
 60
     1
100
AcDbText
 10
405.0
 20
275.0
 30
0.0
 40
2.5
  1
!GENTITLE-RU
100
AcDbText
  0
TEXT
  5
229
330
224
100
AcDbEntity
  8
0
 60
     1
100
AcDbText
 10
410.0
 20
280.0
 30
0.0
 40
2.5
  1
!GENTITLE-MAX
100
AcDbText
  0
LINE
  5
22A
330
224
100
AcDbEntity
  8
0
100
AcDbLine
 10
366.0
 20
275.0
 30
0.0
 11
410.0
 21
275.0
 31
0.0
  0
MTEXT
  5
22B
330
224
100
AcDbEntity
  8
0
100
AcDbMText
 10
409.3592953827348
 20
276.108542987227
 30
0.0
 40
2.5
 41
43.07840397728298
 71
     9
 72
     5
  1
(文書番号：TY-34)2004.10.29
 73
     1
 44
1.0
1001
ACAD
1000
MTEXTBEGIN
1070
    73
1070
     1
1070
    44
1040
1.0
1070
    74
1070
     0
1000
MTEXTEND
  0
LINE
  5
22C
330
224
100
AcDbEntity
  8
0
100
AcDbLine
 10
366.0
 20
280.0
 30
0.0
 11
366.0
 21
275.0
 31
0.0
  0
ENDBLK
  5
22F
330
224
100
AcDbEntity
  8
0
100
AcDbBlockEnd
  0
BLOCK
  5
298
330
242
100
AcDbEntity
  8
0
100
AcDbBlockBegin
  2
TAKACHI-TITLE
 70
     2
 10
0.0
 20
0.0
 30
0.0
  3
TAKACHI-TITLE
  1

  0
LINE
  5
243
330
242
100
AcDbEntity
  8
RAHM2
100
AcDbLine
 10
-195.0
 20
30.00000000000003
 30
0.0
 11
-94.0
 21
30.00000000000003
 31
0.0
  0
LINE
  5
244
330
242
100
AcDbEntity
  8
RAHM2
100
AcDbLine
 10
-195.0
 20
35.00000000000003
 30
0.0
 11
-94.0
 21
35.00000000000003
 31
0.0
  0
LINE
  5
245
330
242
100
AcDbEntity
  8
RAHM2
100
AcDbLine
 10
-195.0
 20
40.00000000000002
 30
0.0
 11
-94.0
 21
40.00000000000002
 31
0.0
  0
LINE
  5
246
330
242
100
AcDbEntity
  8
RAHM2
100
AcDbLine
 10
-195.0
 20
45.00000000000002
 30
0.0
 11
-94.0
 21
45.00000000000002
 31
0.0
  0
LINE
  5
247
330
242
100
AcDbEntity
  8
0
100
AcDbLine
 10
-195.0
 20
7.0
 30
0.0
 11
-94.0
 21
7.0
 31
0.0
  0
LINE
  5
248
330
242
100
AcDbEntity
  8
0
100
AcDbLine
 10
-195.0
 20
19.99999999999997
 30
0.0
 11
-94.0
 21
19.99999999999997
 31
0.0
  0
ATTDEF
  5
249
330
242
100
AcDbEntity
  8
0
100
AcDbText
 10
-183.2438527145607
 20
8.617517191094748
 30
0.0
 40
2.5
  1

 11
-183.2438527145607
 21
8.617517191094748
 31
0.0
100
AcDbAttributeDefinition
  3
サブタイトル
  2
GEN-TITLE-DES2
 70
     0
 74
     1
  0
ATTDEF
  5
24A
330
242
100
AcDbEntity
  8
0
100
AcDbText
 10
-183.2438527145607
 20
1.617517191094748
 30
0.0
 40
3.0
  1

 11
-183.2438527145607
 21
1.617517191094748
 31
0.0
100
AcDbAttributeDefinition
  3
図番
  2
GEN-TITLE-NR
 70
     0
 74
     1
  0
MTEXT
  5
24B
330
242
100
AcDbEntity
  8
RAHM2
100
AcDbMText
 10
-193.8002551371314
 20
5.801035407279641
 30
0.0
 40
2.5
 41
90.0
 71
     1
 72
     5
  1
図番
 73
     1
 44
1.0
1001
ACAD
1000
MTEXTBEGIN
1070
    73
1070
     1
1070
    44
1040
1.0
1070
    74
1070
     0
1000
MTEXTEND
  0
ATTDEF
  5
24C
330
242
100
AcDbEntity
  8
0
100
AcDbText
 10
-183.2438527145607
 20
13.87395286168501
 30
0.0
 40
4.0
  1

 11
-183.2438527145607
 21
13.87395286168501
 31
0.0
100
AcDbAttributeDefinition
  3
品名
  2
GEN-TITLE-DES1
 70
     0
 74
     1
  0
LINE
  5
24D
330
242
100
AcDbEntity
  8
RAHM2
100
AcDbLine
 10
-187.5751288694036
 20
30.40000000000004
 30
0.0
 11
-190.0
 21
34.60000000000003
 31
0.0
  0
LINE
  5
24E
330
242
100
AcDbEntity
  8
RAHM2
100
AcDbLine
 10
-190.0
 20
34.60000000000003
 30
0.0
 11
-192.4248711305964
 21
30.40000000000004
 31
0.0
  0
LINE
  5
24F
330
242
100
AcDbEntity
  8
RAHM2
100
AcDbLine
 10
-185.0
 20
50.00000000000003
 30
0.0
 11
-185.0
 21
19.99999999999994
 31
0.0
  0
LINE
  5
250
330
242
100
AcDbEntity
  8
RAHM2
100
AcDbLine
 10
-192.4248711305964
 20
30.40000000000004
 30
0.0
 11
-187.5751288694036
 21
30.40000000000004
 31
0.0
  0
MTEXT
  5
251
330
242
100
AcDbEntity
  8
RAHM2
100
AcDbMText
 10
-190.0
 20
22.49999999999997
 30
0.0
 40
2.5
 41
10.0
 71
     5
 72
     5
  1
符号
 73
     1
 44
1.0
1001
ACAD
1000
MTEXTBEGIN
1070
    73
1070
     1
1070
    44
1040
1.0
1070
    74
1070
     0
1000
MTEXTEND
  0
MTEXT
  5
252
330
242
100
AcDbEntity
  8
RAHM2
100
AcDbMText
 10
-193.8002551371314
 20
18.80103540727961
 30
0.0
 40
2.5
 41
90.0
 71
     1
 72
     5
  1
品名
 73
     1
 44
1.0
1001
ACAD
1000
MTEXTBEGIN
1070
    73
1070
     1
1070
    44
1040
1.0
1070
    74
1070
     0
1000
MTEXTEND
  0
LINE
  5
253
330
242
100
AcDbEntity
  8
RAHM2
100
AcDbLine
 10
-192.4248711305964
 20
45.40000000000003
 30
0.0
 11
-187.5751288694036
 21
45.40000000000003
 31
0.0
  0
LINE
  5
254
330
242
100
AcDbEntity
  8
RAHM2
100
AcDbLine
 10
-187.5751288694036
 20
45.40000000000003
 30
0.0
 11
-190.0
 21
49.60000000000002
 31
0.0
  0
LINE
  5
255
330
242
100
AcDbEntity
  8
RAHM2
100
AcDbLine
 10
-192.4248711305964
 20
40.40000000000003
 30
0.0
 11
-187.5751288694036
 21
40.40000000000003
 31
0.0
  0
LINE
  5
256
330
242
100
AcDbEntity
  8
RAHM2
100
AcDbLine
 10
-187.5751288694036
 20
40.40000000000003
 30
0.0
 11
-190.0
 21
44.60000000000002
 31
0.0
  0
LINE
  5
257
330
242
100
AcDbEntity
  8
RAHM2
100
AcDbLine
 10
-192.4248711305964
 20
35.40000000000004
 30
0.0
 11
-187.5751288694036
 21
35.40000000000004
 31
0.0
  0
LINE
  5
258
330
242
100
AcDbEntity
  8
RAHM2
100
AcDbLine
 10
-187.5751288694036
 20
35.40000000000004
 30
0.0
 11
-190.0
 21
39.60000000000002
 31
0.0
  0
LINE
  5
259
330
242
100
AcDbEntity
  8
RAHM2
100
AcDbLine
 10
-190.0
 20
39.60000000000002
 30
0.0
 11
-192.4248711305964
 21
35.40000000000004
 31
0.0
  0
LINE
  5
25A
330
242
100
AcDbEntity
  8
RAHM2
100
AcDbLine
 10
-190.0
 20
44.60000000000002
 30
0.0
 11
-192.4248711305964
 21
40.40000000000003
 31
0.0
  0
LINE
  5
25B
330
242
100
AcDbEntity
  8
RAHM2
100
AcDbLine
 10
-190.0
 20
49.60000000000002
 30
0.0
 11
-192.4248711305964
 21
45.40000000000003
 31
0.0
  0
LINE
  5
25C
330
242
100
AcDbEntity
  8
RAHM2
100
AcDbLine
 10
-129.0
 20
50.00000000000003
 30
0.0
 11
-129.0
 21
19.99999999999994
 31
0.0
  0
MTEXT
  5
25D
330
242
100
AcDbEntity
  8
RAHM2
100
AcDbMText
 10
-157.1448171868856
 20
22.49999999999997
 30
0.0
 40
2.5
 41
45.0
 71
     5
 72
     5
  1
変更記事
 73
     1
 44
1.0
1001
ACAD
1000
MTEXTBEGIN
1070
    73
1070
     1
1070
    44
1040
1.0
1070
    74
1070
     0
1000
MTEXTEND
  0
LINE
  5
25E
330
242
100
AcDbEntity
  8
0
100
AcDbLine
 10
-34.0
 20
50.0
 30
0.0
 11
-34.0
 21
0.0
 31
0.0
  0
LINE
  5
25F
330
242
100
AcDbEntity
  8
0
100
AcDbLine
 10
-94.0
 20
50.0
 30
0.0
 11
-94.0
 21
0.0
 31
0.0
  0
MTEXT
  5
260
330
242
100
AcDbEntity
  8
0
100
AcDbMText
 10
-64.0
 20
5.0
 30
0.0
 40
3.5
 41
60.0
 71
     5
 72
     5
  1
\fＭＳ ゴシック|b0|i0|c128|p49;株式会社タカチ電機工業
 73
     1
 44
1.0
1001
ACAD
1000
MTEXTBEGIN
1070
    73
1070
     1
1070
    44
1040
1.0
1070
    74
1070
     0
1000
MTEXTEND
  0
LINE
  5
261
330
242
100
AcDbEntity
  8
0
100
AcDbLine
 10
-94.0
 20
10.0
 30
0.0
 11
-34.0
 21
10.0
 31
0.0
  0
ATTDEF
  5
262
330
242
100
AcDbEntity
  8
0
100
AcDbText
 10
-58.01405119799745
 20
39.25500556178349
 30
0.0
 40
3.0
  1

 72
     2
 11
-58.01405119799745
 21
39.25500556178349
 31
0.0
100
AcDbAttributeDefinition
  3
尺度
  2
GEN-TITLE-SCA
 70
     0
  0
ATTDEF
  5
263
330
242
100
AcDbEntity
  8
0
100
AcDbText
 10
-77.00284966649007
 20
30.62180787943475
 30
0.0
 40
3.0
  1

 11
-77.00284966649007
 21
30.62180787943475
 31
0.0
100
AcDbAttributeDefinition
  3
材質
  2
GEN-TITLE-MAT1
 70
     0
 74
     1
  0
ATTDEF
  5
264
330
242
100
AcDbEntity
  8
0
100
AcDbText
 10
-77.00284966649007
 20
20.62180787943475
 30
0.0
 40
3.0
  1

 11
-77.00284966649007
 21
20.62180787943475
 31
0.0
100
AcDbAttributeDefinition
  3
表面処理
  2
GEN-TITLE-MAT2
 70
     0
 74
     1
  0
ATTDEF
  5
265
330
242
100
AcDbEntity
  8
0
100
AcDbText
 10
-77.00284966649007
 20
11.61751719109475
 30
0.0
 40
3.0
  1

 11
-77.00284966649007
 21
11.61751719109475
 31
0.0
100
AcDbAttributeDefinition
  3
日付
  2
GEN-TITLE-DAT
 70
     0
 74
     1
  0
LINE
  5
266
330
242
100
AcDbEntity
  8
0
100
AcDbLine
 10
-94.0
 20
37.5
 30
0.0
 11
-34.0
 21
37.5
 31
0.0
  0
LINE
  5
267
330
242
100
AcDbEntity
  8
0
100
AcDbLine
 10
-94.0
 20
27.5
 30
0.0
 11
-34.0
 21
27.5
 31
0.0
  0
LINE
  5
268
330
242
100
AcDbEntity
  8
0
100
AcDbLine
 10
-94.0
 20
17.5
 30
0.0
 11
-34.0
 21
17.5
 31
0.0
  0
LINE
  5
269
330
242
100
AcDbEntity
  8
RAHM2
100
AcDbLine
 10
-109.0
 20
50.00000000000003
 30
0.0
 11
-109.0
 21
19.99999999999994
 31
0.0
  0
MTEXT
  5
26A
330
242
100
AcDbEntity
  8
RAHM2
100
AcDbMText
 10
-119.4582894723942
 20
32.50000000000003
 30
0.0
 40
2.5
 41
20.0
 71
     5
 72
     5
  1
・  ・   
 73
     1
 44
1.0
1001
ACAD
1000
MTEXTBEGIN
1070
    73
1070
     1
1070
    44
1040
1.0
1070
    74
1070
     0
1000
MTEXTEND
  0
MTEXT
  5
26B
330
242
100
AcDbEntity
  8
RAHM2
100
AcDbMText
 10
-118.738119805002
 20
22.49999999999997
 30
0.0
 40
2.5
 41
20.0
 71
     5
 72
     5
  1
年・月・日
 73
     1
 44
1.0
1001
ACAD
1000
MTEXTBEGIN
1070
    73
1070
     1
1070
    44
1040
1.0
1070
    74
1070
     0
1000
MTEXTEND
  0
MTEXT
  5
26C
330
242
100
AcDbEntity
  8
RAHM2
100
AcDbMText
 10
-101.5
 20
22.49999999999997
 30
0.0
 40
2.5
 41
15.0
 71
     5
 72
     5
  1
担当
 73
     1
 44
1.0
1001
ACAD
1000
MTEXTBEGIN
1070
    73
1070
     1
1070
    44
1040
1.0
1070
    74
1070
     0
1000
MTEXTEND
  0
MTEXT
  5
26D
330
242
100
AcDbEntity
  8
RAHM2
100
AcDbMText
 10
-119.4582894723942
 20
42.50000000000002
 30
0.0
 40
2.5
 41
20.0
 71
     5
 72
     5
  1
・  ・   
 73
     1
 44
1.0
1001
ACAD
1000
MTEXTBEGIN
1070
    73
1070
     1
1070
    44
1040
1.0
1070
    74
1070
     0
1000
MTEXTEND
  0
MTEXT
  5
26E
330
242
100
AcDbEntity
  8
RAHM2
100
AcDbMText
 10
-119.4582894723942
 20
37.50000000000003
 30
0.0
 40
2.5
 41
20.0
 71
     5
 72
     5
  1
・  ・   
 73
     1
 44
1.0
1001
ACAD
1000
MTEXTBEGIN
1070
    73
1070
     1
1070
    44
1040
1.0
1070
    74
1070
     0
1000
MTEXTEND
  0
MTEXT
  5
26F
330
242
100
AcDbEntity
  8
RAHM2
100
AcDbMText
 10
-119.4582894723942
 20
47.50000000000002
 30
0.0
 40
2.5
 41
20.0
 71
     5
 72
     5
  1
・  ・   
 73
     1
 44
1.0
1001
ACAD
1000
MTEXTBEGIN
1070
    73
1070
     1
1070
    44
1040
1.0
1070
    74
1070
     0
1000
MTEXTEND
  0
MTEXT
  5
270
330
242
100
AcDbEntity
  8
RAHM2
100
AcDbMText
 10
-92.80025513713145
 20
16.30103540727964
 30
0.0
 40
2.5
 41
60.0
 71
     1
 72
     5
  1
日付
 73
     1
 44
1.0
1001
ACAD
1000
MTEXTBEGIN
1070
    73
1070
     1
1070
    44
1040
1.0
1070
    74
1070
     0
1000
MTEXTEND
  0
MTEXT
  5
271
330
242
100
AcDbEntity
  8
RAHM2
100
AcDbMText
 10
-92.80025513713145
 20
26.30103540727964
 30
0.0
 40
2.5
 41
60.0
 71
     1
 72
     5
  1
表面処理
 73
     1
 44
1.0
1001
ACAD
1000
MTEXTBEGIN
1070
    73
1070
     1
1070
    44
1040
1.0
1070
    74
1070
     0
1000
MTEXTEND
  0
LINE
  5
272
330
242
100
AcDbEntity
  8
7A
100
AcDbLine
 10
-89.0
 20
43.75
 30
0.0
 11
-75.2186915997147
 21
43.75
 31
0.0
1001
GENIUS_GENOREF_13
1005
285
  0
LINE
  5
273
330
242
100
AcDbEntity
  8
0
100
AcDbLine
 10
-84.0
 20
45.75
 30
0.0
 11
-76.0
 21
46.74999999999999
 31
0.0
  0
LINE
  5
274
330
242
100
AcDbEntity
  8
0
100
AcDbLine
 10
-76.0
 20
40.75
 30
0.0
 11
-84.0
 21
41.74999999999999
 31
0.0
  0
LINE
  5
275
330
242
100
AcDbEntity
  8
7A
100
AcDbLine
 10
-89.0
 20
43.75
 30
0.0
 11
-89.0
 21
47.32478664473148
 31
0.0
1001
GENIUS_GENOREF_13
1005
285
  0
CIRCLE
  5
276
330
242
100
AcDbEntity
  8
0
100
AcDbCircle
 10
-89.0
 20
43.75
 30
0.0
 40
2.0
  0
CIRCLE
  5
277
330
242
100
AcDbEntity
  8
0
100
AcDbCircle
 10
-89.0
 20
43.75
 30
0.0
 40
3.0
  0
LINE
  5
278
330
242
100
AcDbEntity
  8
0
100
AcDbLine
 10
-84.0
 20
41.74999999999999
 30
0.0
 11
-84.0
 21
45.75
 31
0.0
  0
MTEXT
  5
279
330
242
100
AcDbEntity
  8
RAHM2
100
AcDbMText
 10
-92.80025513713145
 20
36.30103540727964
 30
0.0
 40
2.5
 41
60.0
 71
     1
 72
     5
  1
材質
 73
     1
 44
1.0
1001
ACAD
1000
MTEXTBEGIN
1070
    73
1070
     1
1070
    44
1040
1.0
1070
    74
1070
     0
1000
MTEXTEND
  0
LINE
  5
27A
330
242
100
AcDbEntity
  8
7A
100
AcDbLine
 10
-89.0
 20
43.75
 30
0.0
 11
-92.72303737125117
 21
43.75
 31
0.0
1001
GENIUS_GENOREF_13
1005
285
  0
LINE
  5
27B
330
242
100
AcDbEntity
  8
7A
100
AcDbLine
 10
-89.0
 20
43.75
 30
0.0
 11
-89.0
 21
40.03991724228479
 31
0.0
1001
GENIUS_GENOREF_13
1005
285
  0
LINE
  5
27C
330
242
100
AcDbEntity
  8
0
100
AcDbLine
 10
-76.0
 20
46.74999999999999
 30
0.0
 11
-76.0
 21
40.75
 31
0.0
  0
LINE
  5
27D
330
242
100
AcDbEntity
  8
0
100
AcDbLine
 10
-74.0
 20
50.0
 30
0.0
 11
-74.0
 21
37.5
 31
0.0
  0
MTEXT
  5
27E
330
242
100
AcDbEntity
  8
RAHM2
100
AcDbMText
 10
-72.80025513713145
 20
48.80103540727964
 30
0.0
 40
2.5
 41
20.0
 71
     1
 72
     5
  1
尺度
 73
     1
 44
1.0
1001
ACAD
1000
MTEXTBEGIN
1070
    73
1070
     1
1070
    44
1040
1.0
1070
    74
1070
     0
1000
MTEXTEND
  0
ATTDEF
  5
27F
330
242
100
AcDbEntity
  8
0
100
AcDbText
 10
-37.76317379391503
 20
39.25500556178349
 30
0.0
 40
3.0
  1

 72
     2
 11
-37.76317379391503
 21
39.25500556178349
 31
0.0
100
AcDbAttributeDefinition
  3
数量
  2
GEN-TITLE-QTY
 70
     0
  0
LINE
  5
280
330
242
100
AcDbEntity
  8
0
100
AcDbLine
 10
-34.0
 20
25.0
 30
0.0
 11
0.0
 21
25.0
 31
0.0
  0
LINE
  5
281
330
242
100
AcDbEntity
  8
0
100
AcDbLine
 10
-54.0
 20
50.0
 30
0.0
 11
-54.0
 21
37.5
 31
0.0
  0
MTEXT
  5
282
330
242
100
AcDbEntity
  8
RAHM2
100
AcDbMText
 10
-52.80025513713145
 20
48.80103540727964
 30
0.0
 40
2.5
 41
20.0
 71
     1
 72
     5
  1
数量
 73
     1
 44
1.0
1001
ACAD
1000
MTEXTBEGIN
1070
    73
1070
     1
1070
    44
1040
1.0
1070
    74
1070
     0
1000
MTEXTEND
  0
MTEXT
  5
283
330
242
100
AcDbEntity
  8
RAHM2
100
AcDbMText
 10
-25.5
 20
23.80103540727964
 30
0.0
 40
2.5
 41
17.0
 71
     2
 72
     5
  1
承認
 73
     1
 44
1.0
1001
ACAD
1000
MTEXTBEGIN
1070
    73
1070
     1
1070
    44
1040
1.0
1070
    74
1070
     0
1000
MTEXTEND
  0
MTEXT
  5
284
330
242
100
AcDbEntity
  8
RAHM2
100
AcDbMText
 10
-25.5
 20
48.80103540727964
 30
0.0
 40
2.5
 41
17.0
 71
     2
 72
     5
  1
承認
 73
     1
 44
1.0
1001
ACAD
1000
MTEXTBEGIN
1070
    73
1070
     1
1070
    44
1040
1.0
1070
    74
1070
     0
1000
MTEXTEND
  0
POINT
  5
285
330
242
100
AcDbEntity
  8
0
 60
     1
100
AcDbPoint
 10
-320.5355579819676
 20
-138.1104841268254
 30
0.0
1001
GENIUS_GENODEF_13
1002
{
1000
HIER
1070
    10
1002
}
1002
{
1000
MANEDIT
1070
     0
1002
}
1002
{
1000
NOSEL
1070
     0
1002
}
1002
{
1000
BEHIND
1070
     0
1002
}
1002
{
1000
REACTOR
1002
}
1001
GENIUS_GENOBJ-N-CRS_13
1002
{
1000
OWNER
1000
GEN
1002
}
1001
GENIUS_GENOENT_13
1002
{
1000
MYREF
1005
285
1002
}
1002
{
1000
GRP
1005
0
1002
}
1001
GENIUS_GENOLIS_13
1002
{
1000
ENT
1005
27B
1005
27A
1005
275
1005
272
1002
}
  0
LINE
  5
286
330
242
100
AcDbEntity
  8
RAHM2
100
AcDbLine
 10
-190.0
 20
29.60000000000002
 30
0.0
 11
-192.4248711305964
 21
25.40000000000004
 31
0.0
  0
LINE
  5
287
330
242
100
AcDbEntity
  8
RAHM2
100
AcDbLine
 10
-187.5751288694036
 20
25.40000000000004
 30
0.0
 11
-190.0
 21
29.60000000000002
 31
0.0
  0
LINE
  5
288
330
242
100
AcDbEntity
  8
RAHM2
100
AcDbLine
 10
-192.4248711305964
 20
25.40000000000004
 30
0.0
 11
-187.5751288694036
 21
25.40000000000004
 31
0.0
  0
LINE
  5
289
330
242
100
AcDbEntity
  8
RAHM2
100
AcDbLine
 10
-195.0
 20
25.00000000000003
 30
0.0
 11
-94.0
 21
25.00000000000003
 31
0.0
  0
MTEXT
  5
28A
330
242
100
AcDbEntity
  8
RAHM2
100
AcDbMText
 10
-119.4582894723942
 20
27.50000000000003
 30
0.0
 40
2.5
 41
20.0
 71
     5
 72
     5
  1
・  ・   
 73
     1
 44
1.0
1001
ACAD
1000
MTEXTBEGIN
1070
    73
1070
     1
1070
    44
1040
1.0
1070
    74
1070
     0
1000
MTEXTEND
  0
TEXT
  5
28B
330
242
100
AcDbEntity
  8
RAHM2
100
AcDbText
 10
-190.8155863565801
 20
25.65000000000003
 30
0.0
 40
2.5
  1
1
 72
     1
 11
-190.1905863565802
 21
25.65000000000003
 31
0.0
100
AcDbText
 73
     1
  0
TEXT
  5
28C
330
242
100
AcDbEntity
  8
RAHM2
100
AcDbText
 10
-190.9183316929134
 20
30.65000000000003
 30
0.0
 40
2.5
  1
2
 72
     1
 11
-190.0
 21
30.65000000000003
 31
0.0
100
AcDbText
 73
     1
  0
TEXT
  5
28D
330
242
100
AcDbEntity
  8
RAHM2
100
AcDbText
 10
-190.9267766952966
 20
35.65000000000001
 30
0.0
 40
2.5
  1
3
 72
     1
 11
-190.0
 21
35.65000000000001
 31
0.0
100
AcDbText
 73
     1
  0
TEXT
  5
28E
330
242
100
AcDbEntity
  8
RAHM2
100
AcDbText
 10
-191.0
 20
40.65000000000003
 30
0.0
 40
2.5
  1
4
 72
     1
 11
-190.0
 21
40.65000000000003
 31
0.0
100
AcDbText
 73
     1
  0
TEXT
  5
28F
330
242
100
AcDbEntity
  8
RAHM2
100
AcDbText
 10
-190.9267766952966
 20
45.65000000000003
 30
0.0
 40
2.5
  1
5
 72
     1
 11
-190.0
 21
45.65000000000003
 31
0.0
100
AcDbText
 73
     1
  0
LINE
  5
290
330
242
100
AcDbEntity
  8
0
100
AcDbLine
 10
-17.0
 20
50.0
 30
0.0
 11
-17.0
 21
0.0
 31
0.0
  0
LINE
  5
291
330
242
100
AcDbEntity
  8
0
100
AcDbLine
 10
-195.0
 20
0.0
 30
0.0
 11
0.0
 21
0.0
 31
0.0
1001
GENIUS_GENREC_14
1002
{
1000
PYDIR
1011
-184.0
1021
50.0
1031
0.0
1002
}
1002
{
1000
PXDIR
1011
0.0
1021
0.0
1031
0.0
1002
}
1002
{
1000
PORI
1011
-184.0
1021
0.0
1031
0.0
1002
}
1002
{
1000
PINS
1011
-100.5
1021
25.0
1031
0.0
1002
}
1002
{
1000
HVAL
1000
50
1002
}
1002
{
1000
H
1070
     2
1002
}
1002
{
1000
WVAL
1000
167
1002
}
1002
{
1000
W
1070
     2
1002
}
1002
{
1000
C
1070
     4
1002
}
1001
GENIUS_GENODEF_13
1002
{
1000
HIER
1070
     0
1002
}
1002
{
1000
MANEDIT
1070
     0
1002
}
1002
{
1000
NOSEL
1070
     0
1002
}
1002
{
1000
BEHIND
1070
     0
1002
}
1002
{
1000
REACTOR
1002
}
1001
GENIUS_GENOBJ-N-REC_13
1002
{
1000
OWNER
1000
GEN
1002
}
  0
LINE
  5
292
330
242
100
AcDbEntity
  8
0
100
AcDbLine
 10
0.0
 20
0.0
 30
0.0
 11
0.0
 21
50.0
 31
0.0
1001
GENIUS_GENREC_14
1002
{
1000
PYDIR
1011
-184.0
1021
50.0
1031
0.0
1002
}
1002
{
1000
PXDIR
1011
0.0
1021
0.0
1031
0.0
1002
}
1002
{
1000
PORI
1011
-184.0
1021
0.0
1031
0.0
1002
}
1002
{
1000
PINS
1011
-100.5
1021
25.0
1031
0.0
1002
}
1002
{
1000
HVAL
1000
50
1002
}
1002
{
1000
H
1070
     2
1002
}
1002
{
1000
WVAL
1000
167
1002
}
1002
{
1000
W
1070
     2
1002
}
1002
{
1000
C
1070
     4
1002
}
1001
GENIUS_GENODEF_13
1002
{
1000
HIER
1070
     0
1002
}
1002
{
1000
MANEDIT
1070
     0
1002
}
1002
{
1000
NOSEL
1070
     0
1002
}
1002
{
1000
BEHIND
1070
     0
1002
}
1002
{
1000
REACTOR
1002
}
1001
GENIUS_GENOBJ-N-REC_13
1002
{
1000
OWNER
1000
GEN
1002
}
  0
LINE
  5
293
330
242
100
AcDbEntity
  8
0
100
AcDbLine
 10
0.0
 20
50.0
 30
0.0
 11
-195.0
 21
50.00000000000003
 31
0.0
1001
GENIUS_GENREC_14
1002
{
1000
PYDIR
1011
-184.0
1021
50.0
1031
0.0
1002
}
1002
{
1000
PXDIR
1011
0.0
1021
0.0
1031
0.0
1002
}
1002
{
1000
PORI
1011
-184.0
1021
0.0
1031
0.0
1002
}
1002
{
1000
PINS
1011
-100.5
1021
25.0
1031
0.0
1002
}
1002
{
1000
HVAL
1000
50
1002
}
1002
{
1000
H
1070
     2
1002
}
1002
{
1000
WVAL
1000
167
1002
}
1002
{
1000
W
1070
     2
1002
}
1002
{
1000
C
1070
     4
1002
}
1001
GENIUS_GENODEF_13
1002
{
1000
HIER
1070
     0
1002
}
1002
{
1000
MANEDIT
1070
     0
1002
}
1002
{
1000
NOSEL
1070
     0
1002
}
1002
{
1000
BEHIND
1070
     0
1002
}
1002
{
1000
REACTOR
1002
}
1001
GENIUS_GENOBJ-N-REC_13
1002
{
1000
OWNER
1000
GEN
1002
}
  0
LINE
  5
294
330
242
100
AcDbEntity
  8
0
100
AcDbLine
 10
-195.0
 20
50.00000000000003
 30
0.0
 11
-195.0
 21
0.0
 31
0.0
1001
GENIUS_GENREC_14
1002
{
1000
PYDIR
1011
-195.0
1021
50.0
1031
0.0
1002
}
1002
{
1000
PXDIR
1011
-11.0
1021
0.0
1031
0.0
1002
}
1002
{
1000
PORI
1011
-195.0
1021
0.0
1031
0.0
1002
}
1002
{
1000
PINS
1011
-111.5
1021
25.0
1031
0.0
1002
}
1002
{
1000
HVAL
1000
50
1002
}
1002
{
1000
H
1070
     2
1002
}
1002
{
1000
WVAL
1000
167
1002
}
1002
{
1000
W
1070
     2
1002
}
1002
{
1000
C
1070
     4
1002
}
1001
GENIUS_GENODEF_13
1002
{
1000
HIER
1070
     0
1002
}
1002
{
1000
MANEDIT
1070
     0
1002
}
1002
{
1000
NOSEL
1070
     0
1002
}
1002
{
1000
BEHIND
1070
     0
1002
}
1002
{
1000
REACTOR
1002
}
1001
GENIUS_GENOBJ-N-REC_13
1002
{
1000
OWNER
1000
GEN
1002
}
  0
MTEXT
  5
295
330
242
100
AcDbEntity
  8
RAHM2
100
AcDbMText
 10
-8.5
 20
48.80103540727964
 30
0.0
 40
2.5
 41
17.0
 71
     2
 72
     5
  1
検図
 73
     1
 44
1.0
1001
ACAD
1000
MTEXTBEGIN
1070
    73
1070
     1
1070
    44
1040
1.0
1070
    74
1070
     0
1000
MTEXTEND
  0
MTEXT
  5
296
330
242
100
AcDbEntity
  8
RAHM2
100
AcDbMText
 10
-8.5
 20
23.80103540727964
 30
0.0
 40
2.5
 41
17.0
 71
     2
 72
     5
  1
製図
 73
     1
 44
1.0
1001
ACAD
1000
MTEXTBEGIN
1070
    73
1070
     1
1070
    44
1040
1.0
1070
    74
1070
     0
1000
MTEXTEND
  0
ENDBLK
  5
299
330
242
100
AcDbEntity
  8
0
100
AcDbBlockEnd
  0
BLOCK
  5
A16
330
A0D
100
AcDbEntity
  8
0
100
AcDbBlockBegin
  2
TAKACHI-A3-2
 70
     0
 10
0.0
 20
0.0
 30
0.0
  3
TAKACHI-A3-2
  1

  0
LINE
  5
A0E
330
A0D
100
AcDbEntity
  8
0
100
AcDbLine
 10
359.0
 20
280.0
 30
0.0
 11
359.0
 21
275.0
 31
0.0
  0
MTEXT
  5
A0F
330
A0D
100
AcDbEntity
  8
0
100
AcDbMText
 10
402.3592953827349
 20
276.108542987227
 30
0.0
 40
2.5
 41
43.07840397728298
 71
     9
 72
     5
  1
(文書番号：TY-34)2008.02.08
 73
     1
 44
1.0
1001
ACAD
1000
MTEXTBEGIN
1070
    73
1070
     1
1070
    44
1040
1.0
1070
    74
1070
     0
1000
MTEXTEND
  0
LINE
  5
A10
330
A0D
100
AcDbEntity
  8
0
100
AcDbLine
 10
359.0
 20
275.0
 30
0.0
 11
403.0
 21
275.0
 31
0.0
  0
TEXT
  5
A11
330
A0D
100
AcDbEntity
  8
0
 60
     1
100
AcDbText
 10
403.0
 20
0.0
 30
0.0
 40
2.5
  1
!GENTITLE-INSERT
100
AcDbText
  0
TEXT
  5
A12
330
A0D
100
AcDbEntity
  8
0
 60
     1
100
AcDbText
 10
0.0
 20
0.0
 30
0.0
 40
2.5
  1
!GENTITLE-LL
100
AcDbText
  0
TEXT
  5
A13
330
A0D
100
AcDbEntity
  8
0
 60
     1
100
AcDbText
 10
403.0
 20
280.0
 30
0.0
 40
2.5
  1
!GENTITLE-MAX
100
AcDbText
  0
LWPOLYLINE
  5
A14
330
A0D
100
AcDbEntity
  8
0
100
AcDbPolyline
 90
        4
 70
     1
 43
0.0
 10
0.0
 20
0.0
 10
403.0
 20
0.0
 10
403.0
 20
280.0
 10
0.0
 20
280.0000000000001
1001
GENIUS_GENREC_14
1002
{
1000
PYDIR
1011
0.0000000000000178
1021
280.0
1031
0.0
1002
}
1002
{
1000
PXDIR
1011
403.0
1021
0.0
1031
0.0
1002
}
1002
{
1000
PORI
1011
0.0
1021
0.0
1031
0.0
1002
}
1002
{
1000
PINS
1011
0.0
1021
0.0
1031
0.0
1002
}
1002
{
1000
PINS2
1011
403.0
1021
280.0
1031
0.0
1002
}
1002
{
1000
C
1070
     1
1002
}
1001
GENIUS_GENODEF_13
1002
{
1000
HIER
1070
     0
1002
}
1002
{
1000
MANEDIT
1070
     0
1002
}
1002
{
1000
NOSEL
1070
     0
1002
}
1002
{
1000
BEHIND
1070
     0
1002
}
1002
{
1000
OTHER
1070
     0
1002
}
1002
{
1000
REACTOR
1002
}
1001
GENIUS_GENOBJ-N-REC_13
1002
{
1000
OWNER
1000
GEN
1002
}
  0
ENDBLK
  5
A17
330
A0D
100
AcDbEntity
  8
0
100
AcDbBlockEnd
  0
BLOCK
  5
A7A
330
A20
100
AcDbEntity
  8
0
100
AcDbBlockBegin
  2
TAKACHI-TITLEA3
 70
     2
 10
0.0
 20
0.0
 30
0.0
  3
TAKACHI-TITLEA3
  1

  0
LINE
  5
A21
330
A20
100
AcDbEntity
  8
0
100
AcDbLine
 10
-167.0
 20
12.49999999999996
 30
0.0
 11
-193.0000000000001
 21
12.49999999999996
 31
0.0
  0
LINE
  5
A22
330
A20
100
AcDbEntity
  8
0
100
AcDbLine
 10
-167.0
 20
37.49999999999998
 30
0.0
 11
-193.0000000000001
 21
37.49999999999998
 31
0.0
  0
ATTDEF
  5
A23
330
A20
100
AcDbEntity
  8
0
100
AcDbText
 10
-180.2171951662138
 20
3.588342537610664
 30
0.0
 40
3.0
  1

 72
     1
 11
-180.2171951662138
 21
3.588342537610664
 31
0.0
100
AcDbAttributeDefinition
  3
日付
  2
GEN-TITLE-DAT
 70
     0
 74
     1
  0
MTEXT
  5
A24
330
A20
100
AcDbEntity
  8
RAHM2
100
AcDbMText
 10
-191.8002551371315
 20
11.3010354072796
 30
0.0
 40
2.5
 41
60.0
 71
     1
 72
     5
  1
日付
 73
     1
 44
1.0
1001
ACAD
1000
MTEXTBEGIN
1070
    73
1070
     1
1070
    44
1040
1.0
1070
    74
1070
     0
1000
MTEXTEND
  0
ATTDEF
  5
A25
330
A20
100
AcDbEntity
  8
0
100
AcDbText
 10
-177.824739614424
 20
28.29999999999998
 30
0.0
 40
3.0
  1

 72
     2
 11
-177.824739614424
 21
28.29999999999998
 31
0.0
100
AcDbAttributeDefinition
  3
尺度
  2
GEN-TITLE-SCA
 70
     0
 74
     1
  0
MTEXT
  5
A26
330
A20
100
AcDbEntity
  8
RAHM2
100
AcDbMText
 10
-191.8002551371315
 20
36.30103540727966
 30
0.0
 40
2.5
 41
20.0
 71
     1
 72
     5
  1
尺度
 73
     1
 44
1.0
1001
ACAD
1000
MTEXTBEGIN
1070
    73
1070
     1
1070
    44
1040
1.0
1070
    74
1070
     0
1000
MTEXTEND
  0
MTEXT
  5
A27
330
A20
100
AcDbEntity
  8
RAHM2
100
AcDbMText
 10
-191.8002551371315
 20
23.80103540727963
 30
0.0
 40
2.5
 41
20.0
 71
     1
 72
     5
  1
数量
 73
     1
 44
1.0
1001
ACAD
1000
MTEXTBEGIN
1070
    73
1070
     1
1070
    44
1040
1.0
1070
    74
1070
     0
1000
MTEXTEND
  0
ATTDEF
  5
A28
330
A20
100
AcDbEntity
  8
0
100
AcDbText
 10
-175.6127409126095
 20
15.79999999999994
 30
0.0
 40
3.0
  1

 72
     2
 11
-175.6127409126095
 21
15.79999999999994
 31
0.0
100
AcDbAttributeDefinition
  3
数量
  2
GEN-TITLE-QTY
 70
     0
 74
     1
  0
LINE
  5
A29
330
A20
100
AcDbEntity
  8
0
100
AcDbLine
 10
-193.0000000000001
 20
49.99999999999999
 30
0.0
 11
-193.0000000000001
 21
-0.0000000000000142
 31
0.0
  0
LINE
  5
A2A
330
A20
100
AcDbEntity
  8
7A
100
AcDbLine
 10
-184.7167418745796
 20
43.74999999999995
 30
0.0
 11
-170.9354334742943
 21
43.74999999999995
 31
0.0
1001
GENIUS_GENOREF_13
1005
A78
  0
LINE
  5
A2B
330
A20
100
AcDbEntity
  8
0
100
AcDbLine
 10
-179.7167418745796
 20
45.74999999999994
 30
0.0
 11
-171.7167418745796
 21
46.74999999999995
 31
0.0
  0
LINE
  5
A2C
330
A20
100
AcDbEntity
  8
0
100
AcDbLine
 10
-171.7167418745796
 20
40.74999999999994
 30
0.0
 11
-179.7167418745796
 21
41.74999999999995
 31
0.0
  0
LINE
  5
A2D
330
A20
100
AcDbEntity
  8
7A
100
AcDbLine
 10
-184.7167418745796
 20
43.74999999999995
 30
0.0
 11
-184.7167418745796
 21
47.32478664473144
 31
0.0
1001
GENIUS_GENOREF_13
1005
A78
  0
CIRCLE
  5
A2E
330
A20
100
AcDbEntity
  8
0
100
AcDbCircle
 10
-184.7167418745796
 20
43.74999999999995
 30
0.0
 40
2.0
  0
CIRCLE
  5
A2F
330
A20
100
AcDbEntity
  8
0
100
AcDbCircle
 10
-184.7167418745796
 20
43.74999999999995
 30
0.0
 40
3.0
  0
LINE
  5
A30
330
A20
100
AcDbEntity
  8
0
100
AcDbLine
 10
-179.7167418745796
 20
41.74999999999995
 30
0.0
 11
-179.7167418745796
 21
45.74999999999994
 31
0.0
  0
LINE
  5
A31
330
A20
100
AcDbEntity
  8
7A
100
AcDbLine
 10
-184.7167418745796
 20
43.74999999999995
 30
0.0
 11
-188.4397792458307
 21
43.74999999999995
 31
0.0
1001
GENIUS_GENOREF_13
1005
A78
  0
LINE
  5
A32
330
A20
100
AcDbEntity
  8
7A
100
AcDbLine
 10
-184.7167418745796
 20
43.74999999999995
 30
0.0
 11
-184.7167418745796
 21
40.03991724228473
 31
0.0
1001
GENIUS_GENOREF_13
1005
A78
  0
LINE
  5
A33
330
A20
100
AcDbEntity
  8
0
100
AcDbLine
 10
-171.7167418745796
 20
46.74999999999995
 30
0.0
 11
-171.7167418745796
 21
40.74999999999994
 31
0.0
  0
LINE
  5
A34
330
A20
100
AcDbEntity
  8
0
100
AcDbLine
 10
-167.0
 20
24.99999999999997
 30
0.0
 11
-193.0000000000001
 21
24.99999999999997
 31
0.0
  0
LINE
  5
A35
330
A20
100
AcDbEntity
  8
0
100
AcDbLine
 10
-167.0
 20
39.99999999999991
 30
0.0
 11
-96.0
 21
39.99999999999992
 31
0.0
  0
MTEXT
  5
A36
330
A20
100
AcDbEntity
  8
RAHM2
100
AcDbMText
 10
-165.8002551371314
 20
38.80103540727956
 30
0.0
 40
2.5
 41
60.0
 71
     1
 72
     5
  1
表面処理
 73
     1
 44
1.0
1001
ACAD
1000
MTEXTBEGIN
1070
    73
1070
     1
1070
    44
1040
1.0
1070
    74
1070
     0
1000
MTEXTEND
  0
MTEXT
  5
A37
330
A20
100
AcDbEntity
  8
RAHM2
100
AcDbMText
 10
-165.8002551371314
 20
48.80103540727955
 30
0.0
 40
2.5
 41
60.0
 71
     1
 72
     5
  1
材質
 73
     1
 44
1.0
1001
ACAD
1000
MTEXTBEGIN
1070
    73
1070
     1
1070
    44
1040
1.0
1070
    74
1070
     0
1000
MTEXTEND
  0
ATTDEF
  5
A38
330
A20
100
AcDbEntity
  8
0
100
AcDbText
 10
-148.9618675835291
 20
33.29999999999991
 30
0.0
 40
3.0
  1

100
AcDbAttributeDefinition
  3
表面処理
  2
GEN-TITLE-MAT2
 70
     0
  0
ATTDEF
  5
A39
330
A20
100
AcDbEntity
  8
0
100
AcDbText
 10
-148.9618675835291
 20
43.29999999999991
 30
0.0
 40
3.0
  1

100
AcDbAttributeDefinition
  3
材質
  2
GEN-TITLE-MAT1
 70
     0
  0
MTEXT
  5
A3A
330
A20
100
AcDbEntity
  8
0
100
AcDbMText
 10
-131.5000000000001
 20
24.99999999999992
 30
0.0
 40
3.5
 41
60.0
 71
     5
 72
     5
  1
\fＭＳ ゴシック|b0|i0|c128|p49;株式会社タカチ電機工業
 73
     1
 44
1.0
1001
ACAD
1000
MTEXTBEGIN
1070
    73
1070
     1
1070
    44
1040
1.0
1070
    74
1070
     0
1000
MTEXTEND
  0
LINE
  5
A3B
330
A20
100
AcDbEntity
  8
0
100
AcDbLine
 10
-167.0
 20
29.99999999999992
 30
0.0
 11
-96.0
 21
29.99999999999992
 31
0.0
  0
MTEXT
  5
A3C
330
A20
100
AcDbEntity
  8
RAHM2
100
AcDbMText
 10
-158.1250000000001
 20
18.80103540727956
 30
0.0
 40
2.5
 41
17.0
 71
     2
 72
     5
  1
承認
 73
     1
 44
1.0
1001
ACAD
1000
MTEXTBEGIN
1070
    73
1070
     1
1070
    44
1040
1.0
1070
    74
1070
     0
1000
MTEXTEND
  0
MTEXT
  5
A3D
330
A20
100
AcDbEntity
  8
RAHM2
100
AcDbMText
 10
-140.3750000000001
 20
18.80103540727958
 30
0.0
 40
2.5
 41
17.0
 71
     2
 72
     5
  1
承認
 73
     1
 44
1.0
1001
ACAD
1000
MTEXTBEGIN
1070
    73
1070
     1
1070
    44
1040
1.0
1070
    74
1070
     0
1000
MTEXTEND
  0
LINE
  5
A3E
330
A20
100
AcDbEntity
  8
0
100
AcDbLine
 10
-149.2500000000001
 20
19.99999999999993
 30
0.0
 11
-149.2500000000001
 21
-0.0000000000000462
 31
0.0
  0
LINE
  5
A3F
330
A20
100
AcDbEntity
  8
0
100
AcDbLine
 10
-167.0
 20
49.99999999999995
 30
0.0
 11
-167.0
 21
-0.0000000000000497
 31
0.0
  0
MTEXT
  5
A40
330
A20
100
AcDbEntity
  8
RAHM2
100
AcDbMText
 10
-122.6250000000001
 20
18.80103540727958
 30
0.0
 40
2.5
 41
17.0
 71
     2
 72
     5
  1
検図
 73
     1
 44
1.0
1001
ACAD
1000
MTEXTBEGIN
1070
    73
1070
     1
1070
    44
1040
1.0
1070
    74
1070
     0
1000
MTEXTEND
  0
LINE
  5
A41
330
A20
100
AcDbEntity
  8
0
100
AcDbLine
 10
-131.5000000000001
 20
19.99999999999993
 30
0.0
 11
-131.5000000000001
 21
-0.0000000000000533
 31
0.0
  0
LINE
  5
A42
330
A20
100
AcDbEntity
  8
0
100
AcDbLine
 10
-113.75
 20
19.99999999999993
 30
0.0
 11
-113.75
 21
-0.0000000000000533
 31
0.0
  0
LINE
  5
A43
330
A20
100
AcDbEntity
  8
0
100
AcDbLine
 10
-167.0
 20
19.99999999999993
 30
0.0
 11
-96.0
 21
19.99999999999993
 31
0.0
  0
MTEXT
  5
A44
330
A20
100
AcDbEntity
  8
RAHM2
100
AcDbMText
 10
-104.875
 20
18.80103540727957
 30
0.0
 40
2.5
 41
17.0
 71
     2
 72
     5
  1
製図
 73
     1
 44
1.0
1001
ACAD
1000
MTEXTBEGIN
1070
    73
1070
     1
1070
    44
1040
1.0
1070
    74
1070
     0
1000
MTEXTEND
  0
MTEXT
  5
A45
330
A20
100
AcDbEntity
  8
RAHM2
100
AcDbMText
 10
-16.85742592933491
 20
3.434762466565985
 30
0.0
 40
2.5
 41
7.936478436748416
 71
     5
 72
     5
  1
Rev.
 73
     1
 44
1.0
1001
ACAD
1000
MTEXTBEGIN
1070
    73
1070
     1
1070
    44
1040
1.0
1070
    74
1070
     0
1000
MTEXTEND
  0
LINE
  5
A46
330
A20
100
AcDbEntity
  8
0
100
AcDbLine
 10
-21.17541926625711
 20
0.0
 30
0.0
 11
-21.17541926625734
 21
7.0
 31
0.0
  0
LINE
  5
A47
330
A20
100
AcDbEntity
  8
RAHM2
100
AcDbLine
 10
-96.0
 20
29.99999999999992
 30
0.0
 11
0.0000000000001137
 21
30.00000000000003
 31
0.0
  0
LINE
  5
A48
330
A20
100
AcDbEntity
  8
RAHM2
100
AcDbLine
 10
-96.0
 20
35.00000000000003
 30
0.0
 11
0.0000000000001137
 21
35.00000000000003
 31
0.0
  0
LINE
  5
A49
330
A20
100
AcDbEntity
  8
RAHM2
100
AcDbLine
 10
-96.0
 20
39.99999999999993
 30
0.0
 11
0.0000000000001137
 21
40.00000000000002
 31
0.0
  0
LINE
  5
A4A
330
A20
100
AcDbEntity
  8
RAHM2
100
AcDbLine
 10
-96.0
 20
45.00000000000002
 30
0.0
 11
0.0000000000001137
 21
45.00000000000002
 31
0.0
  0
LINE
  5
A4B
330
A20
100
AcDbEntity
  8
0
100
AcDbLine
 10
-96.0
 20
7.0
 30
0.0
 11
0.0000000000001137
 21
7.0
 31
0.0
  0
LINE
  5
A4C
330
A20
100
AcDbEntity
  8
0
100
AcDbLine
 10
-96.0
 20
19.99999999999997
 30
0.0
 11
0.0000000000001137
 21
19.99999999999997
 31
0.0
  0
MTEXT
  5
A4D
330
A20
100
AcDbEntity
  8
RAHM2
100
AcDbMText
 10
-94.80025513713144
 20
5.801035407279627
 30
0.0
 40
2.5
 41
90.0
 71
     1
 72
     5
  1
図番
 73
     1
 44
1.0
1001
ACAD
1000
MTEXTBEGIN
1070
    73
1070
     1
1070
    44
1040
1.0
1070
    74
1070
     0
1000
MTEXTEND
  0
LINE
  5
A4E
330
A20
100
AcDbEntity
  8
RAHM2
100
AcDbLine
 10
-88.57512886940355
 20
30.40000000000002
 30
0.0
 11
-91.0
 21
34.60000000000001
 31
0.0
  0
LINE
  5
A4F
330
A20
100
AcDbEntity
  8
RAHM2
100
AcDbLine
 10
-91.0
 20
34.60000000000001
 30
0.0
 11
-93.42487113059645
 21
30.40000000000002
 31
0.0
  0
LINE
  5
A50
330
A20
100
AcDbEntity
  8
RAHM2
100
AcDbLine
 10
-86.0
 20
50.00000000000001
 30
0.0
 11
-86.0
 21
19.99999999999993
 31
0.0
  0
LINE
  5
A51
330
A20
100
AcDbEntity
  8
RAHM2
100
AcDbLine
 10
-93.42487113059645
 20
30.40000000000002
 30
0.0
 11
-88.57512886940355
 21
30.40000000000002
 31
0.0
  0
MTEXT
  5
A52
330
A20
100
AcDbEntity
  8
RAHM2
100
AcDbMText
 10
-91.0
 20
22.49999999999996
 30
0.0
 40
2.5
 41
10.0
 71
     5
 72
     5
  1
符号
 73
     1
 44
1.0
1001
ACAD
1000
MTEXTBEGIN
1070
    73
1070
     1
1070
    44
1040
1.0
1070
    74
1070
     0
1000
MTEXTEND
  0
MTEXT
  5
A53
330
A20
100
AcDbEntity
  8
RAHM2
100
AcDbMText
 10
-94.80025513713144
 20
18.8010354072796
 30
0.0
 40
2.5
 41
90.0
 71
     1
 72
     5
  1
品名
 73
     1
 44
1.0
1001
ACAD
1000
MTEXTBEGIN
1070
    73
1070
     1
1070
    44
1040
1.0
1070
    74
1070
     0
1000
MTEXTEND
  0
LINE
  5
A54
330
A20
100
AcDbEntity
  8
RAHM2
100
AcDbLine
 10
-93.42487113059645
 20
45.40000000000001
 30
0.0
 11
-88.57512886940355
 21
45.40000000000001
 31
0.0
  0
LINE
  5
A55
330
A20
100
AcDbEntity
  8
RAHM2
100
AcDbLine
 10
-88.57512886940355
 20
45.40000000000001
 30
0.0
 11
-91.0
 21
49.6
 31
0.0
  0
LINE
  5
A56
330
A20
100
AcDbEntity
  8
RAHM2
100
AcDbLine
 10
-93.42487113059645
 20
40.40000000000001
 30
0.0
 11
-88.57512886940355
 21
40.40000000000001
 31
0.0
  0
LINE
  5
A57
330
A20
100
AcDbEntity
  8
RAHM2
100
AcDbLine
 10
-88.57512886940355
 20
40.40000000000001
 30
0.0
 11
-91.0
 21
44.6
 31
0.0
  0
LINE
  5
A58
330
A20
100
AcDbEntity
  8
RAHM2
100
AcDbLine
 10
-93.42487113059645
 20
35.40000000000002
 30
0.0
 11
-88.57512886940355
 21
35.40000000000002
 31
0.0
  0
LINE
  5
A59
330
A20
100
AcDbEntity
  8
RAHM2
100
AcDbLine
 10
-88.57512886940355
 20
35.40000000000002
 30
0.0
 11
-91.0
 21
39.60000000000001
 31
0.0
  0
LINE
  5
A5A
330
A20
100
AcDbEntity
  8
RAHM2
100
AcDbLine
 10
-91.0
 20
39.60000000000001
 30
0.0
 11
-93.42487113059645
 21
35.40000000000002
 31
0.0
  0
LINE
  5
A5B
330
A20
100
AcDbEntity
  8
RAHM2
100
AcDbLine
 10
-91.0
 20
44.6
 30
0.0
 11
-93.42487113059645
 21
40.40000000000001
 31
0.0
  0
LINE
  5
A5C
330
A20
100
AcDbEntity
  8
RAHM2
100
AcDbLine
 10
-91.0
 20
49.6
 30
0.0
 11
-93.42487113059645
 21
45.40000000000001
 31
0.0
  0
LINE
  5
A5D
330
A20
100
AcDbEntity
  8
RAHM2
100
AcDbLine
 10
-31.82081941068907
 20
50.00000000000003
 30
0.0
 11
-31.82081941068918
 21
19.99999999999994
 31
0.0
  0
MTEXT
  5
A5E
330
A20
100
AcDbEntity
  8
RAHM2
100
AcDbMText
 10
-59.0
 20
22.49999999999996
 30
0.0
 40
2.5
 41
45.0
 71
     5
 72
     5
  1
変更記事
 73
     1
 44
1.0
1001
ACAD
1000
MTEXTBEGIN
1070
    73
1070
     1
1070
    44
1040
1.0
1070
    74
1070
     0
1000
MTEXTEND
  0
LINE
  5
A5F
330
A20
100
AcDbEntity
  8
RAHM2
100
AcDbLine
 10
-11.82081941068907
 20
50.00000000000003
 30
0.0
 11
-11.82081941068907
 21
19.99999999999994
 31
0.0
  0
MTEXT
  5
A60
330
A20
100
AcDbEntity
  8
RAHM2
100
AcDbMText
 10
-22.27910888308327
 20
32.50000000000003
 30
0.0
 40
2.5
 41
20.0
 71
     5
 72
     5
  1
・  ・   
 73
     1
 44
1.0
1001
ACAD
1000
MTEXTBEGIN
1070
    73
1070
     1
1070
    44
1040
1.0
1070
    74
1070
     0
1000
MTEXTEND
  0
MTEXT
  5
A61
330
A20
100
AcDbEntity
  8
RAHM2
100
AcDbMText
 10
-21.55893921569111
 20
22.49999999999997
 30
0.0
 40
2.5
 41
20.0
 71
     5
 72
     5
  1
年・月・日
 73
     1
 44
1.0
1001
ACAD
1000
MTEXTBEGIN
1070
    73
1070
     1
1070
    44
1040
1.0
1070
    74
1070
     0
1000
MTEXTEND
  0
MTEXT
  5
A62
330
A20
100
AcDbEntity
  8
RAHM2
100
AcDbMText
 10
-5.910409705344477
 20
22.49999999999997
 30
0.0
 40
2.5
 41
15.0
 71
     5
 72
     5
  1
担当
 73
     1
 44
1.0
1001
ACAD
1000
MTEXTBEGIN
1070
    73
1070
     1
1070
    44
1040
1.0
1070
    74
1070
     0
1000
MTEXTEND
  0
MTEXT
  5
A63
330
A20
100
AcDbEntity
  8
RAHM2
100
AcDbMText
 10
-22.27910888308327
 20
42.50000000000002
 30
0.0
 40
2.5
 41
20.0
 71
     5
 72
     5
  1
・  ・   
 73
     1
 44
1.0
1001
ACAD
1000
MTEXTBEGIN
1070
    73
1070
     1
1070
    44
1040
1.0
1070
    74
1070
     0
1000
MTEXTEND
  0
MTEXT
  5
A64
330
A20
100
AcDbEntity
  8
RAHM2
100
AcDbMText
 10
-22.27910888308327
 20
37.50000000000003
 30
0.0
 40
2.5
 41
20.0
 71
     5
 72
     5
  1
・  ・   
 73
     1
 44
1.0
1001
ACAD
1000
MTEXTBEGIN
1070
    73
1070
     1
1070
    44
1040
1.0
1070
    74
1070
     0
1000
MTEXTEND
  0
MTEXT
  5
A65
330
A20
100
AcDbEntity
  8
RAHM2
100
AcDbMText
 10
-22.27910888308327
 20
47.50000000000002
 30
0.0
 40
2.5
 41
20.0
 71
     5
 72
     5
  1
・  ・   
 73
     1
 44
1.0
1001
ACAD
1000
MTEXTBEGIN
1070
    73
1070
     1
1070
    44
1040
1.0
1070
    74
1070
     0
1000
MTEXTEND
  0
LINE
  5
A66
330
A20
100
AcDbEntity
  8
RAHM2
100
AcDbLine
 10
-91.0
 20
29.60000000000001
 30
0.0
 11
-93.42487113059645
 21
25.40000000000002
 31
0.0
  0
LINE
  5
A67
330
A20
100
AcDbEntity
  8
RAHM2
100
AcDbLine
 10
-88.57512886940355
 20
25.40000000000002
 30
0.0
 11
-91.0
 21
29.60000000000001
 31
0.0
  0
LINE
  5
A68
330
A20
100
AcDbEntity
  8
RAHM2
100
AcDbLine
 10
-93.42487113059645
 20
25.40000000000002
 30
0.0
 11
-88.57512886940355
 21
25.40000000000002
 31
0.0
  0
LINE
  5
A69
330
A20
100
AcDbEntity
  8
RAHM2
100
AcDbLine
 10
-96.0
 20
25.0
 30
0.0
 11
0.0000000000001137
 21
25.00000000000003
 31
0.0
  0
MTEXT
  5
A6A
330
A20
100
AcDbEntity
  8
RAHM2
100
AcDbMText
 10
-22.27910888308327
 20
27.50000000000003
 30
0.0
 40
2.5
 41
20.0
 71
     5
 72
     5
  1
・  ・   
 73
     1
 44
1.0
1001
ACAD
1000
MTEXTBEGIN
1070
    73
1070
     1
1070
    44
1040
1.0
1070
    74
1070
     0
1000
MTEXTEND
  0
TEXT
  5
A6B
330
A20
100
AcDbEntity
  8
RAHM2
100
AcDbText
 10
-91.81558635658019
 20
25.65000000000002
 30
0.0
 40
2.5
  1
1
 72
     1
 11
-91.19058635658019
 21
25.65000000000002
 31
0.0
100
AcDbText
 73
     1
  0
TEXT
  5
A6C
330
A20
100
AcDbEntity
  8
RAHM2
100
AcDbText
 10
-91.91833169291339
 20
30.65000000000002
 30
0.0
 40
2.5
  1
2
 72
     1
 11
-91.0
 21
30.65000000000002
 31
0.0
100
AcDbText
 73
     1
  0
TEXT
  5
A6D
330
A20
100
AcDbEntity
  8
RAHM2
100
AcDbText
 10
-91.92677669529663
 20
35.64999999999999
 30
0.0
 40
2.5
  1
3
 72
     1
 11
-91.0
 21
35.64999999999999
 31
0.0
100
AcDbText
 73
     1
  0
TEXT
  5
A6E
330
A20
100
AcDbEntity
  8
RAHM2
100
AcDbText
 10
-92.0
 20
40.65000000000002
 30
0.0
 40
2.5
  1
4
 72
     1
 11
-91.0
 21
40.65000000000002
 31
0.0
100
AcDbText
 73
     1
  0
TEXT
  5
A6F
330
A20
100
AcDbEntity
  8
RAHM2
100
AcDbText
 10
-91.92677669529663
 20
45.65000000000002
 30
0.0
 40
2.5
  1
5
 72
     1
 11
-91.0
 21
45.65000000000002
 31
0.0
100
AcDbText
 73
     1
  0
LINE
  5
A70
330
A20
100
AcDbEntity
  8
0
100
AcDbLine
 10
-193.0000000000001
 20
0.0
 30
0.0
 11
0.0
 21
0.0
 31
0.0
1001
GENIUS_GENREC_14
1002
{
1000
PYDIR
1011
-184.0
1021
50.0
1031
0.0
1002
}
1002
{
1000
PXDIR
1011
0.0
1021
0.0
1031
0.0
1002
}
1002
{
1000
PORI
1011
-184.0
1021
0.0
1031
0.0
1002
}
1002
{
1000
PINS
1011
-100.5
1021
25.0
1031
0.0
1002
}
1002
{
1000
HVAL
1000
50
1002
}
1002
{
1000
H
1070
     2
1002
}
1002
{
1000
WVAL
1000
167
1002
}
1002
{
1000
W
1070
     2
1002
}
1002
{
1000
C
1070
     4
1002
}
1001
GENIUS_GENODEF_13
1002
{
1000
HIER
1070
     0
1002
}
1002
{
1000
MANEDIT
1070
     0
1002
}
1002
{
1000
NOSEL
1070
     0
1002
}
1002
{
1000
BEHIND
1070
     0
1002
}
1002
{
1000
REACTOR
1002
}
1001
GENIUS_GENOBJ-N-REC_13
1002
{
1000
OWNER
1000
GEN
1002
}
  0
LINE
  5
A71
330
A20
100
AcDbEntity
  8
0
100
AcDbLine
 10
0.0
 20
50.0
 30
0.0
 11
-193.0000000000001
 21
50.00000000000002
 31
0.0
1001
GENIUS_GENREC_14
1002
{
1000
PYDIR
1011
-184.0
1021
50.0
1031
0.0
1002
}
1002
{
1000
PXDIR
1011
0.0
1021
0.0
1031
0.0
1002
}
1002
{
1000
PORI
1011
-184.0
1021
0.0
1031
0.0
1002
}
1002
{
1000
PINS
1011
-100.5
1021
25.0
1031
0.0
1002
}
1002
{
1000
HVAL
1000
50
1002
}
1002
{
1000
H
1070
     2
1002
}
1002
{
1000
WVAL
1000
167
1002
}
1002
{
1000
W
1070
     2
1002
}
1002
{
1000
C
1070
     4
1002
}
1001
GENIUS_GENODEF_13
1002
{
1000
HIER
1070
     0
1002
}
1002
{
1000
MANEDIT
1070
     0
1002
}
1002
{
1000
NOSEL
1070
     0
1002
}
1002
{
1000
BEHIND
1070
     0
1002
}
1002
{
1000
REACTOR
1002
}
1001
GENIUS_GENOBJ-N-REC_13
1002
{
1000
OWNER
1000
GEN
1002
}
  0
LINE
  5
A72
330
A20
100
AcDbEntity
  8
0
100
AcDbLine
 10
-96.0
 20
50.00000000000001
 30
0.0
 11
-96.0
 21
-0.0000000000000142
 31
0.0
1001
GENIUS_GENREC_14
1002
{
1000
PYDIR
1011
-96.0
1021
49.99999999999999
1031
0.0
1002
}
1002
{
1000
PXDIR
1011
88.0
1021
-0.0000000000000142
1031
0.0
1002
}
1002
{
1000
PORI
1011
-96.0
1021
-0.0000000000000142
1031
0.0
1002
}
1002
{
1000
PINS
1011
-12.5
1021
24.99999999999999
1031
0.0
1002
}
1002
{
1000
HVAL
1000
50
1002
}
1002
{
1000
H
1070
     2
1002
}
1002
{
1000
WVAL
1000
167
1002
}
1002
{
1000
W
1070
     2
1002
}
1002
{
1000
C
1070
     4
1002
}
1001
GENIUS_GENODEF_13
1002
{
1000
HIER
1070
     0
1002
}
1002
{
1000
MANEDIT
1070
     0
1002
}
1002
{
1000
NOSEL
1070
     0
1002
}
1002
{
1000
BEHIND
1070
     0
1002
}
1002
{
1000
REACTOR
1002
}
1001
GENIUS_GENOBJ-N-REC_13
1002
{
1000
OWNER
1000
GEN
1002
}
  0
ATTDEF
  5
A73
330
A20
100
AcDbEntity
  8
0
100
AcDbText
 10
-84.0
 20
1.999999999999957
 30
0.0
 40
3.0
  1

100
AcDbAttributeDefinition
  3
図番
  2
GEN-TITLE-NR1
 70
     0
  0
ATTDEF
  5
A74
330
A20
100
AcDbEntity
  8
0
100
AcDbText
 10
-84.0
 20
9.149999999999948
 30
0.0
 40
2.5
  1

100
AcDbAttributeDefinition
  3
サブタイトル
  2
GEN-TITLE-DES2
 70
     0
  0
LINE
  5
A75
330
A20
100
AcDbEntity
  8
0
100
AcDbLine
 10
0.0
 20
0.0
 30
0.0
 11
0.0
 21
50.0
 31
0.0
1001
GENIUS_GENREC_14
1002
{
1000
PYDIR
1011
-414.0
1021
291.0
1031
0.0
1002
}
1002
{
1000
PXDIR
1011
6.0
1021
-6.0
1031
0.0
1002
}
1002
{
1000
PORI
1011
-414.0
1021
-6.0
1031
0.0
1002
}
1002
{
1000
PINS
1011
-414.0
1021
-6.0
1031
0.0
1002
}
1002
{
1000
HVAL
1000
297
1002
}
1002
{
1000
H
1070
     2
1002
}
1002
{
1000
WVAL
1000
420
1002
}
1002
{
1000
W
1070
     2
1002
}
1002
{
1000
C
1070
     1
1002
}
1001
GENIUS_GENODEF_13
1002
{
1000
HIER
1070
     0
1002
}
1002
{
1000
MANEDIT
1070
     0
1002
}
1002
{
1000
NOSEL
1070
     0
1002
}
1002
{
1000
BEHIND
1070
     0
1002
}
1002
{
1000
OTHER
1070
     0
1002
}
1002
{
1000
REACTOR
1002
}
1001
GENIUS_GENOBJ-N-REC_13
1002
{
1000
OWNER
1000
GEN
1002
}
  0
ATTDEF
  5
A76
330
A20
100
AcDbEntity
  8
0
100
AcDbText
 10
-84.14251901585329
 20
12.82790432564377
 30
0.0
 40
3.5
  1

100
AcDbAttributeDefinition
  3
品名
  2
GEN-TITLE-DES1
 70
     0
  0
ATTDEF
  5
A77
330
A20
100
AcDbEntity
  8
0
100
AcDbText
 10
-8.002309189545826
 20
1.705189434395036
 30
0.0
 40
2.5
  1

100
AcDbAttributeDefinition
  3
Rev.
  2
GEN-TITLE-NR2
 70
     0
  0
POINT
  5
A78
330
A20
100
AcDbEntity
  8
0
 60
     1
100
AcDbPoint
 10
-418.5355579819675
 20
-138.1104841268254
 30
0.0
1001
GENIUS_GENODEF_13
1002
{
1000
HIER
1070
    10
1002
}
1002
{
1000
MANEDIT
1070
     0
1002
}
1002
{
1000
NOSEL
1070
     0
1002
}
1002
{
1000
BEHIND
1070
     0
1002
}
1002
{
1000
REACTOR
1002
}
1001
GENIUS_GENOBJ-N-CRS_13
1002
{
1000
OWNER
1000
GEN
1002
}
1001
GENIUS_GENOENT_13
1002
{
1000
MYREF
1005
A78
1002
}
1002
{
1000
GRP
1005
0
1002
}
1001
GENIUS_GENOLIS_13
1002
{
1000
ENT
1005
A32
1005
A31
1005
A2D
1005
A2A
1002
}
  0
ENDBLK
  5
A7B
330
A20
100
AcDbEntity
  8
0
100
AcDbBlockEnd
  0
BLOCK
  5
AAA
330
AA1
100
AcDbEntity
  8
0
100
AcDbBlockBegin
  2
TAKACHI-A4-2
 70
     0
 10
0.0
 20
0.0
 30
0.0
  3
TAKACHI-A4-2
  1

  0
LINE
  5
AA2
330
AA1
100
AcDbEntity
  8
0
100
AcDbLine
 10
149.0
 20
275.0
 30
0.0
 11
193.0
 21
275.0
 31
0.0
  0
MTEXT
  5
AA3
330
AA1
100
AcDbEntity
  8
0
100
AcDbMText
 10
192.3592953827349
 20
276.1085429872271
 30
0.0
 40
2.5
 41
43.07840397728298
 71
     9
 72
     5
  1
(文書番号：TY-34)2008.02.08
 73
     1
 44
1.0
1001
ACAD
1000
MTEXTBEGIN
1070
    73
1070
     1
1070
    44
1040
1.0
1070
    74
1070
     0
1000
MTEXTEND
  0
LINE
  5
AA4
330
AA1
100
AcDbEntity
  8
0
100
AcDbLine
 10
149.0
 20
280.0000000000001
 30
0.0
 11
149.0
 21
275.0
 31
0.0
  0
LWPOLYLINE
  5
AA5
330
AA1
100
AcDbEntity
  8
0
100
AcDbPolyline
 90
        4
 70
     1
 43
0.0
 10
0.0
 20
0.0
 10
193.0
 20
0.0
 10
193.0
 20
280.0
 10
0.0
 20
280.0
1001
GENIUS_GENREC_14
1002
{
1000
PYDIR
1011
-8.5
1021
288.5
1031
0.0
1002
}
1002
{
1000
PXDIR
1011
201.5
1021
-8.5
1031
0.0
1002
}
1002
{
1000
PORI
1011
-8.5
1021
-8.5
1031
0.0
1002
}
1002
{
1000
PINS
1011
-8.5
1021
-8.5
1031
0.0
1002
}
1002
{
1000
HVAL
1000
297
1002
}
1002
{
1000
H
1070
     2
1002
}
1002
{
1000
WVAL
1000
210
1002
}
1002
{
1000
W
1070
     2
1002
}
1002
{
1000
C
1070
     1
1002
}
1001
GENIUS_GENOBJ-N-REC_13
1002
{
1000
OWNER
1000
GEN
1002
}
1001
GENIUS_GENODEF_13
1002
{
1000
HIER
1070
     0
1002
}
1002
{
1000
MANEDIT
1070
     0
1002
}
1002
{
1000
NOSEL
1070
     0
1002
}
1002
{
1000
BEHIND
1070
     0
1002
}
1002
{
1000
OTHER
1070
     0
1002
}
1002
{
1000
REACTOR
1002
}
  0
TEXT
  5
AA6
330
AA1
100
AcDbEntity
  8
0
 60
     1
100
AcDbText
 10
193.0
 20
0.0
 30
0.0
 40
2.5
  1
!GENTITLE-INSERT
100
AcDbText
  0
TEXT
  5
AA7
330
AA1
100
AcDbEntity
  8
0
 60
     1
100
AcDbText
 10
193.0
 20
280.0
 30
0.0
 40
2.5
  1
!GENTITLE-MAX
100
AcDbText
  0
TEXT
  5
AA8
330
AA1
100
AcDbEntity
  8
0
 60
     1
100
AcDbText
 10
0.0
 20
0.0
 30
0.0
 40
2.5
  1
!GENTITLE-LL
100
AcDbText
  0
ENDBLK
  5
AAB
330
AA1
100
AcDbEntity
  8
0
100
AcDbBlockEnd
  0
BLOCK
  5
AF2
330
AE9
100
AcDbEntity
  8
0
100
AcDbBlockBegin
  2
TK-A3
 70
     0
 10
0.0
 20
0.0
 30
0.0
  3
TK-A3
  1

  0
LINE
  5
AEA
330
AE9
100
AcDbEntity
  8
0
100
AcDbLine
 10
359.0
 20
280.0
 30
0.0
 11
359.0
 21
275.0
 31
0.0
  0
MTEXT
  5
AEB
330
AE9
100
AcDbEntity
  8
0
100
AcDbMText
 10
402.3592953827349
 20
276.108542987227
 30
0.0
 40
2.5
 41
43.07840397728298
 71
     9
 72
     5
  1
(文書番号：TY-34)2008.02.08
 73
     1
 44
1.0
1001
ACAD
1000
MTEXTBEGIN
1070
    73
1070
     1
1070
    44
1040
1.0
1070
    74
1070
     0
1000
MTEXTEND
  0
LINE
  5
AEC
330
AE9
100
AcDbEntity
  8
0
100
AcDbLine
 10
359.0
 20
275.0
 30
0.0
 11
403.0
 21
275.0
 31
0.0
  0
TEXT
  5
AED
330
AE9
100
AcDbEntity
  8
0
 60
     1
100
AcDbText
 10
403.0
 20
0.0
 30
0.0
 40
2.5
  1
!GENTITLE-INSERT
100
AcDbText
  0
TEXT
  5
AEE
330
AE9
100
AcDbEntity
  8
0
 60
     1
100
AcDbText
 10
0.0
 20
0.0
 30
0.0
 40
2.5
  1
!GENTITLE-LL
100
AcDbText
  0
TEXT
  5
AEF
330
AE9
100
AcDbEntity
  8
0
 60
     1
100
AcDbText
 10
403.0
 20
280.0
 30
0.0
 40
2.5
  1
!GENTITLE-MAX
100
AcDbText
  0
LWPOLYLINE
  5
AF0
330
AE9
100
AcDbEntity
  8
0
100
AcDbPolyline
 90
        4
 70
     1
 43
0.0
 10
0.0
 20
0.0
 10
403.0
 20
0.0
 10
403.0
 20
280.0
 10
0.0
 20
280.0000000000001
1001
GENIUS_GENREC_14
1002
{
1000
PYDIR
1011
0.0000000000000178
1021
280.0
1031
0.0
1002
}
1002
{
1000
PXDIR
1011
403.0
1021
0.0
1031
0.0
1002
}
1002
{
1000
PORI
1011
0.0
1021
0.0
1031
0.0
1002
}
1002
{
1000
PINS
1011
0.0
1021
0.0
1031
0.0
1002
}
1002
{
1000
PINS2
1011
403.0
1021
280.0
1031
0.0
1002
}
1002
{
1000
C
1070
     1
1002
}
1001
GENIUS_GENODEF_13
1002
{
1000
HIER
1070
     0
1002
}
1002
{
1000
MANEDIT
1070
     0
1002
}
1002
{
1000
NOSEL
1070
     0
1002
}
1002
{
1000
BEHIND
1070
     0
1002
}
1002
{
1000
OTHER
1070
     0
1002
}
1002
{
1000
REACTOR
1002
}
1001
GENIUS_GENOBJ-N-REC_13
1002
{
1000
OWNER
1000
GEN
1002
}
  0
ENDBLK
  5
AF3
330
AE9
100
AcDbEntity
  8
0
100
AcDbBlockEnd
  0
BLOCK
  5
B56
330
AFC
100
AcDbEntity
  8
0
100
AcDbBlockBegin
  2
TK-TITLE
 70
     2
 10
0.0
 20
0.0
 30
0.0
  3
TK-TITLE
  1

  0
LINE
  5
AFD
330
AFC
100
AcDbEntity
  8
0
100
AcDbLine
 10
-167.0
 20
12.49999999999996
 30
0.0
 11
-193.0000000000001
 21
12.49999999999996
 31
0.0
  0
LINE
  5
AFE
330
AFC
100
AcDbEntity
  8
0
100
AcDbLine
 10
-167.0
 20
37.49999999999998
 30
0.0
 11
-193.0000000000001
 21
37.49999999999998
 31
0.0
  0
ATTDEF
  5
AFF
330
AFC
100
AcDbEntity
  8
0
100
AcDbText
 10
-180.2171951662138
 20
3.588342537610664
 30
0.0
 40
3.0
  1

 72
     1
 11
-180.2171951662138
 21
3.588342537610664
 31
0.0
100
AcDbAttributeDefinition
  3
日付
  2
GEN-TITLE-DAT
 70
     0
 74
     1
  0
MTEXT
  5
B00
330
AFC
100
AcDbEntity
  8
RAHM2
100
AcDbMText
 10
-191.8002551371315
 20
11.3010354072796
 30
0.0
 40
2.5
 41
60.0
 71
     1
 72
     5
  1
日付
 73
     1
 44
1.0
1001
ACAD
1000
MTEXTBEGIN
1070
    73
1070
     1
1070
    44
1040
1.0
1070
    74
1070
     0
1000
MTEXTEND
  0
ATTDEF
  5
B01
330
AFC
100
AcDbEntity
  8
0
100
AcDbText
 10
-177.824739614424
 20
28.29999999999998
 30
0.0
 40
3.0
  1

 72
     2
 11
-177.824739614424
 21
28.29999999999998
 31
0.0
100
AcDbAttributeDefinition
  3
尺度
  2
GEN-TITLE-SCA
 70
     0
 74
     1
  0
MTEXT
  5
B02
330
AFC
100
AcDbEntity
  8
RAHM2
100
AcDbMText
 10
-191.8002551371315
 20
36.30103540727966
 30
0.0
 40
2.5
 41
20.0
 71
     1
 72
     5
  1
尺度
 73
     1
 44
1.0
1001
ACAD
1000
MTEXTBEGIN
1070
    73
1070
     1
1070
    44
1040
1.0
1070
    74
1070
     0
1000
MTEXTEND
  0
MTEXT
  5
B03
330
AFC
100
AcDbEntity
  8
RAHM2
100
AcDbMText
 10
-191.8002551371315
 20
23.80103540727963
 30
0.0
 40
2.5
 41
20.0
 71
     1
 72
     5
  1
数量
 73
     1
 44
1.0
1001
ACAD
1000
MTEXTBEGIN
1070
    73
1070
     1
1070
    44
1040
1.0
1070
    74
1070
     0
1000
MTEXTEND
  0
ATTDEF
  5
B04
330
AFC
100
AcDbEntity
  8
0
100
AcDbText
 10
-175.6127409126095
 20
15.79999999999994
 30
0.0
 40
3.0
  1

 72
     2
 11
-175.6127409126095
 21
15.79999999999994
 31
0.0
100
AcDbAttributeDefinition
  3
数量
  2
GEN-TITLE-QTY
 70
     0
 74
     1
  0
LINE
  5
B05
330
AFC
100
AcDbEntity
  8
0
100
AcDbLine
 10
-193.0000000000001
 20
49.99999999999999
 30
0.0
 11
-193.0000000000001
 21
-0.0000000000000142
 31
0.0
  0
LINE
  5
B06
330
AFC
100
AcDbEntity
  8
7A
100
AcDbLine
 10
-184.7167418745796
 20
43.74999999999995
 30
0.0
 11
-170.9354334742943
 21
43.74999999999995
 31
0.0
1001
GENIUS_GENOREF_13
1005
B54
  0
LINE
  5
B07
330
AFC
100
AcDbEntity
  8
0
100
AcDbLine
 10
-179.7167418745796
 20
45.74999999999994
 30
0.0
 11
-171.7167418745796
 21
46.74999999999995
 31
0.0
  0
LINE
  5
B08
330
AFC
100
AcDbEntity
  8
0
100
AcDbLine
 10
-171.7167418745796
 20
40.74999999999994
 30
0.0
 11
-179.7167418745796
 21
41.74999999999995
 31
0.0
  0
LINE
  5
B09
330
AFC
100
AcDbEntity
  8
7A
100
AcDbLine
 10
-184.7167418745796
 20
43.74999999999995
 30
0.0
 11
-184.7167418745796
 21
47.32478664473144
 31
0.0
1001
GENIUS_GENOREF_13
1005
B54
  0
CIRCLE
  5
B0A
330
AFC
100
AcDbEntity
  8
0
100
AcDbCircle
 10
-184.7167418745796
 20
43.74999999999995
 30
0.0
 40
2.0
  0
CIRCLE
  5
B0B
330
AFC
100
AcDbEntity
  8
0
100
AcDbCircle
 10
-184.7167418745796
 20
43.74999999999995
 30
0.0
 40
3.0
  0
LINE
  5
B0C
330
AFC
100
AcDbEntity
  8
0
100
AcDbLine
 10
-179.7167418745796
 20
41.74999999999995
 30
0.0
 11
-179.7167418745796
 21
45.74999999999994
 31
0.0
  0
LINE
  5
B0D
330
AFC
100
AcDbEntity
  8
7A
100
AcDbLine
 10
-184.7167418745796
 20
43.74999999999995
 30
0.0
 11
-188.4397792458307
 21
43.74999999999995
 31
0.0
1001
GENIUS_GENOREF_13
1005
B54
  0
LINE
  5
B0E
330
AFC
100
AcDbEntity
  8
7A
100
AcDbLine
 10
-184.7167418745796
 20
43.74999999999995
 30
0.0
 11
-184.7167418745796
 21
40.03991724228473
 31
0.0
1001
GENIUS_GENOREF_13
1005
B54
  0
LINE
  5
B0F
330
AFC
100
AcDbEntity
  8
0
100
AcDbLine
 10
-171.7167418745796
 20
46.74999999999995
 30
0.0
 11
-171.7167418745796
 21
40.74999999999994
 31
0.0
  0
LINE
  5
B10
330
AFC
100
AcDbEntity
  8
0
100
AcDbLine
 10
-167.0
 20
24.99999999999997
 30
0.0
 11
-193.0000000000001
 21
24.99999999999997
 31
0.0
  0
LINE
  5
B11
330
AFC
100
AcDbEntity
  8
0
100
AcDbLine
 10
-167.0
 20
39.99999999999991
 30
0.0
 11
-96.0
 21
39.99999999999992
 31
0.0
  0
MTEXT
  5
B12
330
AFC
100
AcDbEntity
  8
RAHM2
100
AcDbMText
 10
-165.8002551371314
 20
38.80103540727956
 30
0.0
 40
2.5
 41
60.0
 71
     1
 72
     5
  1
表面処理
 73
     1
 44
1.0
1001
ACAD
1000
MTEXTBEGIN
1070
    73
1070
     1
1070
    44
1040
1.0
1070
    74
1070
     0
1000
MTEXTEND
  0
MTEXT
  5
B13
330
AFC
100
AcDbEntity
  8
RAHM2
100
AcDbMText
 10
-165.8002551371314
 20
48.80103540727955
 30
0.0
 40
2.5
 41
60.0
 71
     1
 72
     5
  1
材質
 73
     1
 44
1.0
1001
ACAD
1000
MTEXTBEGIN
1070
    73
1070
     1
1070
    44
1040
1.0
1070
    74
1070
     0
1000
MTEXTEND
  0
ATTDEF
  5
B14
330
AFC
100
AcDbEntity
  8
0
100
AcDbText
 10
-148.9618675835291
 20
33.29999999999991
 30
0.0
 40
3.0
  1

100
AcDbAttributeDefinition
  3
表面処理
  2
GEN-TITLE-MAT2
 70
     0
  0
ATTDEF
  5
B15
330
AFC
100
AcDbEntity
  8
0
100
AcDbText
 10
-148.9618675835291
 20
43.29999999999991
 30
0.0
 40
3.0
  1

100
AcDbAttributeDefinition
  3
材質
  2
GEN-TITLE-MAT1
 70
     0
  0
MTEXT
  5
B16
330
AFC
100
AcDbEntity
  8
0
100
AcDbMText
 10
-131.5000000000001
 20
24.99999999999992
 30
0.0
 40
3.5
 41
60.0
 71
     5
 72
     5
  1
\fＭＳ ゴシック|b0|i0|c128|p49;株式会社タカチ電機工業
 73
     1
 44
1.0
1001
ACAD
1000
MTEXTBEGIN
1070
    73
1070
     1
1070
    44
1040
1.0
1070
    74
1070
     0
1000
MTEXTEND
  0
LINE
  5
B17
330
AFC
100
AcDbEntity
  8
0
100
AcDbLine
 10
-167.0
 20
29.99999999999992
 30
0.0
 11
-96.0
 21
29.99999999999992
 31
0.0
  0
MTEXT
  5
B18
330
AFC
100
AcDbEntity
  8
RAHM2
100
AcDbMText
 10
-158.1250000000001
 20
18.80103540727956
 30
0.0
 40
2.5
 41
17.0
 71
     2
 72
     5
  1
承認
 73
     1
 44
1.0
1001
ACAD
1000
MTEXTBEGIN
1070
    73
1070
     1
1070
    44
1040
1.0
1070
    74
1070
     0
1000
MTEXTEND
  0
MTEXT
  5
B19
330
AFC
100
AcDbEntity
  8
RAHM2
100
AcDbMText
 10
-140.3750000000001
 20
18.80103540727958
 30
0.0
 40
2.5
 41
17.0
 71
     2
 72
     5
  1
承認
 73
     1
 44
1.0
1001
ACAD
1000
MTEXTBEGIN
1070
    73
1070
     1
1070
    44
1040
1.0
1070
    74
1070
     0
1000
MTEXTEND
  0
LINE
  5
B1A
330
AFC
100
AcDbEntity
  8
0
100
AcDbLine
 10
-149.2500000000001
 20
19.99999999999993
 30
0.0
 11
-149.2500000000001
 21
-0.0000000000000462
 31
0.0
  0
LINE
  5
B1B
330
AFC
100
AcDbEntity
  8
0
100
AcDbLine
 10
-167.0
 20
49.99999999999995
 30
0.0
 11
-167.0
 21
-0.0000000000000497
 31
0.0
  0
MTEXT
  5
B1C
330
AFC
100
AcDbEntity
  8
RAHM2
100
AcDbMText
 10
-122.6250000000001
 20
18.80103540727958
 30
0.0
 40
2.5
 41
17.0
 71
     2
 72
     5
  1
検図
 73
     1
 44
1.0
1001
ACAD
1000
MTEXTBEGIN
1070
    73
1070
     1
1070
    44
1040
1.0
1070
    74
1070
     0
1000
MTEXTEND
  0
LINE
  5
B1D
330
AFC
100
AcDbEntity
  8
0
100
AcDbLine
 10
-131.5000000000001
 20
19.99999999999993
 30
0.0
 11
-131.5000000000001
 21
-0.0000000000000533
 31
0.0
  0
LINE
  5
B1E
330
AFC
100
AcDbEntity
  8
0
100
AcDbLine
 10
-113.75
 20
19.99999999999993
 30
0.0
 11
-113.75
 21
-0.0000000000000533
 31
0.0
  0
LINE
  5
B1F
330
AFC
100
AcDbEntity
  8
0
100
AcDbLine
 10
-167.0
 20
19.99999999999993
 30
0.0
 11
-96.0
 21
19.99999999999993
 31
0.0
  0
MTEXT
  5
B20
330
AFC
100
AcDbEntity
  8
RAHM2
100
AcDbMText
 10
-104.875
 20
18.80103540727957
 30
0.0
 40
2.5
 41
17.0
 71
     2
 72
     5
  1
製図
 73
     1
 44
1.0
1001
ACAD
1000
MTEXTBEGIN
1070
    73
1070
     1
1070
    44
1040
1.0
1070
    74
1070
     0
1000
MTEXTEND
  0
MTEXT
  5
B21
330
AFC
100
AcDbEntity
  8
RAHM2
100
AcDbMText
 10
-16.85742592933491
 20
3.434762466565985
 30
0.0
 40
2.5
 41
7.936478436748416
 71
     5
 72
     5
  1
Rev.
 73
     1
 44
1.0
1001
ACAD
1000
MTEXTBEGIN
1070
    73
1070
     1
1070
    44
1040
1.0
1070
    74
1070
     0
1000
MTEXTEND
  0
LINE
  5
B22
330
AFC
100
AcDbEntity
  8
0
100
AcDbLine
 10
-21.17541926625711
 20
0.0
 30
0.0
 11
-21.17541926625734
 21
7.0
 31
0.0
  0
LINE
  5
B23
330
AFC
100
AcDbEntity
  8
RAHM2
100
AcDbLine
 10
-96.0
 20
29.99999999999992
 30
0.0
 11
0.0000000000001137
 21
30.00000000000003
 31
0.0
  0
LINE
  5
B24
330
AFC
100
AcDbEntity
  8
RAHM2
100
AcDbLine
 10
-96.0
 20
35.00000000000003
 30
0.0
 11
0.0000000000001137
 21
35.00000000000003
 31
0.0
  0
LINE
  5
B25
330
AFC
100
AcDbEntity
  8
RAHM2
100
AcDbLine
 10
-96.0
 20
39.99999999999993
 30
0.0
 11
0.0000000000001137
 21
40.00000000000002
 31
0.0
  0
LINE
  5
B26
330
AFC
100
AcDbEntity
  8
RAHM2
100
AcDbLine
 10
-96.0
 20
45.00000000000002
 30
0.0
 11
0.0000000000001137
 21
45.00000000000002
 31
0.0
  0
LINE
  5
B27
330
AFC
100
AcDbEntity
  8
0
100
AcDbLine
 10
-96.0
 20
7.0
 30
0.0
 11
0.0000000000001137
 21
7.0
 31
0.0
  0
LINE
  5
B28
330
AFC
100
AcDbEntity
  8
0
100
AcDbLine
 10
-96.0
 20
19.99999999999997
 30
0.0
 11
0.0000000000001137
 21
19.99999999999997
 31
0.0
  0
MTEXT
  5
B29
330
AFC
100
AcDbEntity
  8
RAHM2
100
AcDbMText
 10
-94.80025513713144
 20
5.801035407279627
 30
0.0
 40
2.5
 41
90.0
 71
     1
 72
     5
  1
図番
 73
     1
 44
1.0
1001
ACAD
1000
MTEXTBEGIN
1070
    73
1070
     1
1070
    44
1040
1.0
1070
    74
1070
     0
1000
MTEXTEND
  0
LINE
  5
B2A
330
AFC
100
AcDbEntity
  8
RAHM2
100
AcDbLine
 10
-88.57512886940355
 20
30.40000000000002
 30
0.0
 11
-91.0
 21
34.60000000000001
 31
0.0
  0
LINE
  5
B2B
330
AFC
100
AcDbEntity
  8
RAHM2
100
AcDbLine
 10
-91.0
 20
34.60000000000001
 30
0.0
 11
-93.42487113059645
 21
30.40000000000002
 31
0.0
  0
LINE
  5
B2C
330
AFC
100
AcDbEntity
  8
RAHM2
100
AcDbLine
 10
-86.0
 20
50.00000000000001
 30
0.0
 11
-86.0
 21
19.99999999999993
 31
0.0
  0
LINE
  5
B2D
330
AFC
100
AcDbEntity
  8
RAHM2
100
AcDbLine
 10
-93.42487113059645
 20
30.40000000000002
 30
0.0
 11
-88.57512886940355
 21
30.40000000000002
 31
0.0
  0
MTEXT
  5
B2E
330
AFC
100
AcDbEntity
  8
RAHM2
100
AcDbMText
 10
-91.0
 20
22.49999999999996
 30
0.0
 40
2.5
 41
10.0
 71
     5
 72
     5
  1
符号
 73
     1
 44
1.0
1001
ACAD
1000
MTEXTBEGIN
1070
    73
1070
     1
1070
    44
1040
1.0
1070
    74
1070
     0
1000
MTEXTEND
  0
MTEXT
  5
B2F
330
AFC
100
AcDbEntity
  8
RAHM2
100
AcDbMText
 10
-94.80025513713144
 20
18.8010354072796
 30
0.0
 40
2.5
 41
90.0
 71
     1
 72
     5
  1
品名
 73
     1
 44
1.0
1001
ACAD
1000
MTEXTBEGIN
1070
    73
1070
     1
1070
    44
1040
1.0
1070
    74
1070
     0
1000
MTEXTEND
  0
LINE
  5
B30
330
AFC
100
AcDbEntity
  8
RAHM2
100
AcDbLine
 10
-93.42487113059645
 20
45.40000000000001
 30
0.0
 11
-88.57512886940355
 21
45.40000000000001
 31
0.0
  0
LINE
  5
B31
330
AFC
100
AcDbEntity
  8
RAHM2
100
AcDbLine
 10
-88.57512886940355
 20
45.40000000000001
 30
0.0
 11
-91.0
 21
49.6
 31
0.0
  0
LINE
  5
B32
330
AFC
100
AcDbEntity
  8
RAHM2
100
AcDbLine
 10
-93.42487113059645
 20
40.40000000000001
 30
0.0
 11
-88.57512886940355
 21
40.40000000000001
 31
0.0
  0
LINE
  5
B33
330
AFC
100
AcDbEntity
  8
RAHM2
100
AcDbLine
 10
-88.57512886940355
 20
40.40000000000001
 30
0.0
 11
-91.0
 21
44.6
 31
0.0
  0
LINE
  5
B34
330
AFC
100
AcDbEntity
  8
RAHM2
100
AcDbLine
 10
-93.42487113059645
 20
35.40000000000002
 30
0.0
 11
-88.57512886940355
 21
35.40000000000002
 31
0.0
  0
LINE
  5
B35
330
AFC
100
AcDbEntity
  8
RAHM2
100
AcDbLine
 10
-88.57512886940355
 20
35.40000000000002
 30
0.0
 11
-91.0
 21
39.60000000000001
 31
0.0
  0
LINE
  5
B36
330
AFC
100
AcDbEntity
  8
RAHM2
100
AcDbLine
 10
-91.0
 20
39.60000000000001
 30
0.0
 11
-93.42487113059645
 21
35.40000000000002
 31
0.0
  0
LINE
  5
B37
330
AFC
100
AcDbEntity
  8
RAHM2
100
AcDbLine
 10
-91.0
 20
44.6
 30
0.0
 11
-93.42487113059645
 21
40.40000000000001
 31
0.0
  0
LINE
  5
B38
330
AFC
100
AcDbEntity
  8
RAHM2
100
AcDbLine
 10
-91.0
 20
49.6
 30
0.0
 11
-93.42487113059645
 21
45.40000000000001
 31
0.0
  0
LINE
  5
B39
330
AFC
100
AcDbEntity
  8
RAHM2
100
AcDbLine
 10
-31.82081941068907
 20
50.00000000000003
 30
0.0
 11
-31.82081941068918
 21
19.99999999999994
 31
0.0
  0
MTEXT
  5
B3A
330
AFC
100
AcDbEntity
  8
RAHM2
100
AcDbMText
 10
-59.0
 20
22.49999999999996
 30
0.0
 40
2.5
 41
45.0
 71
     5
 72
     5
  1
変更記事
 73
     1
 44
1.0
1001
ACAD
1000
MTEXTBEGIN
1070
    73
1070
     1
1070
    44
1040
1.0
1070
    74
1070
     0
1000
MTEXTEND
  0
LINE
  5
B3B
330
AFC
100
AcDbEntity
  8
RAHM2
100
AcDbLine
 10
-11.82081941068907
 20
50.00000000000003
 30
0.0
 11
-11.82081941068907
 21
19.99999999999994
 31
0.0
  0
MTEXT
  5
B3C
330
AFC
100
AcDbEntity
  8
RAHM2
100
AcDbMText
 10
-22.27910888308327
 20
32.50000000000003
 30
0.0
 40
2.5
 41
20.0
 71
     5
 72
     5
  1
・  ・   
 73
     1
 44
1.0
1001
ACAD
1000
MTEXTBEGIN
1070
    73
1070
     1
1070
    44
1040
1.0
1070
    74
1070
     0
1000
MTEXTEND
  0
MTEXT
  5
B3D
330
AFC
100
AcDbEntity
  8
RAHM2
100
AcDbMText
 10
-21.55893921569111
 20
22.49999999999997
 30
0.0
 40
2.5
 41
20.0
 71
     5
 72
     5
  1
年・月・日
 73
     1
 44
1.0
1001
ACAD
1000
MTEXTBEGIN
1070
    73
1070
     1
1070
    44
1040
1.0
1070
    74
1070
     0
1000
MTEXTEND
  0
MTEXT
  5
B3E
330
AFC
100
AcDbEntity
  8
RAHM2
100
AcDbMText
 10
-5.910409705344477
 20
22.49999999999997
 30
0.0
 40
2.5
 41
15.0
 71
     5
 72
     5
  1
担当
 73
     1
 44
1.0
1001
ACAD
1000
MTEXTBEGIN
1070
    73
1070
     1
1070
    44
1040
1.0
1070
    74
1070
     0
1000
MTEXTEND
  0
MTEXT
  5
B3F
330
AFC
100
AcDbEntity
  8
RAHM2
100
AcDbMText
 10
-22.27910888308327
 20
42.50000000000002
 30
0.0
 40
2.5
 41
20.0
 71
     5
 72
     5
  1
・  ・   
 73
     1
 44
1.0
1001
ACAD
1000
MTEXTBEGIN
1070
    73
1070
     1
1070
    44
1040
1.0
1070
    74
1070
     0
1000
MTEXTEND
  0
MTEXT
  5
B40
330
AFC
100
AcDbEntity
  8
RAHM2
100
AcDbMText
 10
-22.27910888308327
 20
37.50000000000003
 30
0.0
 40
2.5
 41
20.0
 71
     5
 72
     5
  1
・  ・   
 73
     1
 44
1.0
1001
ACAD
1000
MTEXTBEGIN
1070
    73
1070
     1
1070
    44
1040
1.0
1070
    74
1070
     0
1000
MTEXTEND
  0
MTEXT
  5
B41
330
AFC
100
AcDbEntity
  8
RAHM2
100
AcDbMText
 10
-22.27910888308327
 20
47.50000000000002
 30
0.0
 40
2.5
 41
20.0
 71
     5
 72
     5
  1
・  ・   
 73
     1
 44
1.0
1001
ACAD
1000
MTEXTBEGIN
1070
    73
1070
     1
1070
    44
1040
1.0
1070
    74
1070
     0
1000
MTEXTEND
  0
LINE
  5
B42
330
AFC
100
AcDbEntity
  8
RAHM2
100
AcDbLine
 10
-91.0
 20
29.60000000000001
 30
0.0
 11
-93.42487113059645
 21
25.40000000000002
 31
0.0
  0
LINE
  5
B43
330
AFC
100
AcDbEntity
  8
RAHM2
100
AcDbLine
 10
-88.57512886940355
 20
25.40000000000002
 30
0.0
 11
-91.0
 21
29.60000000000001
 31
0.0
  0
LINE
  5
B44
330
AFC
100
AcDbEntity
  8
RAHM2
100
AcDbLine
 10
-93.42487113059645
 20
25.40000000000002
 30
0.0
 11
-88.57512886940355
 21
25.40000000000002
 31
0.0
  0
LINE
  5
B45
330
AFC
100
AcDbEntity
  8
RAHM2
100
AcDbLine
 10
-96.0
 20
25.0
 30
0.0
 11
0.0000000000001137
 21
25.00000000000003
 31
0.0
  0
MTEXT
  5
B46
330
AFC
100
AcDbEntity
  8
RAHM2
100
AcDbMText
 10
-22.27910888308327
 20
27.50000000000003
 30
0.0
 40
2.5
 41
20.0
 71
     5
 72
     5
  1
・  ・   
 73
     1
 44
1.0
1001
ACAD
1000
MTEXTBEGIN
1070
    73
1070
     1
1070
    44
1040
1.0
1070
    74
1070
     0
1000
MTEXTEND
  0
TEXT
  5
B47
330
AFC
100
AcDbEntity
  8
RAHM2
100
AcDbText
 10
-91.81558635658019
 20
25.65000000000002
 30
0.0
 40
2.5
  1
1
 72
     1
 11
-91.19058635658019
 21
25.65000000000002
 31
0.0
100
AcDbText
 73
     1
  0
TEXT
  5
B48
330
AFC
100
AcDbEntity
  8
RAHM2
100
AcDbText
 10
-91.91833169291339
 20
30.65000000000002
 30
0.0
 40
2.5
  1
2
 72
     1
 11
-91.0
 21
30.65000000000002
 31
0.0
100
AcDbText
 73
     1
  0
TEXT
  5
B49
330
AFC
100
AcDbEntity
  8
RAHM2
100
AcDbText
 10
-91.92677669529663
 20
35.64999999999999
 30
0.0
 40
2.5
  1
3
 72
     1
 11
-91.0
 21
35.64999999999999
 31
0.0
100
AcDbText
 73
     1
  0
TEXT
  5
B4A
330
AFC
100
AcDbEntity
  8
RAHM2
100
AcDbText
 10
-92.0
 20
40.65000000000002
 30
0.0
 40
2.5
  1
4
 72
     1
 11
-91.0
 21
40.65000000000002
 31
0.0
100
AcDbText
 73
     1
  0
TEXT
  5
B4B
330
AFC
100
AcDbEntity
  8
RAHM2
100
AcDbText
 10
-91.92677669529663
 20
45.65000000000002
 30
0.0
 40
2.5
  1
5
 72
     1
 11
-91.0
 21
45.65000000000002
 31
0.0
100
AcDbText
 73
     1
  0
LINE
  5
B4C
330
AFC
100
AcDbEntity
  8
0
100
AcDbLine
 10
-193.0000000000001
 20
0.0
 30
0.0
 11
0.0
 21
0.0
 31
0.0
1001
GENIUS_GENREC_14
1002
{
1000
PYDIR
1011
-184.0
1021
50.0
1031
0.0
1002
}
1002
{
1000
PXDIR
1011
0.0
1021
0.0
1031
0.0
1002
}
1002
{
1000
PORI
1011
-184.0
1021
0.0
1031
0.0
1002
}
1002
{
1000
PINS
1011
-100.5
1021
25.0
1031
0.0
1002
}
1002
{
1000
HVAL
1000
50
1002
}
1002
{
1000
H
1070
     2
1002
}
1002
{
1000
WVAL
1000
167
1002
}
1002
{
1000
W
1070
     2
1002
}
1002
{
1000
C
1070
     4
1002
}
1001
GENIUS_GENODEF_13
1002
{
1000
HIER
1070
     0
1002
}
1002
{
1000
MANEDIT
1070
     0
1002
}
1002
{
1000
NOSEL
1070
     0
1002
}
1002
{
1000
BEHIND
1070
     0
1002
}
1002
{
1000
REACTOR
1002
}
1001
GENIUS_GENOBJ-N-REC_13
1002
{
1000
OWNER
1000
GEN
1002
}
  0
LINE
  5
B4D
330
AFC
100
AcDbEntity
  8
0
100
AcDbLine
 10
0.0
 20
50.0
 30
0.0
 11
-193.0000000000001
 21
50.00000000000002
 31
0.0
1001
GENIUS_GENREC_14
1002
{
1000
PYDIR
1011
-184.0
1021
50.0
1031
0.0
1002
}
1002
{
1000
PXDIR
1011
0.0
1021
0.0
1031
0.0
1002
}
1002
{
1000
PORI
1011
-184.0
1021
0.0
1031
0.0
1002
}
1002
{
1000
PINS
1011
-100.5
1021
25.0
1031
0.0
1002
}
1002
{
1000
HVAL
1000
50
1002
}
1002
{
1000
H
1070
     2
1002
}
1002
{
1000
WVAL
1000
167
1002
}
1002
{
1000
W
1070
     2
1002
}
1002
{
1000
C
1070
     4
1002
}
1001
GENIUS_GENODEF_13
1002
{
1000
HIER
1070
     0
1002
}
1002
{
1000
MANEDIT
1070
     0
1002
}
1002
{
1000
NOSEL
1070
     0
1002
}
1002
{
1000
BEHIND
1070
     0
1002
}
1002
{
1000
REACTOR
1002
}
1001
GENIUS_GENOBJ-N-REC_13
1002
{
1000
OWNER
1000
GEN
1002
}
  0
LINE
  5
B4E
330
AFC
100
AcDbEntity
  8
0
100
AcDbLine
 10
-96.0
 20
50.00000000000001
 30
0.0
 11
-96.0
 21
-0.0000000000000142
 31
0.0
1001
GENIUS_GENREC_14
1002
{
1000
PYDIR
1011
-96.0
1021
49.99999999999999
1031
0.0
1002
}
1002
{
1000
PXDIR
1011
88.0
1021
-0.0000000000000142
1031
0.0
1002
}
1002
{
1000
PORI
1011
-96.0
1021
-0.0000000000000142
1031
0.0
1002
}
1002
{
1000
PINS
1011
-12.5
1021
24.99999999999999
1031
0.0
1002
}
1002
{
1000
HVAL
1000
50
1002
}
1002
{
1000
H
1070
     2
1002
}
1002
{
1000
WVAL
1000
167
1002
}
1002
{
1000
W
1070
     2
1002
}
1002
{
1000
C
1070
     4
1002
}
1001
GENIUS_GENODEF_13
1002
{
1000
HIER
1070
     0
1002
}
1002
{
1000
MANEDIT
1070
     0
1002
}
1002
{
1000
NOSEL
1070
     0
1002
}
1002
{
1000
BEHIND
1070
     0
1002
}
1002
{
1000
REACTOR
1002
}
1001
GENIUS_GENOBJ-N-REC_13
1002
{
1000
OWNER
1000
GEN
1002
}
  0
ATTDEF
  5
B4F
330
AFC
100
AcDbEntity
  8
0
100
AcDbText
 10
-84.0
 20
1.999999999999957
 30
0.0
 40
3.0
  1

100
AcDbAttributeDefinition
  3
図番
  2
GEN-TITLE-NR1
 70
     0
  0
ATTDEF
  5
B50
330
AFC
100
AcDbEntity
  8
0
100
AcDbText
 10
-84.0
 20
9.149999999999948
 30
0.0
 40
2.5
  1

100
AcDbAttributeDefinition
  3
サブタイトル
  2
GEN-TITLE-DES2
 70
     0
  0
LINE
  5
B51
330
AFC
100
AcDbEntity
  8
0
100
AcDbLine
 10
0.0
 20
0.0
 30
0.0
 11
0.0
 21
50.0
 31
0.0
1001
GENIUS_GENREC_14
1002
{
1000
PYDIR
1011
-414.0
1021
291.0
1031
0.0
1002
}
1002
{
1000
PXDIR
1011
6.0
1021
-6.0
1031
0.0
1002
}
1002
{
1000
PORI
1011
-414.0
1021
-6.0
1031
0.0
1002
}
1002
{
1000
PINS
1011
-414.0
1021
-6.0
1031
0.0
1002
}
1002
{
1000
HVAL
1000
297
1002
}
1002
{
1000
H
1070
     2
1002
}
1002
{
1000
WVAL
1000
420
1002
}
1002
{
1000
W
1070
     2
1002
}
1002
{
1000
C
1070
     1
1002
}
1001
GENIUS_GENODEF_13
1002
{
1000
HIER
1070
     0
1002
}
1002
{
1000
MANEDIT
1070
     0
1002
}
1002
{
1000
NOSEL
1070
     0
1002
}
1002
{
1000
BEHIND
1070
     0
1002
}
1002
{
1000
OTHER
1070
     0
1002
}
1002
{
1000
REACTOR
1002
}
1001
GENIUS_GENOBJ-N-REC_13
1002
{
1000
OWNER
1000
GEN
1002
}
  0
ATTDEF
  5
B52
330
AFC
100
AcDbEntity
  8
0
100
AcDbText
 10
-84.14251901585329
 20
12.82790432564377
 30
0.0
 40
3.5
  1

100
AcDbAttributeDefinition
  3
品名
  2
GEN-TITLE-DES1
 70
     0
  0
ATTDEF
  5
B53
330
AFC
100
AcDbEntity
  8
0
100
AcDbText
 10
-8.002309189545826
 20
1.705189434395036
 30
0.0
 40
2.5
  1

100
AcDbAttributeDefinition
  3
Rev.
  2
GEN-TITLE-NR2
 70
     0
  0
POINT
  5
B54
330
AFC
100
AcDbEntity
  8
0
 60
     1
100
AcDbPoint
 10
-418.5355579819675
 20
-138.1104841268254
 30
0.0
1001
GENIUS_GENODEF_13
1002
{
1000
HIER
1070
    10
1002
}
1002
{
1000
MANEDIT
1070
     0
1002
}
1002
{
1000
NOSEL
1070
     0
1002
}
1002
{
1000
BEHIND
1070
     0
1002
}
1002
{
1000
REACTOR
1002
}
1001
GENIUS_GENOBJ-N-CRS_13
1002
{
1000
OWNER
1000
GEN
1002
}
1001
GENIUS_GENOENT_13
1002
{
1000
MYREF
1005
B54
1002
}
1002
{
1000
GRP
1005
0
1002
}
1001
GENIUS_GENOLIS_13
1002
{
1000
ENT
1005
B0E
1005
B0D
1005
B09
1005
B06
1002
}
  0
ENDBLK
  5
B57
330
AFC
100
AcDbEntity
  8
0
100
AcDbBlockEnd
  0
BLOCK
  5
C58
330
C4F
100
AcDbEntity
  8
0
100
AcDbBlockBegin
  2
TK-A4
 70
     0
 10
0.0
 20
0.0
 30
0.0
  3
TK-A4
  1

  0
LINE
  5
C50
330
C4F
100
AcDbEntity
  8
0
100
AcDbLine
 10
149.0
 20
275.0
 30
0.0
 11
193.0
 21
275.0
 31
0.0
  0
MTEXT
  5
C51
330
C4F
100
AcDbEntity
  8
0
100
AcDbMText
 10
192.3592953827349
 20
276.1085429872271
 30
0.0
 40
2.5
 41
43.07840397728298
 71
     9
 72
     5
  1
(文書番号：TY-34)2008.02.08
 73
     1
 44
1.0
1001
ACAD
1000
MTEXTBEGIN
1070
    73
1070
     1
1070
    44
1040
1.0
1070
    74
1070
     0
1000
MTEXTEND
  0
LINE
  5
C52
330
C4F
100
AcDbEntity
  8
0
100
AcDbLine
 10
149.0
 20
280.0000000000001
 30
0.0
 11
149.0
 21
275.0
 31
0.0
  0
LWPOLYLINE
  5
C53
330
C4F
100
AcDbEntity
  8
0
100
AcDbPolyline
 90
        4
 70
     1
 43
0.0
 10
0.0
 20
0.0
 10
193.0
 20
0.0
 10
193.0
 20
280.0
 10
0.0
 20
280.0
1001
GENIUS_GENREC_14
1002
{
1000
PYDIR
1011
-8.5
1021
288.5
1031
0.0
1002
}
1002
{
1000
PXDIR
1011
201.5
1021
-8.5
1031
0.0
1002
}
1002
{
1000
PORI
1011
-8.5
1021
-8.5
1031
0.0
1002
}
1002
{
1000
PINS
1011
-8.5
1021
-8.5
1031
0.0
1002
}
1002
{
1000
HVAL
1000
297
1002
}
1002
{
1000
H
1070
     2
1002
}
1002
{
1000
WVAL
1000
210
1002
}
1002
{
1000
W
1070
     2
1002
}
1002
{
1000
C
1070
     1
1002
}
1001
GENIUS_GENOBJ-N-REC_13
1002
{
1000
OWNER
1000
GEN
1002
}
1001
GENIUS_GENODEF_13
1002
{
1000
HIER
1070
     0
1002
}
1002
{
1000
MANEDIT
1070
     0
1002
}
1002
{
1000
NOSEL
1070
     0
1002
}
1002
{
1000
BEHIND
1070
     0
1002
}
1002
{
1000
OTHER
1070
     0
1002
}
1002
{
1000
REACTOR
1002
}
  0
TEXT
  5
C54
330
C4F
100
AcDbEntity
  8
0
 60
     1
100
AcDbText
 10
193.0
 20
0.0
 30
0.0
 40
2.5
  1
!GENTITLE-INSERT
100
AcDbText
  0
TEXT
  5
C55
330
C4F
100
AcDbEntity
  8
0
 60
     1
100
AcDbText
 10
193.0
 20
280.0
 30
0.0
 40
2.5
  1
!GENTITLE-MAX
100
AcDbText
  0
TEXT
  5
C56
330
C4F
100
AcDbEntity
  8
0
 60
     1
100
AcDbText
 10
0.0
 20
0.0
 30
0.0
 40
2.5
  1
!GENTITLE-LL
100
AcDbText
  0
ENDBLK
  5
C59
330
C4F
100
AcDbEntity
  8
0
100
AcDbBlockEnd
  0
BLOCK
  5
C71
330
C70
100
AcDbEntity
  8
0
100
AcDbBlockBegin
  2
GENDOT
 70
     0
 10
0.0
 20
0.0
 30
0.0
  3
GENDOT
  1

  0
LINE
  5
C72
330
C70
100
AcDbEntity
  8
0
100
AcDbLine
 10
0.0
 20
0.0
 30
0.0
 11
-1.0
 21
0.0
 31
0.0
  0
LWPOLYLINE
  5
C73
330
C70
100
AcDbEntity
  8
0
100
AcDbPolyline
 90
        2
 70
     1
 43
0.25
 10
-0.125
 20
0.0
 42
1.0
 10
0.125
 20
0.0
 42
1.0
  0
ENDBLK
  5
C74
330
C70
100
AcDbEntity
  8
0
100
AcDbBlockEnd
  0
BLOCK
  5
136E
330
1366
100
AcDbEntity
  8
0
100
AcDbBlockBegin
  2
A$C4EF1171D
 70
     0
 10
0.0
 20
0.0
 30
0.0
  3
A$C4EF1171D
  1

  0
CIRCLE
  5
1367
330
1366
100
AcDbEntity
  8
ﾎﾞﾃﾞｨｰ
100
AcDbCircle
 10
0.0
 20
0.0
 30
0.0
 40
0.95
  0
CIRCLE
  5
1368
330
1366
100
AcDbEntity
  8
ﾎﾞﾃﾞｨｰ
100
AcDbCircle
 10
0.0
 20
0.0
 30
0.0
 40
0.7
  0
LINE
  5
1369
330
1366
100
AcDbEntity
  8
ﾎﾞﾃﾞｨｰ
100
AcDbLine
 10
-0.6499999999999915
 20
0.125
 30
0.0
 11
0.6499999999999631
 21
0.125
 31
0.0
  0
LINE
  5
136A
330
1366
100
AcDbEntity
  8
ﾎﾞﾃﾞｨｰ
100
AcDbLine
 10
-0.6499999999999915
 20
-0.125
 30
0.0
 11
0.6499999999999631
 21
-0.125
 31
0.0
  0
LINE
  5
136B
330
1366
100
AcDbEntity
  8
ﾎﾞﾃﾞｨｰ
100
AcDbLine
 10
-0.6499999999999915
 20
-0.125
 30
0.0
 11
-0.6499999999999915
 21
0.125
 31
0.0
  0
LINE
  5
136C
330
1366
100
AcDbEntity
  8
ﾎﾞﾃﾞｨｰ
100
AcDbLine
 10
0.6499999999999631
 20
0.125
 30
0.0
 11
0.6499999999999631
 21
-0.125
 31
0.0
  0
ENDBLK
  5
136F
330
1366
100
AcDbEntity
  8
0
100
AcDbBlockEnd
  0
BLOCK
  5
1384
330
1374
100
AcDbEntity
  8
0
100
AcDbBlockBegin
  2
A$C736D53F2
 70
     0
 10
0.0
 20
0.0
 30
0.0
  3
A$C736D53F2
  1

  0
LINE
  5
1375
330
1374
100
AcDbEntity
  8
ﾎﾞﾃﾞｨｰ
100
AcDbLine
 10
0.125
 20
-0.6499999999999773
 30
0.0
 11
-0.125
 21
-0.6499999999999773
 31
0.0
  0
LINE
  5
1376
330
1374
100
AcDbEntity
  8
ﾎﾞﾃﾞｨｰ
100
AcDbLine
 10
-0.125
 20
0.6499999999999773
 30
0.0
 11
0.125
 21
0.6499999999999773
 31
0.0
  0
LINE
  5
1377
330
1374
100
AcDbEntity
  8
ﾎﾞﾃﾞｨｰ
100
AcDbLine
 10
-0.125
 20
0.6499999999999773
 30
0.0
 11
-0.125
 21
0.125
 31
0.0
  0
LINE
  5
1378
330
1374
100
AcDbEntity
  8
ﾎﾞﾃﾞｨｰ
100
AcDbLine
 10
0.125
 20
0.6499999999999773
 30
0.0
 11
0.125
 21
0.125
 31
0.0
  0
CIRCLE
  5
1379
330
1374
100
AcDbEntity
  8
ﾎﾞﾃﾞｨｰ
100
AcDbCircle
 10
0.0
 20
0.0
 30
0.0
 40
0.7
  0
CIRCLE
  5
137A
330
1374
100
AcDbEntity
  8
ﾎﾞﾃﾞｨｰ
100
AcDbCircle
 10
0.0
 20
0.0
 30
0.0
 40
0.95
  0
LINE
  5
137B
330
1374
100
AcDbEntity
  8
ﾎﾞﾃﾞｨｰ
100
AcDbLine
 10
-0.6500000000000341
 20
0.1250000000000568
 30
0.0
 11
-0.125
 21
0.1250000000000568
 31
0.0
  0
LINE
  5
137C
330
1374
100
AcDbEntity
  8
ﾎﾞﾃﾞｨｰ
100
AcDbLine
 10
-0.6500000000000341
 20
-0.1249999999999432
 30
0.0
 11
-0.1249999999999432
 21
-0.1249999999998863
 31
0.0
  0
LINE
  5
137D
330
1374
100
AcDbEntity
  8
ﾎﾞﾃﾞｨｰ
100
AcDbLine
 10
-0.6500000000000341
 20
-0.1249999999999432
 30
0.0
 11
-0.6500000000000341
 21
0.1250000000000568
 31
0.0
  0
LINE
  5
137E
330
1374
100
AcDbEntity
  8
ﾎﾞﾃﾞｨｰ
100
AcDbLine
 10
0.6499999999999205
 20
0.1250000000000568
 30
0.0
 11
0.6499999999999205
 21
-0.1249999999999432
 31
0.0
  0
LINE
  5
137F
330
1374
100
AcDbEntity
  8
ﾎﾞﾃﾞｨｰ
100
AcDbLine
 10
-0.125
 20
-0.1249999999999432
 30
0.0
 11
-0.125
 21
-0.6499999999999773
 31
0.0
  0
LINE
  5
1380
330
1374
100
AcDbEntity
  8
ﾎﾞﾃﾞｨｰ
100
AcDbLine
 10
0.125
 20
-0.1249999999999432
 30
0.0
 11
0.6499999999999205
 21
-0.1249999999999432
 31
0.0
  0
LINE
  5
1381
330
1374
100
AcDbEntity
  8
ﾎﾞﾃﾞｨｰ
100
AcDbLine
 10
0.125
 20
0.125
 30
0.0
 11
0.6499999999999205
 21
0.1250000000000568
 31
0.0
  0
LINE
  5
1382
330
1374
100
AcDbEntity
  8
ﾎﾞﾃﾞｨｰ
100
AcDbLine
 10
0.125
 20
-0.1249999999999432
 30
0.0
 11
0.125
 21
-0.6499999999999773
 31
0.0
  0
ENDBLK
  5
1385
330
1374
100
AcDbEntity
  8
0
100
AcDbBlockEnd
  0
BLOCK
  5
2EFC
330
2E9E
100
AcDbEntity
  8
0
100
AcDbBlockBegin
  2
*D15
 70
     1
 10
0.0
 20
0.0
 30
0.0
  3
*D15
  1

  0
LINE
  5
3205
330
2E9E
100
AcDbEntity
  8
AM_5
 62
     3
100
AcDbLine
 10
60.73030811287409
 20
166.2207739534707
 30
0.0
 11
60.73030811287409
 21
178.2207739534707
 31
0.0
  0
LINE
  5
3206
330
2E9E
100
AcDbEntity
  8
AM_5
 62
     3
100
AcDbLine
 10
83.5303081128741
 20
166.2207739534707
 30
0.0
 11
83.5303081128741
 21
178.2207739534707
 31
0.0
  0
LINE
  5
3207
330
2E9E
100
AcDbEntity
  8
AM_5
 62
     3
100
AcDbLine
 10
63.23030811287409
 20
177.2207739534708
 30
0.0
 11
81.0303081128741
 21
177.2207739534708
 31
0.0
  0
INSERT
  5
3208
330
2E9E
100
AcDbEntity
  8
AM_5
 62
     3
100
AcDbBlockReference
  2
_Open30
 10
60.73030811287409
 20
177.2207739534708
 30
0.0
 41
2.5
 42
2.5
 43
2.5
 50
180.0
  0
INSERT
  5
3209
330
2E9E
100
AcDbEntity
  8
AM_5
 62
     3
100
AcDbBlockReference
  2
_Open30
 10
83.5303081128741
 20
177.2207739534708
 30
0.0
 41
2.5
 42
2.5
 43
2.5
  0
MTEXT
  5
320A
330
2E9E
100
AcDbEntity
  8
AM_5
 62
     2
100
AcDbMText
 10
72.1303081128741
 20
180.4711184416597
 30
0.0
 40
3.5
 41
0.0
 71
     5
 72
     1
  1
22.8
 73
     1
 44
1.0
1001
ACAD
1000
MTEXTBEGIN
1070
    73
1070
     1
1070
    44
1040
1.0
1070
    74
1070
     0
1000
MTEXTEND
  0
POINT
  5
320B
330
2E9E
100
AcDbEntity
  8
Defpoints
 62
     0
100
AcDbPoint
 10
60.73030811287409
 20
165.2207739534707
 30
0.0
  0
POINT
  5
320C
330
2E9E
100
AcDbEntity
  8
Defpoints
 62
     0
100
AcDbPoint
 10
83.5303081128741
 20
165.2207739534707
 30
0.0
  0
POINT
  5
320D
330
2E9E
100
AcDbEntity
  8
Defpoints
 62
     0
100
AcDbPoint
 10
83.5303081128741
 20
177.2207739534708
 30
0.0
  0
ENDBLK
  5
2EFD
330
2E9E
100
AcDbEntity
  8
0
100
AcDbBlockEnd
  0
BLOCK
  5
2EFE
330
2EC0
100
AcDbEntity
  8
0
100
AcDbBlockBegin
  2
*D16
 70
     1
 10
0.0
 20
0.0
 30
0.0
  3
*D16
  1

  0
LINE
  5
320E
330
2EC0
100
AcDbEntity
  8
AM_5
 62
     3
100
AcDbLine
 10
60.90707798287661
 20
168.955412241289
 30
0.0
 11
47.73030710287409
 21
168.955412241289
 31
0.0
  0
LINE
  5
320F
330
2EC0
100
AcDbEntity
  8
AM_5
 62
     3
100
AcDbLine
 10
64.63030811287413
 20
150.855412241289
 30
0.0
 11
47.73030710287409
 21
150.855412241289
 31
0.0
  0
LINE
  5
3210
330
2EC0
100
AcDbEntity
  8
AM_5
 62
     3
100
AcDbLine
 10
48.73030710287409
 20
166.455412241289
 30
0.0
 11
48.73030710287409
 21
153.355412241289
 31
0.0
  0
INSERT
  5
3211
330
2EC0
100
AcDbEntity
  8
AM_5
 62
     3
100
AcDbBlockReference
  2
_Open30
 10
48.73030710287409
 20
168.955412241289
 30
0.0
 41
2.5
 42
2.5
 43
2.5
 50
90.0
  0
INSERT
  5
3212
330
2EC0
100
AcDbEntity
  8
AM_5
 62
     3
100
AcDbBlockReference
  2
_Open30
 10
48.73030710287409
 20
150.855412241289
 30
0.0
 41
2.5
 42
2.5
 43
2.5
 50
270.0
  0
MTEXT
  5
3213
330
2EC0
100
AcDbEntity
  8
AM_5
 62
     2
100
AcDbMText
 10
45.48030710287406
 20
159.905412241289
 30
0.0
 40
3.5
 41
0.0
 71
     5
 72
     1
  1
18.1
 11
0.0000000000000001
 21
1.0
 31
0.0
 73
     1
 44
1.0
1001
ACAD
1000
MTEXTBEGIN
1070
    73
1070
     1
1070
    44
1040
1.0
1070
    74
1070
     0
1000
MTEXTEND
  0
POINT
  5
3214
330
2EC0
100
AcDbEntity
  8
Defpoints
 62
     0
100
AcDbPoint
 10
61.90707798287661
 20
168.955412241289
 30
0.0
  0
POINT
  5
3215
330
2EC0
100
AcDbEntity
  8
Defpoints
 62
     0
100
AcDbPoint
 10
65.63030811287413
 20
150.855412241289
 30
0.0
  0
POINT
  5
3216
330
2EC0
100
AcDbEntity
  8
Defpoints
 62
     0
100
AcDbPoint
 10
48.73030710287409
 20
150.855412241289
 30
0.0
  0
ENDBLK
  5
2EFF
330
2EC0
100
AcDbEntity
  8
0
100
AcDbBlockEnd
  0
BLOCK
  5
2F00
330
2EE2
100
AcDbEntity
  8
0
100
AcDbBlockBegin
  2
*D17
 70
     1
 10
0.0
 20
0.0
 30
0.0
  3
*D17
  1

  0
LINE
  5
3217
330
2EE2
100
AcDbEntity
  8
AM_5
 62
     3
100
AcDbLine
 10
111.782397829962
 20
166.355412241289
 30
0.0
 11
111.782397829962
 21
178.2207739534708
 31
0.0
  0
LINE
  5
3218
330
2EE2
100
AcDbEntity
  8
AM_5
 62
     3
100
AcDbLine
 10
118.0823978299621
 20
166.355412241289
 30
0.0
 11
118.0823978299621
 21
178.2207739534708
 31
0.0
  0
LINE
  5
3219
330
2EE2
100
AcDbEntity
  8
AM_5
 62
     3
100
AcDbLine
 10
109.282397829962
 20
177.2207739534708
 30
0.0
 11
106.782397829962
 21
177.2207739534708
 31
0.0
  0
LINE
  5
321A
330
2EE2
100
AcDbEntity
  8
AM_5
 62
     3
100
AcDbLine
 10
120.582397829962
 20
177.2207739534708
 30
0.0
 11
131.3368213956903
 21
177.2207739534708
 31
0.0
  0
LINE
  5
321B
330
2EE2
100
AcDbEntity
  8
AM_5
 62
     3
100
AcDbLine
 10
111.782397829962
 20
177.2207739534708
 30
0.0
 11
118.0823978299621
 21
177.2207739534708
 31
0.0
  0
INSERT
  5
321C
330
2EE2
100
AcDbEntity
  8
AM_5
 62
     3
100
AcDbBlockReference
  2
_Open30
 10
111.782397829962
 20
177.2207739534708
 30
0.0
 41
2.5
 42
2.5
 43
2.5
  0
INSERT
  5
321D
330
2EE2
100
AcDbEntity
  8
AM_5
 62
     3
100
AcDbBlockReference
  2
_Open30
 10
118.0823978299621
 20
177.2207739534708
 30
0.0
 41
2.5
 42
2.5
 43
2.5
 50
180.0
  0
MTEXT
  5
321E
330
2EE2
100
AcDbEntity
  8
AM_5
 62
     2
100
AcDbMText
 10
127.2096096128262
 20
180.4707739534708
 30
0.0
 40
3.5
 41
0.0
 71
     5
 72
     1
  1
6.3
 73
     1
 44
1.0
1001
ACAD
1000
MTEXTBEGIN
1070
    73
1070
     1
1070
    44
1040
1.0
1070
    74
1070
     0
1000
MTEXTEND
  0
POINT
  5
321F
330
2EE2
100
AcDbEntity
  8
Defpoints
 62
     0
100
AcDbPoint
 10
111.782397829962
 20
165.355412241289
 30
0.0
  0
POINT
  5
3220
330
2EE2
100
AcDbEntity
  8
Defpoints
 62
     0
100
AcDbPoint
 10
118.0823978299621
 20
165.355412241289
 30
0.0
  0
POINT
  5
3221
330
2EE2
100
AcDbEntity
  8
Defpoints
 62
     0
100
AcDbPoint
 10
118.0823978299621
 20
177.2207739534708
 30
0.0
  0
ENDBLK
  5
2F01
330
2EE2
100
AcDbEntity
  8
0
100
AcDbBlockEnd
  0
BLOCK
  5
301E
330
2F5E
100
AcDbEntity
  8
0
100
AcDbBlockBegin
  2
*D18
 70
     1
 10
0.0
 20
0.0
 30
0.0
  3
*D18
  1

  0
LINE
  5
3222
330
2F5E
100
AcDbEntity
  8
AM_5
 62
     3
100
AcDbLine
 10
142.1995773112614
 20
93.19765146080278
 30
0.0
 11
142.1995773112614
 21
105.1976514608028
 31
0.0
  0
LINE
  5
3223
330
2F5E
100
AcDbEntity
  8
AM_5
 62
     3
100
AcDbLine
 10
152.1995773112614
 20
93.19765146080278
 30
0.0
 11
152.1995773112614
 21
105.1976514608028
 31
0.0
  0
LINE
  5
3224
330
2F5E
100
AcDbEntity
  8
AM_5
 62
     3
100
AcDbLine
 10
144.6995773112614
 20
104.1976514608028
 30
0.0
 11
149.6995773112614
 21
104.1976514608028
 31
0.0
  0
INSERT
  5
3225
330
2F5E
100
AcDbEntity
  8
AM_5
 62
     3
100
AcDbBlockReference
  2
_Open30
 10
142.1995773112614
 20
104.1976514608028
 30
0.0
 41
2.5
 42
2.5
 43
2.5
 50
180.0
  0
INSERT
  5
3226
330
2F5E
100
AcDbEntity
  8
AM_5
 62
     3
100
AcDbBlockReference
  2
_Open30
 10
152.1995773112614
 20
104.1976514608028
 30
0.0
 41
2.5
 42
2.5
 43
2.5
  0
MTEXT
  5
3227
330
2F5E
100
AcDbEntity
  8
AM_5
 62
     2
100
AcDbMText
 10
147.1995773112614
 20
107.4476514608028
 30
0.0
 40
3.5
 41
0.0
 71
     5
 72
     1
  1
10
 73
     1
 44
1.0
1001
ACAD
1000
MTEXTBEGIN
1070
    73
1070
     1
1070
    44
1040
1.0
1070
    74
1070
     0
1000
MTEXTEND
  0
POINT
  5
3228
330
2F5E
100
AcDbEntity
  8
Defpoints
 62
     0
100
AcDbPoint
 10
142.1995773112614
 20
92.19765146080279
 30
0.0
  0
POINT
  5
3229
330
2F5E
100
AcDbEntity
  8
Defpoints
 62
     0
100
AcDbPoint
 10
152.1995773112614
 20
92.19765146080279
 30
0.0
  0
POINT
  5
322A
330
2F5E
100
AcDbEntity
  8
Defpoints
 62
     0
100
AcDbPoint
 10
152.1995773112614
 20
104.1976514608028
 30
0.0
  0
ENDBLK
  5
301F
330
2F5E
100
AcDbEntity
  8
0
100
AcDbBlockEnd
  0
BLOCK
  5
3020
330
2F80
100
AcDbEntity
  8
0
100
AcDbBlockBegin
  2
*D19
 70
     1
 10
0.0
 20
0.0
 30
0.0
  3
*D19
  1

  0
LINE
  5
322B
330
2F80
100
AcDbEntity
  8
AM_5
 62
     3
100
AcDbLine
 10
156.8495773112614
 20
88.54765146080278
 30
0.0
 11
168.8495773112614
 21
88.54765146080277
 31
0.0
  0
LINE
  5
322C
330
2F80
100
AcDbEntity
  8
AM_5
 62
     3
100
AcDbLine
 10
151.8495773112614
 20
85.14765146080277
 30
0.0
 11
168.8495773112614
 21
85.14765146080277
 31
0.0
  0
LINE
  5
322D
330
2F80
100
AcDbEntity
  8
AM_5
 62
     3
100
AcDbLine
 10
167.8495773112613
 20
91.04765146080277
 30
0.0
 11
167.8495773112613
 21
93.54765146080277
 31
0.0
  0
LINE
  5
322E
330
2F80
100
AcDbEntity
  8
AM_5
 62
     3
100
AcDbLine
 10
167.8495773112613
 20
82.64765146080277
 30
0.0
 11
167.8495773112613
 21
71.89765146080276
 31
0.0
  0
LINE
  5
322F
330
2F80
100
AcDbEntity
  8
AM_5
 62
     3
100
AcDbLine
 10
167.8495773112613
 20
88.54765146080277
 30
0.0
 11
167.8495773112613
 21
85.14765146080277
 31
0.0
  0
INSERT
  5
3230
330
2F80
100
AcDbEntity
  8
AM_5
 62
     3
100
AcDbBlockReference
  2
_Open30
 10
167.8495773112613
 20
88.54765146080277
 30
0.0
 41
2.5
 42
2.5
 43
2.5
 50
270.0
  0
INSERT
  5
3231
330
2F80
100
AcDbEntity
  8
AM_5
 62
     3
100
AcDbBlockReference
  2
_Open30
 10
167.8495773112613
 20
85.14765146080277
 30
0.0
 41
2.5
 42
2.5
 43
2.5
 50
90.0
  0
MTEXT
  5
3232
330
2F80
100
AcDbEntity
  8
AM_5
 62
     2
100
AcDbMText
 10
164.5995773112613
 20
76.02265146080279
 30
0.0
 40
3.5
 41
0.0
 71
     5
 72
     1
  1
3.4
 11
0.0000000000000001
 21
1.0
 31
0.0
 73
     1
 44
1.0
1001
ACAD
1000
MTEXTBEGIN
1070
    73
1070
     1
1070
    44
1040
1.0
1070
    74
1070
     0
1000
MTEXTEND
  0
POINT
  5
3233
330
2F80
100
AcDbEntity
  8
Defpoints
 62
     0
100
AcDbPoint
 10
155.8495773112614
 20
88.54765146080278
 30
0.0
  0
POINT
  5
3234
330
2F80
100
AcDbEntity
  8
Defpoints
 62
     0
100
AcDbPoint
 10
150.8495773112614
 20
85.14765146080277
 30
0.0
  0
POINT
  5
3235
330
2F80
100
AcDbEntity
  8
Defpoints
 62
     0
100
AcDbPoint
 10
167.8495773112613
 20
85.14765146080277
 30
0.0
  0
ENDBLK
  5
3021
330
2F80
100
AcDbEntity
  8
0
100
AcDbBlockEnd
  0
BLOCK
  5
3022
330
2F9B
100
AcDbEntity
  8
0
100
AcDbBlockBegin
  2
*D20
 70
     1
 10
0.0
 20
0.0
 30
0.0
  3
*D20
  1

  0
LINE
  5
3236
330
2F9B
100
AcDbEntity
  8
AM_5
 62
     3
100
AcDbLine
 10
154.0923831489669
 20
91.06554463978165
 30
0.0
 11
157.5094395598006
 21
95.61106265205387
 31
0.0
  0
LINE
  5
3237
330
2F9B
100
AcDbEntity
  8
AM_5
 62
     3
100
AcDbLine
 10
157.5094395598006
 20
95.61106265205387
 30
0.0
 11
166.5044143066312
 21
95.61106265205387
 31
0.0
  0
INSERT
  5
3238
330
2F9B
100
AcDbEntity
  8
AM_5
 62
     3
100
AcDbBlockReference
  2
_Open30
 10
152.590156293645
 20
89.0672167199572
 30
0.0
 41
2.5
 42
2.5
 43
2.5
 50
233.0662809763742
  0
MTEXT
  5
3239
330
2F9B
100
AcDbEntity
  8
AM_5
 62
     2
100
AcDbMText
 10
162.7569269332159
 20
98.86106265205384
 30
0.0
 40
3.5
 41
0.0
 71
     5
 72
     1
  1
\U+22051.3
 73
     1
 44
1.0
1001
ACAD
1000
MTEXTBEGIN
1070
    73
1070
     1
1070
    44
1040
1.0
1070
    74
1070
     0
1000
MTEXTEND
  0
POINT
  5
323A
330
2F9B
100
AcDbEntity
  8
Defpoints
 62
     0
100
AcDbPoint
 10
152.590156293645
 20
89.0672167199572
 30
0.0
  0
POINT
  5
323B
330
2F9B
100
AcDbEntity
  8
Defpoints
 62
     0
100
AcDbPoint
 10
151.8089983288777
 20
88.02808620164848
 30
0.0
  0
ENDBLK
  5
3023
330
2F9B
100
AcDbEntity
  8
0
100
AcDbBlockEnd
  0
BLOCK
  5
3024
330
2FC2
100
AcDbEntity
  8
0
100
AcDbBlockBegin
  2
*D21
 70
     1
 10
0.0
 20
0.0
 30
0.0
  3
*D21
  1

  0
LINE
  5
323C
330
2FC2
100
AcDbEntity
  8
AM_5
 62
     3
100
AcDbLine
 10
152.1995773112614
 20
83.89765146080277
 30
0.0
 11
152.1995773112614
 21
70.69765046080276
 31
0.0
  0
LINE
  5
323D
330
2FC2
100
AcDbEntity
  8
AM_5
 62
     3
100
AcDbLine
 10
147.1995773112614
 20
80.49765146080277
 30
0.0
 11
147.1995773112614
 21
70.69765046080276
 31
0.0
  0
LINE
  5
323E
330
2FC2
100
AcDbEntity
  8
AM_5
 62
     3
100
AcDbLine
 10
154.6995773112614
 20
71.69765046080276
 30
0.0
 11
157.1995773112614
 21
71.69765046080276
 31
0.0
  0
LINE
  5
323F
330
2FC2
100
AcDbEntity
  8
AM_5
 62
     3
100
AcDbLine
 10
144.6995773112614
 20
71.69765046080276
 30
0.0
 11
142.1995773112614
 21
71.69765046080276
 31
0.0
  0
LINE
  5
3240
330
2FC2
100
AcDbEntity
  8
AM_5
 62
     3
100
AcDbLine
 10
152.1995773112614
 20
71.69765046080276
 30
0.0
 11
147.1995773112614
 21
71.69765046080276
 31
0.0
  0
INSERT
  5
3241
330
2FC2
100
AcDbEntity
  8
AM_5
 62
     3
100
AcDbBlockReference
  2
_Open30
 10
152.1995773112614
 20
71.69765046080276
 30
0.0
 41
2.5
 42
2.5
 43
2.5
 50
180.0
  0
INSERT
  5
3242
330
2FC2
100
AcDbEntity
  8
AM_5
 62
     3
100
AcDbBlockReference
  2
GENDOT
 10
147.1995773112614
 20
71.69765046080276
 30
0.0
 41
2.5
 42
2.5
 43
2.5
  0
MTEXT
  5
3243
330
2FC2
100
AcDbEntity
  8
AM_5
 62
     2
100
AcDbMText
 10
149.6995773112614
 20
74.94765046080276
 30
0.0
 40
3.5
 41
0.0
 71
     5
 72
     1
  1
5
 73
     1
 44
1.0
1001
ACAD
1000
MTEXTBEGIN
1070
    73
1070
     1
1070
    44
1040
1.0
1070
    74
1070
     0
1000
MTEXTEND
  0
POINT
  5
3244
330
2FC2
100
AcDbEntity
  8
Defpoints
 62
     0
100
AcDbPoint
 10
152.1995773112614
 20
84.89765146080278
 30
0.0
  0
POINT
  5
3245
330
2FC2
100
AcDbEntity
  8
Defpoints
 62
     0
100
AcDbPoint
 10
147.1995773112614
 20
81.49765146080277
 30
0.0
  0
POINT
  5
3246
330
2FC2
100
AcDbEntity
  8
Defpoints
 62
     0
100
AcDbPoint
 10
147.1995773112614
 20
71.69765046080276
 30
0.0
  0
ENDBLK
  5
3025
330
2FC2
100
AcDbEntity
  8
0
100
AcDbBlockEnd
  0
BLOCK
  5
3026
330
2FEE
100
AcDbEntity
  8
0
100
AcDbBlockBegin
  2
*D22
 70
     1
 10
0.0
 20
0.0
 30
0.0
  3
*D22
  1

  0
LINE
  5
3247
330
2FEE
100
AcDbEntity
  8
AM_5
 62
     3
100
AcDbLine
 10
142.1995773112614
 20
83.89765146080277
 30
0.0
 11
142.1995773112614
 21
70.69765046080277
 31
0.0
  0
LINE
  5
3248
330
2FEE
100
AcDbEntity
  8
AM_5
 62
     3
100
AcDbLine
 10
147.1995773112614
 20
80.49765146080277
 30
0.0
 11
147.1995773112614
 21
70.69765046080277
 31
0.0
  0
LINE
  5
3249
330
2FEE
100
AcDbEntity
  8
AM_5
 62
     3
100
AcDbLine
 10
139.6995773112614
 20
71.69765046080278
 30
0.0
 11
137.1995773112614
 21
71.69765046080278
 31
0.0
  0
LINE
  5
324A
330
2FEE
100
AcDbEntity
  8
AM_5
 62
     3
100
AcDbLine
 10
149.6995773112614
 20
71.69765046080278
 30
0.0
 11
152.1995773112614
 21
71.69765046080278
 31
0.0
  0
LINE
  5
324B
330
2FEE
100
AcDbEntity
  8
AM_5
 62
     3
100
AcDbLine
 10
142.1995773112614
 20
71.69765046080278
 30
0.0
 11
147.1995773112614
 21
71.69765046080278
 31
0.0
  0
INSERT
  5
324C
330
2FEE
100
AcDbEntity
  8
AM_5
 62
     3
100
AcDbBlockReference
  2
_Open30
 10
142.1995773112614
 20
71.69765046080278
 30
0.0
 41
2.5
 42
2.5
 43
2.5
  0
INSERT
  5
324D
330
2FEE
100
AcDbEntity
  8
AM_5
 62
     3
100
AcDbBlockReference
  2
GENDOT
 10
147.1995773112614
 20
71.69765046080278
 30
0.0
 41
2.5
 42
2.5
 43
2.5
 50
180.0
  0
MTEXT
  5
324E
330
2FEE
100
AcDbEntity
  8
AM_5
 62
     2
100
AcDbMText
 10
144.6995773112614
 20
74.94765046080278
 30
0.0
 40
3.5
 41
0.0
 71
     5
 72
     1
  1
5
 73
     1
 44
1.0
1001
ACAD
1000
MTEXTBEGIN
1070
    73
1070
     1
1070
    44
1040
1.0
1070
    74
1070
     0
1000
MTEXTEND
  0
POINT
  5
324F
330
2FEE
100
AcDbEntity
  8
Defpoints
 62
     0
100
AcDbPoint
 10
142.1995773112614
 20
84.89765146080278
 30
0.0
  0
POINT
  5
3250
330
2FEE
100
AcDbEntity
  8
Defpoints
 62
     0
100
AcDbPoint
 10
147.1995773112614
 20
81.49765146080277
 30
0.0
  0
POINT
  5
3251
330
2FEE
100
AcDbEntity
  8
Defpoints
 62
     0
100
AcDbPoint
 10
147.1995773112614
 20
71.69765046080278
 30
0.0
  0
ENDBLK
  5
3027
330
2FEE
100
AcDbEntity
  8
0
100
AcDbBlockEnd
  0
BLOCK
  5
32A5
330
32A1
100
AcDbEntity
  8
0
100
AcDbBlockBegin
  2
*S23
 70
     1
 10
0.0
 20
0.0
 30
0.0
  3
*S23
  1

  0
CIRCLE
  5
32A2
330
32A1
100
AcDbEntity
  8
AM_12
 62
     4
100
AcDbCircle
 10
64.43616997425147
 20
163.2182735070403
 30
0.0
 40
1.75
  0
LINE
  5
32A3
330
32A1
100
AcDbEntity
  8
AM_12
 62
     4
100
AcDbLine
 10
62.68616997425147
 20
161.4682735070403
 30
0.0
 11
66.18616997425147
 21
164.9682735070403
 31
0.0
  0
LINE
  5
32A4
330
32A1
100
AcDbEntity
  8
AM_12
 62
     4
100
AcDbLine
 10
62.68616997425147
 20
164.9682735070403
 30
0.0
 11
66.18616997425147
 21
161.4682735070403
 31
0.0
  0
ENDBLK
  5
32A6
330
32A1
100
AcDbEntity
  8
0
100
AcDbBlockEnd
  0
BLOCK
  5
32AD
330
32A8
100
AcDbEntity
  8
0
100
AcDbBlockBegin
  2
*S24
 70
     1
 10
0.0
 20
0.0
 30
0.0
  3
*S24
  1

  0
LINE
  5
32A9
330
32A8
100
AcDbEntity
  8
AM_5
 62
     3
100
AcDbLine
 10
48.92834118469554
 20
180.1866398083136
 30
0.0
 11
62.07498421776945
 21
165.8018372905352
 31
0.0
  0
TRACE
  5
32AA
330
32A8
100
AcDbEntity
  8
AM_5
 62
     3
100
AcDbTrace
 10
61.73485159451358
 20
165.4909812898135
 30
0.0
 11
62.41511684102531
 21
166.1126932912569
 31
0.0
 12
64.43616997425147
 22
163.2182735070403
 32
0.0
 13
64.43616997425147
 23
163.2182735070403
 33
0.0
  0
MTEXT
  5
32AB
330
32A8
100
AcDbEntity
  8
AM_5
 62
     7
100
AcDbMText
 10
44.796266110852
 20
184.7078764294297
 30
0.0
 40
3.5
 41
0.0
 71
     5
 72
     5
  1
1
  7
ACISOTS
 73
     1
 44
1.0
1001
ACAD
1000
MTEXTBEGIN
1070
    73
1070
     1
1070
    44
1040
1.0
1070
    74
1070
     0
1000
MTEXTEND
  0
CIRCLE
  5
32AC
330
32A8
100
AcDbEntity
  8
AM_5
 62
     3
100
AcDbCircle
 10
44.796266110852
 20
184.7078764294297
 30
0.0
 40
6.125
  0
ENDBLK
  5
32AE
330
32A8
100
AcDbEntity
  8
0
100
AcDbBlockEnd
  0
BLOCK
  5
32B4
330
32B0
100
AcDbEntity
  8
0
100
AcDbBlockBegin
  2
*S25
 70
     1
 10
0.0
 20
0.0
 30
0.0
  3
*S25
  1

  0
CIRCLE
  5
32B1
330
32B0
100
AcDbEntity
  8
AM_12
 62
     4
100
AcDbCircle
 10
75.08563322396674
 20
165.9777367817564
 30
0.0
 40
1.75
  0
LINE
  5
32B2
330
32B0
100
AcDbEntity
  8
AM_12
 62
     4
100
AcDbLine
 10
73.33563322396674
 20
164.2277367817564
 30
0.0
 11
76.83563322396674
 21
167.7277367817564
 31
0.0
  0
LINE
  5
32B3
330
32B0
100
AcDbEntity
  8
AM_12
 62
     4
100
AcDbLine
 10
73.33563322396674
 20
167.7277367817564
 30
0.0
 11
76.83563322396674
 21
164.2277367817564
 31
0.0
  0
ENDBLK
  5
32B5
330
32B0
100
AcDbEntity
  8
0
100
AcDbBlockEnd
  0
BLOCK
  5
32BC
330
32B7
100
AcDbEntity
  8
0
100
AcDbBlockBegin
  2
*S26
 70
     1
 10
0.0
 20
0.0
 30
0.0
  3
*S26
  1

  0
LINE
  5
32B8
330
32B7
100
AcDbEntity
  8
AM_5
 62
     3
100
AcDbLine
 10
91.03184584722916
 20
186.3491505413413
 30
0.0
 11
77.242994632332
 21
168.7337831808028
 31
0.0
  0
TRACE
  5
32B9
330
32B7
100
AcDbEntity
  8
AM_5
 62
     3
100
AcDbTrace
 10
76.88015424204969
 20
169.0178051971455
 30
0.0
 11
77.60583502261432
 21
168.44976116446
 31
0.0
 12
75.08563322396674
 22
165.9777367817564
 32
0.0
 13
75.08563322396674
 23
165.9777367817564
 33
0.0
  0
MTEXT
  5
32BA
330
32B7
100
AcDbEntity
  8
AM_5
 62
     7
100
AcDbMText
 10
94.80722831186836
 20
191.1722317396724
 30
0.0
 40
3.5
 41
0.0
 71
     5
 72
     5
  1
2
  7
ACISOTS
 73
     1
 44
1.0
1001
ACAD
1000
MTEXTBEGIN
1070
    73
1070
     1
1070
    44
1040
1.0
1070
    74
1070
     0
1000
MTEXTEND
  0
CIRCLE
  5
32BB
330
32B7
100
AcDbEntity
  8
AM_5
 62
     3
100
AcDbCircle
 10
94.80722831186836
 20
191.1722317396724
 30
0.0
 40
6.125
  0
ENDBLK
  5
32BD
330
32B7
100
AcDbEntity
  8
0
100
AcDbBlockEnd
  0
BLOCK
  5
32E3
330
32BF
100
AcDbEntity
  8
0
100
AcDbBlockBegin
  2
*S27
 70
     1
 10
0.0
 20
0.0
 30
0.0
  3
*S27
  1

  0
LINE
  5
32C0
330
32BF
100
AcDbEntity
  8
0
 62
     1
100
AcDbLine
 10
0.0
 20
261.475
 30
0.0
 11
193.0
 21
261.475
 31
0.0
  0
MTEXT
  5
32C1
330
32BF
100
AcDbEntity
  8
0
 62
     2
100
AcDbMText
 10
7.727110852126656
 20
266.3
 30
0.0
 40
3.5
 41
13.65422170425331
 71
     2
 72
     5
  1
1
  7
ACISOTS
 73
     1
 44
1.0
1001
ACAD
1000
MTEXTBEGIN
1070
    73
1070
     1
1070
    44
1040
1.0
1070
    74
1070
     0
1000
MTEXTEND
  0
LINE
  5
32C2
330
32BF
100
AcDbEntity
  8
0
 62
     1
100
AcDbLine
 10
15.45422170425331
 20
267.65
 30
0.0
 11
15.45422170425331
 21
261.475
 31
0.0
  0
MTEXT
  5
32C3
330
32BF
100
AcDbEntity
  8
0
 62
     2
100
AcDbMText
 10
16.35422170425331
 20
266.3
 30
0.0
 40
3.5
 41
46.96596156474238
 71
     1
 72
     5
  1
ボディー
  7
ACISOTS
 73
     1
 44
1.0
1001
ACAD
1000
MTEXTBEGIN
1070
    73
1070
     1
1070
    44
1040
1.0
1070
    74
1070
     0
1000
MTEXTEND
  0
LINE
  5
32C4
330
32BF
100
AcDbEntity
  8
0
 62
     1
100
AcDbLine
 10
64.2201832689957
 20
267.65
 30
0.0
 11
64.2201832689957
 21
261.475
 31
0.0
  0
MTEXT
  5
32C5
330
32BF
100
AcDbEntity
  8
0
 62
     2
100
AcDbMText
 10
71.7201832689957
 20
266.3
 30
0.0
 40
3.5
 41
13.2
 71
     2
 72
     5
  1
1
  7
ACISOTS
 73
     1
 44
1.0
1001
ACAD
1000
MTEXTBEGIN
1070
    73
1070
     1
1070
    44
1040
1.0
1070
    74
1070
     0
1000
MTEXTEND
  0
LINE
  5
32C6
330
32BF
100
AcDbEntity
  8
0
 62
     1
100
AcDbLine
 10
79.2201832689957
 20
267.65
 30
0.0
 11
79.2201832689957
 21
261.475
 31
0.0
  0
MTEXT
  5
32C7
330
32BF
100
AcDbEntity
  8
0
 62
     2
100
AcDbMText
 10
80.12018326899569
 20
266.3
 30
0.0
 40
3.5
 41
38.2
 71
     1
 72
     5
  1
46ポリアミド
  7
ACISOTS
 73
     1
 44
1.0
1001
ACAD
1000
MTEXTBEGIN
1070
    73
1070
     1
1070
    44
1040
1.0
1070
    74
1070
     0
1000
MTEXTEND
  0
LINE
  5
32C8
330
32BF
100
AcDbEntity
  8
0
 62
     1
100
AcDbLine
 10
119.2201832689957
 20
267.65
 30
0.0
 11
119.2201832689957
 21
261.475
 31
0.0
  0
MTEXT
  5
32C9
330
32BF
100
AcDbEntity
  8
0
 62
     2
100
AcDbMText
 10
120.1201832689957
 20
266.3
 30
0.0
 40
3.5
 41
71.9798167310043
 71
     1
 72
     5
  1
ブラック
  7
ACISOTS
 73
     1
 44
1.0
1001
ACAD
1000
MTEXTBEGIN
1070
    73
1070
     1
1070
    44
1040
1.0
1070
    74
1070
     0
1000
MTEXTEND
  0
MTEXT
  5
32CA
330
32BF
100
AcDbEntity
  8
0
 62
     2
100
AcDbMText
 10
7.727110852126656
 20
260.125
 30
0.0
 40
3.5
 41
13.65422170425331
 71
     2
 72
     5
  1
2
  7
ACISOTS
 73
     1
 44
1.0
1001
ACAD
1000
MTEXTBEGIN
1070
    73
1070
     1
1070
    44
1040
1.0
1070
    74
1070
     0
1000
MTEXTEND
  0
LINE
  5
32CB
330
32BF
100
AcDbEntity
  8
0
 62
     1
100
AcDbLine
 10
15.45422170425331
 20
261.475
 30
0.0
 11
15.45422170425331
 21
255.3
 31
0.0
  0
MTEXT
  5
32CC
330
32BF
100
AcDbEntity
  8
0
 62
     2
100
AcDbMText
 10
16.35422170425331
 20
260.125
 30
0.0
 40
3.5
 41
46.96596156474238
 71
     1
 72
     5
  1
端子
  7
ACISOTS
 73
     1
 44
1.0
1001
ACAD
1000
MTEXTBEGIN
1070
    73
1070
     1
1070
    44
1040
1.0
1070
    74
1070
     0
1000
MTEXTEND
  0
LINE
  5
32CD
330
32BF
100
AcDbEntity
  8
0
 62
     1
100
AcDbLine
 10
64.2201832689957
 20
261.475
 30
0.0
 11
64.2201832689957
 21
255.3
 31
0.0
  0
MTEXT
  5
32CE
330
32BF
100
AcDbEntity
  8
0
 62
     2
100
AcDbMText
 10
71.7201832689957
 20
260.125
 30
0.0
 40
3.5
 41
13.2
 71
     2
 72
     5
  1
2
  7
ACISOTS
 73
     1
 44
1.0
1001
ACAD
1000
MTEXTBEGIN
1070
    73
1070
     1
1070
    44
1040
1.0
1070
    74
1070
     0
1000
MTEXTEND
  0
LINE
  5
32CF
330
32BF
100
AcDbEntity
  8
0
 62
     1
100
AcDbLine
 10
79.2201832689957
 20
261.475
 30
0.0
 11
79.2201832689957
 21
255.3
 31
0.0
  0
MTEXT
  5
32D0
330
32BF
100
AcDbEntity
  8
0
 62
     2
100
AcDbMText
 10
80.12018326899569
 20
260.125
 30
0.0
 40
3.5
 41
38.2
 71
     1
 72
     5
  1
りん青銅
  7
ACISOTS
 73
     1
 44
1.0
1001
ACAD
1000
MTEXTBEGIN
1070
    73
1070
     1
1070
    44
1040
1.0
1070
    74
1070
     0
1000
MTEXTEND
  0
LINE
  5
32D1
330
32BF
100
AcDbEntity
  8
0
 62
     1
100
AcDbLine
 10
119.2201832689957
 20
261.475
 30
0.0
 11
119.2201832689957
 21
255.3
 31
0.0
  0
MTEXT
  5
32D2
330
32BF
100
AcDbEntity
  8
0
 62
     2
100
AcDbMText
 10
120.1201832689957
 20
260.125
 30
0.0
 40
3.5
 41
71.9798167310043
 71
     1
 72
     5
  1
スズメッキ
  7
ACISOTS
 73
     1
 44
1.0
1001
ACAD
1000
MTEXTBEGIN
1070
    73
1070
     1
1070
    44
1040
1.0
1070
    74
1070
     0
1000
MTEXTEND
  0
LINE
  5
32D3
330
32BF
100
AcDbEntity
  8
0
 62
     1
100
AcDbLine
 10
0.0
 20
267.65
 30
0.0
 11
193.0
 21
267.65
 31
0.0
  0
MTEXT
  5
32D4
330
32BF
100
AcDbEntity
  8
0
 62
     2
100
AcDbMText
 10
7.727110852126656
 20
272.475
 30
0.0
 40
3.5
 41
13.65422170425331
 71
     2
 72
     5
  1
照番
  7
ACISOTS
 73
     1
 44
1.0
1001
ACAD
1000
MTEXTBEGIN
1070
    73
1070
     1
1070
    44
1040
1.0
1070
    74
1070
     0
1000
MTEXTEND
  0
LINE
  5
32D5
330
32BF
100
AcDbEntity
  8
0
 62
     1
100
AcDbLine
 10
15.45422170425331
 20
273.825
 30
0.0
 11
15.45422170425331
 21
267.65
 31
0.0
  0
MTEXT
  5
32D6
330
32BF
100
AcDbEntity
  8
0
 62
     2
100
AcDbMText
 10
39.8372024866245
 20
272.475
 30
0.0
 40
3.5
 41
46.96596156474238
 71
     2
 72
     5
  1
名称
  7
ACISOTS
 73
     1
 44
1.0
1001
ACAD
1000
MTEXTBEGIN
1070
    73
1070
     1
1070
    44
1040
1.0
1070
    74
1070
     0
1000
MTEXTEND
  0
LINE
  5
32D7
330
32BF
100
AcDbEntity
  8
0
 62
     1
100
AcDbLine
 10
64.2201832689957
 20
273.825
 30
0.0
 11
64.2201832689957
 21
267.65
 31
0.0
  0
MTEXT
  5
32D8
330
32BF
100
AcDbEntity
  8
0
 62
     2
100
AcDbMText
 10
71.7201832689957
 20
272.475
 30
0.0
 40
3.5
 41
13.2
 71
     2
 72
     5
  1
数量
  7
ACISOTS
 73
     1
 44
1.0
1001
ACAD
1000
MTEXTBEGIN
1070
    73
1070
     1
1070
    44
1040
1.0
1070
    74
1070
     0
1000
MTEXTEND
  0
LINE
  5
32D9
330
32BF
100
AcDbEntity
  8
0
 62
     1
100
AcDbLine
 10
79.2201832689957
 20
273.825
 30
0.0
 11
79.2201832689957
 21
267.65
 31
0.0
  0
MTEXT
  5
32DA
330
32BF
100
AcDbEntity
  8
0
 62
     2
100
AcDbMText
 10
99.2201832689957
 20
272.475
 30
0.0
 40
3.5
 41
38.2
 71
     2
 72
     5
  1
材質
  7
ACISOTS
 73
     1
 44
1.0
1001
ACAD
1000
MTEXTBEGIN
1070
    73
1070
     1
1070
    44
1040
1.0
1070
    74
1070
     0
1000
MTEXTEND
  0
LINE
  5
32DB
330
32BF
100
AcDbEntity
  8
0
 62
     1
100
AcDbLine
 10
119.2201832689957
 20
273.825
 30
0.0
 11
119.2201832689957
 21
267.65
 31
0.0
  0
MTEXT
  5
32DC
330
32BF
100
AcDbEntity
  8
0
 62
     2
100
AcDbMText
 10
156.1100916344978
 20
272.475
 30
0.0
 40
3.5
 41
71.9798167310043
 71
     2
 72
     5
  1
色・表面処理
  7
ACISOTS
 73
     1
 44
1.0
1001
ACAD
1000
MTEXTBEGIN
1070
    73
1070
     1
1070
    44
1040
1.0
1070
    74
1070
     0
1000
MTEXTEND
  0
MTEXT
  5
32DD
330
32BF
100
AcDbEntity
  8
0
 62
     2
100
AcDbMText
 10
96.5
 20
276.9125
 30
0.0
 40
3.5
 41
0.0
 71
     5
 72
     5
  1
構成内容
  7
ACISOTS
 73
     1
 44
1.0
1001
ACAD
1000
MTEXTBEGIN
1070
    73
1070
     1
1070
    44
1040
1.0
1070
    74
1070
     0
1000
MTEXTEND
  0
LINE
  5
32DE
330
32BF
100
AcDbEntity
  8
0
 62
     1
100
AcDbLine
 10
0.0
 20
273.825
 30
0.0
 11
193.0
 21
273.825
 31
0.0
  0
LINE
  5
32DF
330
32BF
100
AcDbEntity
  8
0
 62
     7
100
AcDbLine
 10
0.0
 20
280.0
 30
0.0
 11
193.0
 21
280.0
 31
0.0
  0
LINE
  5
32E0
330
32BF
100
AcDbEntity
  8
0
 62
     7
100
AcDbLine
 10
193.0
 20
280.0
 30
0.0
 11
193.0
 21
255.3
 31
0.0
  0
LINE
  5
32E1
330
32BF
100
AcDbEntity
  8
0
 62
     7
100
AcDbLine
 10
193.0
 20
255.3
 30
0.0
 11
0.0
 21
255.3
 31
0.0
  0
LINE
  5
32E2
330
32BF
100
AcDbEntity
  8
0
 62
     7
100
AcDbLine
 10
0.0
 20
255.3
 30
0.0
 11
0.0
 21
280.0
 31
0.0
  0
ENDBLK
  5
32E4
330
32BF
100
AcDbEntity
  8
0
100
AcDbBlockEnd
  0
ENDSEC
  0
SECTION
  2
ENTITIES
  0
INSERT
  5
C61
330
1F
100
AcDbEntity
  8
0
370
     0
100
AcDbBlockReference
  2
TK-A4
 10
0.0
 20
0.0
 30
0.0
1001
GENIUS_GENOREF_13
1005
C6E
1001
GENIUS_GENODEF_13
1002
{
1000
HIER
1070
     0
1002
}
1002
{
1000
MANEDIT
1070
     0
1002
}
1002
{
1000
NOSEL
1070
     0
1002
}
1002
{
1000
BEHIND
1070
     0
1002
}
1002
{
1000
OTHER
1070
     0
1002
}
1002
{
1000
REACTOR
1002
}
1001
GENIUS_GENOBJ-N-SDF_13
1002
{
1000
OWNER
1000
GEN
1002
}
1001
GENIUS_GENSCREG_15
1040
1.0
1040
1.0
1011
0.0
1021
0.0
1031
0.0
1011
193.0
1021
280.0000000000001
1031
0.0
1070
     3
  0
INSERT
  5
C63
330
1F
100
AcDbEntity
  8
0
370
     0
100
AcDbBlockReference
 66
     1
  2
TK-TITLE
 10
193.0
 20
0.0
 30
0.0
1001
GENIUS_GENOREF_13
1005
C6E
  0
ATTRIB
  5
C65
330
C63
100
AcDbEntity
  8
0
100
AcDbText
 10
2.241244440406944
 20
3.588342537610664
 30
0.0
 40
3.0
  1
2009/05/26
 72
     1
 11
12.78280483378614
 21
3.588342537610664
 31
0.0
100
AcDbAttribute
  2
GEN-TITLE-DAT
 70
     0
 74
     1
  0
ATTRIB
  5
C66
330
C63
100
AcDbEntity
  8
0
100
AcDbText
 10
15.17526038557594
 20
28.29999999999998
 30
0.0
 40
3.0
  1

 72
     2
 11
15.17526038557594
 21
28.29999999999998
 31
0.0
100
AcDbAttribute
  2
GEN-TITLE-SCA
 70
     0
 74
     1
  0
ATTRIB
  5
C67
330
C63
100
AcDbEntity
  8
0
100
AcDbText
 10
17.38725908739047
 20
15.79999999999994
 30
0.0
 40
3.0
  1

 72
     2
 11
17.38725908739047
 21
15.79999999999994
 31
0.0
100
AcDbAttribute
  2
GEN-TITLE-QTY
 70
     0
 74
     1
  0
ATTRIB
  5
C68
330
C63
100
AcDbEntity
  8
0
100
AcDbText
 10
44.03813241647083
 20
33.29999999999991
 30
0.0
 40
3.0
  1

100
AcDbAttribute
  2
GEN-TITLE-MAT2
 70
     0
  0
ATTRIB
  5
C69
330
C63
100
AcDbEntity
  8
0
100
AcDbText
 10
44.03813241647083
 20
43.29999999999991
 30
0.0
 40
3.0
  1

100
AcDbAttribute
  2
GEN-TITLE-MAT1
 70
     0
  0
ATTRIB
  5
C6A
330
C63
100
AcDbEntity
  8
0
100
AcDbText
 10
109.0
 20
1.999999999999957
 30
0.0
 40
3.0
  1

100
AcDbAttribute
  2
GEN-TITLE-NR1
 70
     0
  0
ATTRIB
  5
C6B
330
C63
100
AcDbEntity
  8
0
100
AcDbText
 10
109.0
 20
9.149999999999948
 30
0.0
 40
2.5
  1
CH74型コイン電池ホルダー
100
AcDbAttribute
  2
GEN-TITLE-DES2
 70
     0
  0
ATTRIB
  5
C6C
330
C63
100
AcDbEntity
  8
0
100
AcDbText
 10
108.8574809841467
 20
12.82790432564377
 30
0.0
 40
3.5
  1
CH74-2032LF
100
AcDbAttribute
  2
GEN-TITLE-DES1
 70
     0
  0
ATTRIB
  5
C6D
330
C63
100
AcDbEntity
  8
0
100
AcDbText
 10
184.9976908104542
 20
1.705189434395036
 30
0.0
 40
2.5
  1

100
AcDbAttribute
  2
GEN-TITLE-NR2
 70
     0
  0
SEQEND
  5
C64
330
C63
100
AcDbEntity
  8
0
370
     0
  0
POINT
  5
C6E
330
1F
100
AcDbEntity
  8
0
 60
     1
100
AcDbPoint
 10
0.0
 20
0.0
 30
0.0
1001
GENIUS_GENOENT_13
1002
{
1000
MYREF
1005
C6E
1002
}
1002
{
1000
GRP
1005
0
1002
}
1001
GENIUS_GENOBJ-N-TIT_13
1002
{
1000
OWNER
1000
GEN
1002
}
1001
GENIUS_GENODEF_13
1002
{
1000
HIER
1070
     1
1002
}
1002
{
1000
MANEDIT
1070
     0
1002
}
1002
{
1000
NOSEL
1070
     0
1002
}
1002
{
1000
BEHIND
1070
     0
1002
}
1002
{
1000
OTHER
1070
     0
1002
}
1002
{
1000
REACTOR
1002
}
1001
GENIUS_GENOLIS_13
1002
{
1000
ENT
1005
C63
1005
C61
1002
}
1001
GENIUS_GENTITLE_13
1002
{
1000
BORDER
1000
TK-A4
1002
}
1002
{
1000
TITLE
1000
TK-TITLE
1002
}
1002
{
1000
ADDITIONAL1
1000

1002
}
1002
{
1000
ADDITIONAL2
1000

1002
}
1002
{
1000
SCALE
1000
1:1
1002
}
1002
{
1000
TITLESTD
1000
ISO
1002
}
1002
{
1000
HRA
1005
C61
1002
}
1002
{
1000
HTIT
1005
C63
1002
}
1002
{
1000
GENIUSID
1005
C6E
1002
}
1002
{
1000
INVTXTID
1005
0
1002
}
1002
{
1000
UNCHG
1002
{
1000
GEN-TITLE-SIZ
1000
GEN-TITLE-SCA
1002
}
1002
}
  0
INSERT
  5
1345
102
{ACAD_REACTORS
330
1342
102
}
330
1F
100
AcDbEntity
  8
AM_12
100
AcDbBlockReference
  2
*S23
 10
0.0
 20
0.0
 30
0.0
1001
ACAD
1000
AcRTDxfName
1000
ACMPARTREF
  0
INSERT
  5
134A
102
{ACAD_REACTORS
330
1349
102
}
330
1F
100
AcDbEntity
  8
AM_5
100
AcDbBlockReference
  2
*S24
 10
0.0
 20
0.0
 30
0.0
1001
ACAD
1000
AcRTDxfName
1000
ACMBALLOON
  0
INSERT
  5
134C
102
{ACAD_REACTORS
330
134B
102
}
330
1F
100
AcDbEntity
  8
AM_12
100
AcDbBlockReference
  2
*S25
 10
0.0
 20
0.0
 30
0.0
1001
ACAD
1000
AcRTDxfName
1000
ACMPARTREF
  0
INSERT
  5
134F
102
{ACAD_REACTORS
330
134E
102
}
330
1F
100
AcDbEntity
  8
AM_5
100
AcDbBlockReference
  2
*S26
 10
0.0
 20
0.0
 30
0.0
1001
ACAD
1000
AcRTDxfName
1000
ACMBALLOON
  0
INSERT
  5
13CF
102
{ACAD_REACTORS
330
9A8
102
}
330
1F
100
AcDbEntity
  8
0
100
AcDbBlockReference
  2
*S27
 10
0.0
 20
0.0
 30
0.0
1001
ACAD
1000
AcRTDxfName
1000
ACMPARTLIST
  0
LINE
  5
2D30
330
1F
100
AcDbEntity
  8
ﾎﾞﾃﾞｨｰ
100
AcDbLine
 10
65.63030811287413
 20
150.855412241289
 30
0.0
 11
66.73030811287413
 21
150.855412241289
 31
0.0
  0
LINE
  5
2D31
330
1F
100
AcDbEntity
  8
ﾎﾞﾃﾞｨｰ
100
AcDbLine
 10
65.63030811287413
 20
155.855412241289
 30
0.0
 11
65.63030811287413
 21
150.855412241289
 31
0.0
  0
LINE
  5
2D32
330
1F
100
AcDbEntity
  8
ﾎﾞﾃﾞｨｰ
100
AcDbLine
 10
78.6303081128741
 20
155.855412241289
 30
0.0
 11
78.6303081128741
 21
150.855412241289
 31
0.0
  0
LINE
  5
2D33
330
1F
100
AcDbEntity
  8
ﾎﾞﾃﾞｨｰ
100
AcDbLine
 10
66.73030811287413
 20
151.155412241289
 30
0.0
 11
77.53030811287414
 21
151.155412241289
 31
0.0
  0
LINE
  5
2D34
330
1F
100
AcDbEntity
  8
ﾎﾞﾃﾞｨｰ
100
AcDbLine
 10
66.73030811287413
 20
151.155412241289
 30
0.0
 11
66.73030811287413
 21
150.855412241289
 31
0.0
  0
LINE
  5
2D35
330
1F
100
AcDbEntity
  8
ﾎﾞﾃﾞｨｰ
100
AcDbLine
 10
77.53030811287414
 20
151.155412241289
 30
0.0
 11
77.53030811287414
 21
150.855412241289
 31
0.0
  0
LINE
  5
2D36
330
1F
100
AcDbEntity
  8
ﾎﾞﾃﾞｨｰ
100
AcDbLine
 10
77.53030811287414
 20
150.855412241289
 30
0.0
 11
78.6303081128741
 21
150.855412241289
 31
0.0
  0
LINE
  5
2D37
330
1F
100
AcDbEntity
  8
ﾎﾞﾃﾞｨｰ
100
AcDbLine
 10
63.13030811287413
 20
165.355412241289
 30
0.0
 11
81.1303081128741
 21
165.355412241289
 31
0.0
  0
LINE
  5
2D38
330
1F
100
AcDbEntity
  8
ﾎﾞﾃﾞｨｰ
100
AcDbLine
 10
83.21434379232028
 20
162.555412241289
 30
0.0
 11
81.33030811287415
 21
162.555412241289
 31
0.0
  0
LINE
  5
2D39
330
1F
100
AcDbEntity
  8
ﾎﾞﾃﾞｨｰ
100
AcDbLine
 10
63.13030811287413
 20
165.355412241289
 30
0.0
 11
63.13030811287413
 21
162.755412241289
 31
0.0
  0
LINE
  5
2D3A
330
1F
100
AcDbEntity
  8
ﾎﾞﾃﾞｨｰ
100
AcDbLine
 10
81.1303081128741
 20
165.355412241289
 30
0.0
 11
81.1303081128741
 21
162.755412241289
 31
0.0
  0
LINE
  5
2D3B
330
1F
100
AcDbEntity
  8
ﾎﾞﾃﾞｨｰ
100
AcDbLine
 10
62.93030811287414
 20
162.555412241289
 30
0.0
 11
61.04627243342799
 21
162.555412241289
 31
0.0
  0
ARC
  5
2D3C
330
1F
100
AcDbEntity
  8
ﾎﾞﾃﾞｨｰ
100
AcDbCircle
 10
62.93030811287412
 20
162.7554122412889
 30
0.0
 40
0.2
100
AcDbArc
 50
270.0000000000081
 51
0.0000000000081422
1001
GENIUS_GENODEF_13
1002
{
1000
HIER
1070
     0
1002
}
1002
{
1000
MANEDIT
1070
     0
1002
}
1002
{
1000
NOSEL
1070
     0
1002
}
1002
{
1000
BEHIND
1070
     0
1002
}
1002
{
1000
OTHER
1070
     0
1002
}
1002
{
1000
REACTOR
1002
}
1001
GENIUS_GENOBJ-N-FIL_13
1002
{
1000
OWNER
1000
GEN
1002
}
  0
ARC
  5
2D3D
330
1F
100
AcDbEntity
  8
ﾎﾞﾃﾞｨｰ
100
AcDbCircle
 10
81.33030811287415
 20
162.7554122412889
 30
0.0
 40
0.2
100
AcDbArc
 50
179.9999999999918
 51
270.0
1001
GENIUS_GENOBJ-N-FIL_13
1002
{
1000
OWNER
1000
GEN
1002
}
1001
GENIUS_GENODEF_13
1002
{
1000
HIER
1070
     0
1002
}
1002
{
1000
MANEDIT
1070
     0
1002
}
1002
{
1000
NOSEL
1070
     0
1002
}
1002
{
1000
BEHIND
1070
     0
1002
}
1002
{
1000
OTHER
1070
     0
1002
}
1002
{
1000
REACTOR
1002
}
  0
LINE
  5
2D3E
330
1F
100
AcDbEntity
  8
ﾎﾞﾃﾞｨｰ
100
AcDbLine
 10
68.08030811287415
 20
152.155412241289
 30
0.0
 11
76.18030811287417
 21
152.155412241289
 31
0.0
  0
LINE
  5
2D3F
330
1F
100
AcDbEntity
  8
ﾎﾞﾃﾞｨｰ
100
AcDbLine
 10
68.08030811287415
 20
154.155412241289
 30
0.0
 11
68.08030811287415
 21
152.155412241289
 31
0.0
  0
LINE
  5
2D40
330
1F
100
AcDbEntity
  8
ﾎﾞﾃﾞｨｰ
100
AcDbLine
 10
68.08030811287415
 20
154.155412241289
 30
0.0
 11
76.18030811287417
 21
154.155412241289
 31
0.0
  0
LINE
  5
2D41
330
1F
100
AcDbEntity
  8
ﾎﾞﾃﾞｨｰ
100
AcDbLine
 10
76.18030811287417
 20
154.155412241289
 30
0.0
 11
76.18030811287417
 21
152.155412241289
 31
0.0
  0
LINE
  5
2D42
330
1F
100
AcDbEntity
  8
ﾎﾞﾃﾞｨｰ
100
AcDbLine
 10
71.6303081128741
 20
164.255412241289
 30
0.0
 11
72.63030811287411
 21
164.255412241289
 31
0.0
  0
LINE
  5
2D43
330
1F
100
AcDbEntity
  8
ﾎﾞﾃﾞｨｰ
100
AcDbLine
 10
73.88030811287411
 20
162.005412241289
 30
0.0
 11
73.88030811287411
 21
163.005412241289
 31
0.0
  0
LINE
  5
2D44
330
1F
100
AcDbEntity
  8
ﾎﾞﾃﾞｨｰ
100
AcDbLine
 10
72.63030811287411
 20
160.755412241289
 30
0.0
 11
72.63030811287411
 21
162.005412241289
 31
0.0
  0
LINE
  5
2D45
330
1F
100
AcDbEntity
  8
ﾎﾞﾃﾞｨｰ
100
AcDbLine
 10
70.3803081128741
 20
162.005412241289
 30
0.0
 11
71.6303081128741
 21
162.005412241289
 31
0.0
  0
LINE
  5
2D46
330
1F
100
AcDbEntity
  8
ﾎﾞﾃﾞｨｰ
100
AcDbLine
 10
70.3803081128741
 20
163.005412241289
 30
0.0
 11
71.6303081128741
 21
163.005412241289
 31
0.0
  0
LINE
  5
2D47
330
1F
100
AcDbEntity
  8
ﾎﾞﾃﾞｨｰ
100
AcDbLine
 10
71.6303081128741
 20
164.255412241289
 30
0.0
 11
71.6303081128741
 21
163.005412241289
 31
0.0
  0
LINE
  5
2D48
330
1F
100
AcDbEntity
  8
ﾎﾞﾃﾞｨｰ
100
AcDbLine
 10
70.3803081128741
 20
163.005412241289
 30
0.0
 11
70.3803081128741
 21
162.005412241289
 31
0.0
  0
LINE
  5
2D49
330
1F
100
AcDbEntity
  8
ﾎﾞﾃﾞｨｰ
100
AcDbLine
 10
71.6303081128741
 20
160.755412241289
 30
0.0
 11
72.63030811287411
 21
160.755412241289
 31
0.0
  0
LINE
  5
2D4A
330
1F
100
AcDbEntity
  8
ﾎﾞﾃﾞｨｰ
100
AcDbLine
 10
72.63030811287411
 20
163.005412241289
 30
0.0
 11
73.88030811287411
 21
163.005412241289
 31
0.0
  0
LINE
  5
2D4B
330
1F
100
AcDbEntity
  8
ﾎﾞﾃﾞｨｰ
100
AcDbLine
 10
72.63030811287411
 20
163.005412241289
 30
0.0
 11
72.63030811287411
 21
164.255412241289
 31
0.0
  0
LINE
  5
2D4C
330
1F
100
AcDbEntity
  8
ﾎﾞﾃﾞｨｰ
100
AcDbLine
 10
72.63030811287411
 20
162.005412241289
 30
0.0
 11
73.88030811287411
 21
162.005412241289
 31
0.0
  0
LINE
  5
2D4D
330
1F
100
AcDbEntity
  8
ﾎﾞﾃﾞｨｰ
100
AcDbLine
 10
71.6303081128741
 20
162.005412241289
 30
0.0
 11
71.6303081128741
 21
160.755412241289
 31
0.0
  0
ARC
  5
2D4E
330
1F
100
AcDbEntity
  8
端子
100
AcDbCircle
 10
67.1303081128741
 20
148.230412241289
 30
0.0
 40
0.375
100
AcDbArc
 50
180.0
 51
0.0
  0
LINE
  5
2D4F
330
1F
100
AcDbEntity
  8
端子
100
AcDbLine
 10
66.7553081128741
 20
148.230412241289
 30
0.0
 11
66.75530811287416
 21
151.155412241289
 31
0.0
  0
LINE
  5
2D50
330
1F
100
AcDbEntity
  8
端子
100
AcDbLine
 10
67.5053081128741
 20
148.230412241289
 30
0.0
 11
67.50530811287416
 21
151.155412241289
 31
0.0
  0
LINE
  5
2D51
330
1F
100
AcDbEntity
  8
端子
100
AcDbLine
 10
77.5053081128741
 20
148.230412241289
 30
0.0
 11
77.5053081128741
 21
151.155412241289
 31
0.0
  0
LINE
  5
2D52
330
1F
100
AcDbEntity
  8
端子
100
AcDbLine
 10
76.7553081128741
 20
148.230412241289
 30
0.0
 11
76.75530811287416
 21
151.155412241289
 31
0.0
  0
ARC
  5
2D53
330
1F
100
AcDbEntity
  8
端子
100
AcDbCircle
 10
77.1303081128741
 20
148.230412241289
 30
0.0
 40
0.375
100
AcDbArc
 50
180.0
 51
0.0
  0
ARC
  5
2D54
330
1F
100
AcDbEntity
  8
端子
 62
     5
100
AcDbCircle
 10
72.1303081128741
 20
148.230412241289
 30
0.0
 40
0.375
100
AcDbArc
 50
180.0
 51
0.0
  0
LINE
  5
2D55
330
1F
100
AcDbEntity
  8
端子
 62
     5
100
AcDbLine
 10
71.7553081128741
 20
148.230412241289
 30
0.0
 11
71.75530811287416
 21
151.155412241289
 31
0.0
  0
LINE
  5
2D56
330
1F
100
AcDbEntity
  8
端子
 62
     5
100
AcDbLine
 10
72.5053081128741
 20
148.230412241289
 30
0.0
 11
72.50530811287416
 21
151.155412241289
 31
0.0
  0
LINE
  5
2D57
330
1F
100
AcDbEntity
  8
端子
100
AcDbLine
 10
68.1303081128741
 20
166.155412241289
 30
0.0
 11
68.1303081128741
 21
165.355412241289
 31
0.0
  0
LINE
  5
2D58
330
1F
100
AcDbEntity
  8
端子
100
AcDbLine
 10
76.1303081128741
 20
166.155412241289
 30
0.0
 11
76.13030811287416
 21
165.355412241289
 31
0.0
  0
LINE
  5
2D59
330
1F
100
AcDbEntity
  8
端子
100
AcDbLine
 10
69.1303081128741
 20
167.155412241289
 30
0.0
 11
75.13030811287411
 21
167.155412241289
 31
0.0
  0
ARC
  5
2D5A
330
1F
100
AcDbEntity
  8
端子
100
AcDbCircle
 10
69.1303081128741
 20
166.1554122412889
 30
0.0
 40
1.0
100
AcDbArc
 50
90.0
 51
179.9999999999967
1001
GENIUS_GENOBJ-N-FIL_13
1002
{
1000
OWNER
1000
GEN
1002
}
1001
GENIUS_GENODEF_13
1002
{
1000
HIER
1070
     0
1002
}
1002
{
1000
MANEDIT
1070
     0
1002
}
1002
{
1000
NOSEL
1070
     0
1002
}
1002
{
1000
BEHIND
1070
     0
1002
}
1002
{
1000
OTHER
1070
     0
1002
}
1002
{
1000
REACTOR
1002
}
  0
ARC
  5
2D5B
330
1F
100
AcDbEntity
  8
端子
100
AcDbCircle
 10
75.13030811287411
 20
166.155412241289
 30
0.0
 40
1.0
100
AcDbArc
 50
0.0
 51
90.0
1001
GENIUS_GENOBJ-N-FIL_13
1002
{
1000
OWNER
1000
GEN
1002
}
1001
GENIUS_GENODEF_13
1002
{
1000
HIER
1070
     0
1002
}
1002
{
1000
MANEDIT
1070
     0
1002
}
1002
{
1000
NOSEL
1070
     0
1002
}
1002
{
1000
BEHIND
1070
     0
1002
}
1002
{
1000
OTHER
1070
     0
1002
}
1002
{
1000
REACTOR
1002
}
  0
LINE
  5
2D5C
330
1F
100
AcDbEntity
  8
端子
100
AcDbLine
 10
68.1303081128741
 20
166.155412241289
 30
0.0
 11
76.1303081128741
 21
166.155412241289
 31
0.0
  0
LINE
  5
2D5D
330
1F
100
AcDbEntity
  8
端子
100
AcDbLine
 10
72.73030811287412
 20
153.155412241289
 30
0.0
 11
72.73030811287412
 21
154.155412241289
 31
0.0
  0
LINE
  5
2D5E
330
1F
100
AcDbEntity
  8
端子
100
AcDbLine
 10
71.53030811287414
 20
154.155412241289
 30
0.0
 11
72.73030811287412
 21
154.155412241289
 31
0.0
  0
LINE
  5
2D5F
330
1F
100
AcDbEntity
  8
端子
100
AcDbLine
 10
71.53030811287414
 20
154.155412241289
 30
0.0
 11
71.53030811287414
 21
153.155412241289
 31
0.0
  0
LINE
  5
2D60
330
1F
100
AcDbEntity
  8
ﾎﾞﾃﾞｨｰ
100
AcDbLine
 10
117.682397829962
 20
168.955412241289
 30
0.0
 11
112.182397829962
 21
168.955412241289
 31
0.0
  0
LINE
  5
2D61
330
1F
100
AcDbEntity
  8
ﾎﾞﾃﾞｨｰ
100
AcDbLine
 10
111.782397829962
 20
165.355412241289
 30
0.0
 11
111.782397829962
 21
150.855412241289
 31
0.0
  0
LINE
  5
2D62
330
1F
100
AcDbEntity
  8
ﾎﾞﾃﾞｨｰ
100
AcDbLine
 10
112.182397829962
 20
162.555412241289
 30
0.0
 11
111.782397829962
 21
162.555412241289
 31
0.0
  0
LINE
  5
2D63
330
1F
100
AcDbEntity
  8
ﾎﾞﾃﾞｨｰ
100
AcDbLine
 10
112.182397829962
 20
162.555412241289
 30
0.0
 11
112.182397829962
 21
168.955412241289
 31
0.0
  0
LINE
  5
2D64
330
1F
100
AcDbEntity
  8
ﾎﾞﾃﾞｨｰ
100
AcDbLine
 10
117.682397829962
 20
162.555412241289
 30
0.0
 11
118.0823978299621
 21
162.555412241289
 31
0.0
  0
LINE
  5
2D65
330
1F
100
AcDbEntity
  8
ﾎﾞﾃﾞｨｰ
100
AcDbLine
 10
117.682397829962
 20
162.555412241289
 30
0.0
 11
117.682397829962
 21
168.955412241289
 31
0.0
  0
LINE
  5
2D66
330
1F
100
AcDbEntity
  8
ﾎﾞﾃﾞｨｰ
100
AcDbLine
 10
118.0823978299621
 20
165.355412241289
 30
0.0
 11
118.0823978299621
 21
150.855412241289
 31
0.0
  0
LINE
  5
2D67
330
1F
100
AcDbEntity
  8
ﾎﾞﾃﾞｨｰ
100
AcDbLine
 10
111.782397829962
 20
150.855412241289
 30
0.0
 11
118.0823978299621
 21
150.855412241289
 31
0.0
  0
LINE
  5
2D68
330
1F
100
AcDbEntity
  8
ﾎﾞﾃﾞｨｰ
100
AcDbLine
 10
111.782397829962
 20
155.855412241289
 30
0.0
 11
118.0823978299621
 21
155.855412241289
 31
0.0
  0
LINE
  5
2D69
330
1F
100
AcDbEntity
  8
ﾎﾞﾃﾞｨｰ
100
AcDbLine
 10
118.0823978299621
 20
165.355412241289
 30
0.0
 11
117.682397829962
 21
165.355412241289
 31
0.0
  0
LINE
  5
2D6A
330
1F
100
AcDbEntity
  8
ﾎﾞﾃﾞｨｰ
100
AcDbLine
 10
112.182397829962
 20
165.355412241289
 30
0.0
 11
111.782397829962
 21
165.355412241289
 31
0.0
  0
LINE
  5
2D6B
330
1F
100
AcDbEntity
  8
端子
100
AcDbLine
 10
112.732397829962
 20
150.855412241289
 30
0.0
 11
112.732397829962
 21
147.855412241289
 31
0.0
  0
LINE
  5
2D6C
330
1F
100
AcDbEntity
  8
端子
100
AcDbLine
 10
113.1323978299621
 20
147.855412241289
 30
0.0
 11
112.732397829962
 21
147.855412241289
 31
0.0
  0
LINE
  5
2D6D
330
1F
100
AcDbEntity
  8
端子
100
AcDbLine
 10
113.1323978299621
 20
150.855412241289
 30
0.0
 11
113.1323978299621
 21
147.855412241289
 31
0.0
  0
ARC
  5
2D6E
330
1F
100
AcDbEntity
  8
端子
100
AcDbCircle
 10
154.73448754705
 20
166.155412241289
 30
0.0
 40
1.0
100
AcDbArc
 50
90.0
 51
180.0
1001
GENIUS_GENOBJ-N-FIL_13
1002
{
1000
OWNER
1000
GEN
1002
}
1001
GENIUS_GENODEF_13
1002
{
1000
HIER
1070
     0
1002
}
1002
{
1000
MANEDIT
1070
     0
1002
}
1002
{
1000
NOSEL
1070
     0
1002
}
1002
{
1000
BEHIND
1070
     0
1002
}
1002
{
1000
OTHER
1070
     0
1002
}
1002
{
1000
REACTOR
1002
}
  0
ARC
  5
2D6F
330
1F
100
AcDbEntity
  8
端子
100
AcDbCircle
 10
160.73448754705
 20
166.1554122412889
 30
0.0
 40
1.0
100
AcDbArc
 50
0.0000000000032569
 51
90.0
1001
GENIUS_GENOBJ-N-FIL_13
1002
{
1000
OWNER
1000
GEN
1002
}
1001
GENIUS_GENODEF_13
1002
{
1000
HIER
1070
     0
1002
}
1002
{
1000
MANEDIT
1070
     0
1002
}
1002
{
1000
NOSEL
1070
     0
1002
}
1002
{
1000
BEHIND
1070
     0
1002
}
1002
{
1000
OTHER
1070
     0
1002
}
1002
{
1000
REACTOR
1002
}
  0
LINE
  5
2D70
330
1F
100
AcDbEntity
  8
端子
100
AcDbLine
 10
160.73448754705
 20
167.155412241289
 30
0.0
 11
154.73448754705
 21
167.155412241289
 31
0.0
  0
LINE
  5
2D71
330
1F
100
AcDbEntity
  8
端子
100
AcDbLine
 10
153.73448754705
 20
166.155412241289
 30
0.0
 11
153.73448754705
 21
165.355412241289
 31
0.0
  0
LINE
  5
2D72
330
1F
100
AcDbEntity
  8
端子
100
AcDbLine
 10
161.73448754705
 20
166.155412241289
 30
0.0
 11
161.73448754705
 21
165.355412241289
 31
0.0
  0
LINE
  5
2D73
330
1F
100
AcDbEntity
  8
端子
 62
     5
100
AcDbLine
 10
157.35948754705
 20
148.230412241289
 30
0.0
 11
157.35948754705
 21
151.155412241289
 31
0.0
  0
LINE
  5
2D74
330
1F
100
AcDbEntity
  8
端子
 62
     5
100
AcDbLine
 10
158.10948754705
 20
148.230412241289
 30
0.0
 11
158.10948754705
 21
151.155412241289
 31
0.0
  0
ARC
  5
2D75
330
1F
100
AcDbEntity
  8
端子
 62
     5
100
AcDbCircle
 10
157.73448754705
 20
148.230412241289
 30
0.0
 40
0.375
100
AcDbArc
 50
180.0
 51
0.0
  0
ARC
  5
2D76
330
1F
100
AcDbEntity
  8
端子
100
AcDbCircle
 10
152.73448754705
 20
148.230412241289
 30
0.0
 40
0.375
100
AcDbArc
 50
180.0
 51
0.0
  0
LINE
  5
2D77
330
1F
100
AcDbEntity
  8
端子
100
AcDbLine
 10
153.10948754705
 20
148.230412241289
 30
0.0
 11
153.10948754705
 21
151.155412241289
 31
0.0
  0
LINE
  5
2D78
330
1F
100
AcDbEntity
  8
端子
100
AcDbLine
 10
152.35948754705
 20
148.230412241289
 30
0.0
 11
152.35948754705
 21
151.155412241289
 31
0.0
  0
LINE
  5
2D79
330
1F
100
AcDbEntity
  8
端子
100
AcDbLine
 10
162.35948754705
 20
148.230412241289
 30
0.0
 11
162.35948754705
 21
151.155412241289
 31
0.0
  0
LINE
  5
2D7A
330
1F
100
AcDbEntity
  8
端子
100
AcDbLine
 10
163.10948754705
 20
148.230412241289
 30
0.0
 11
163.10948754705
 21
151.155412241289
 31
0.0
  0
ARC
  5
2D7B
330
1F
100
AcDbEntity
  8
端子
100
AcDbCircle
 10
162.73448754705
 20
148.230412241289
 30
0.0
 40
0.375
100
AcDbArc
 50
180.0
 51
0.0
  0
LINE
  5
2D7C
330
1F
100
AcDbEntity
  8
ﾎﾞﾃﾞｨｰ
100
AcDbLine
 10
159.48448754705
 20
163.005412241289
 30
0.0
 11
159.48448754705
 21
162.005412241289
 31
0.0
  0
LINE
  5
2D7D
330
1F
100
AcDbEntity
  8
ﾎﾞﾃﾞｨｰ
100
AcDbLine
 10
159.48448754705
 20
163.005412241289
 30
0.0
 11
155.98448754705
 21
163.005412241289
 31
0.0
  0
LINE
  5
2D7E
330
1F
100
AcDbEntity
  8
ﾎﾞﾃﾞｨｰ
100
AcDbLine
 10
159.48448754705
 20
162.005412241289
 30
0.0
 11
155.98448754705
 21
162.005412241289
 31
0.0
  0
LINE
  5
2D7F
330
1F
100
AcDbEntity
  8
ﾎﾞﾃﾞｨｰ
100
AcDbLine
 10
155.98448754705
 20
162.005412241289
 30
0.0
 11
155.98448754705
 21
163.005412241289
 31
0.0
  0
LINE
  5
2D80
330
1F
100
AcDbEntity
  8
ﾎﾞﾃﾞｨｰ
100
AcDbLine
 10
148.73448754705
 20
165.355412241289
 30
0.0
 11
148.73448754705
 21
162.755412241289
 31
0.0
  0
LINE
  5
2D81
330
1F
100
AcDbEntity
  8
ﾎﾞﾃﾞｨｰ
100
AcDbLine
 10
166.73448754705
 20
165.355412241289
 30
0.0
 11
166.73448754705
 21
162.755412241289
 31
0.0
  0
LINE
  5
2D82
330
1F
100
AcDbEntity
  8
ﾎﾞﾃﾞｨｰ
100
AcDbLine
 10
166.73448754705
 20
165.355412241289
 30
0.0
 11
148.73448754705
 21
165.355412241289
 31
0.0
  0
LINE
  5
2D83
330
1F
100
AcDbEntity
  8
ﾎﾞﾃﾞｨｰ
100
AcDbLine
 10
152.33448754705
 20
150.855412241289
 30
0.0
 11
151.23448754705
 21
150.855412241289
 31
0.0
  0
LINE
  5
2D84
330
1F
100
AcDbEntity
  8
ﾎﾞﾃﾞｨｰ
100
AcDbLine
 10
152.33448754705
 20
151.155412241289
 30
0.0
 11
152.33448754705
 21
150.855412241289
 31
0.0
  0
LINE
  5
2D85
330
1F
100
AcDbEntity
  8
ﾎﾞﾃﾞｨｰ
100
AcDbLine
 10
163.13448754705
 20
151.155412241289
 30
0.0
 11
163.13448754705
 21
150.855412241289
 31
0.0
  0
LINE
  5
2D86
330
1F
100
AcDbEntity
  8
ﾎﾞﾃﾞｨｰ
100
AcDbLine
 10
163.13448754705
 20
151.155412241289
 30
0.0
 11
152.33448754705
 21
151.155412241289
 31
0.0
  0
LINE
  5
2D87
330
1F
100
AcDbEntity
  8
ﾎﾞﾃﾞｨｰ
100
AcDbLine
 10
151.23448754705
 20
155.855412241289
 30
0.0
 11
151.23448754705
 21
150.855412241289
 31
0.0
  0
LINE
  5
2D88
330
1F
100
AcDbEntity
  8
ﾎﾞﾃﾞｨｰ
100
AcDbLine
 10
164.23448754705
 20
155.855412241289
 30
0.0
 11
164.23448754705
 21
150.855412241289
 31
0.0
  0
LINE
  5
2D89
330
1F
100
AcDbEntity
  8
ﾎﾞﾃﾞｨｰ
100
AcDbLine
 10
164.23448754705
 20
150.855412241289
 30
0.0
 11
163.13448754705
 21
150.855412241289
 31
0.0
  0
LINE
  5
2D8A
330
1F
100
AcDbEntity
  8
ﾎﾞﾃﾞｨｰ
100
AcDbLine
 10
156.23448754705
 20
158.055412241289
 30
0.0
 11
159.23448754705
 21
158.055412241289
 31
0.0
  0
LINE
  5
2D8B
330
1F
100
AcDbEntity
  8
ﾎﾞﾃﾞｨｰ
100
AcDbLine
 10
159.23448754705
 20
158.055412241289
 30
0.0
 11
159.23448754705
 21
160.255412241289
 31
0.0
  0
LINE
  5
2D8C
330
1F
100
AcDbEntity
  8
ﾎﾞﾃﾞｨｰ
100
AcDbLine
 10
156.23448754705
 20
160.255412241289
 30
0.0
 11
156.23448754705
 21
158.055412241289
 31
0.0
  0
LINE
  5
2D8D
330
1F
100
AcDbEntity
  8
ﾎﾞﾃﾞｨｰ
100
AcDbLine
 10
156.23448754705
 20
160.255412241289
 30
0.0
 11
159.23448754705
 21
160.255412241289
 31
0.0
  0
LINE
  5
2D8E
330
1F
100
AcDbEntity
  8
端子
 62
     5
100
AcDbLine
 10
157.03448754705
 20
160.255412241289
 30
0.0
 11
158.43448754705
 21
160.255412241289
 31
0.0
  0
LINE
  5
2D8F
330
1F
100
AcDbEntity
  8
端子
 62
     5
100
AcDbLine
 10
157.03448754705
 20
158.355412241289
 30
0.0
 11
157.03448754705
 21
160.255412241289
 31
0.0
  0
LINE
  5
2D90
330
1F
100
AcDbEntity
  8
端子
 62
     5
100
AcDbLine
 10
158.43448754705
 20
158.355412241289
 30
0.0
 11
158.43448754705
 21
160.255412241289
 31
0.0
  0
LINE
  5
2D91
330
1F
100
AcDbEntity
  8
ﾎﾞﾃﾞｨｰ
100
AcDbLine
 10
83.53030811287414
 20
207.992957904776
 30
0.0
 11
83.53030811287414
 21
202.492957904776
 31
0.0
  0
LINE
  5
2D92
330
1F
100
AcDbEntity
  8
ﾎﾞﾃﾞｨｰ
100
AcDbLine
 10
81.60353824287165
 20
207.992957904776
 30
0.0
 11
81.60353824287165
 21
202.492957904776
 31
0.0
  0
LINE
  5
2D93
330
1F
100
AcDbEntity
  8
ﾎﾞﾃﾞｨｰ
100
AcDbLine
 10
62.65707798287659
 20
207.992957904776
 30
0.0
 11
62.65707798287659
 21
202.492957904776
 31
0.0
  0
LINE
  5
2D94
330
1F
100
AcDbEntity
  8
ﾎﾞﾃﾞｨｰ
100
AcDbLine
 10
60.73030811287413
 20
207.992957904776
 30
0.0
 11
60.73030811287413
 21
202.492957904776
 31
0.0
  0
LINE
  5
2D95
330
1F
100
AcDbEntity
  8
ﾎﾞﾃﾞｨｰ
100
AcDbLine
 10
62.65707798287659
 20
202.4929579047759
 30
0.0
 11
60.73030811287413
 21
202.492957904776
 31
0.0
  0
LINE
  5
2D96
330
1F
100
AcDbEntity
  8
ﾎﾞﾃﾞｨｰ
100
AcDbLine
 10
62.65707798287661
 20
207.992957904776
 30
0.0
 11
60.73030811287407
 21
207.992957904776
 31
0.0
  0
LINE
  5
2D97
330
1F
100
AcDbEntity
  8
ﾎﾞﾃﾞｨｰ
100
AcDbLine
 10
83.53030811287414
 20
207.992957904776
 30
0.0
 11
81.6035382428717
 21
207.992957904776
 31
0.0
  0
LINE
  5
2D98
330
1F
100
AcDbEntity
  8
ﾎﾞﾃﾞｨｰ
100
AcDbLine
 10
83.53030811287414
 20
202.492957904776
 30
0.0
 11
81.60353824287165
 21
202.4929579047759
 31
0.0
  0
LINE
  5
2D99
330
1F
100
AcDbEntity
  8
ﾎﾞﾃﾞｨｰ
100
AcDbLine
 10
83.21434379232028
 20
208.392957904776
 30
0.0
 11
83.21434379232028
 21
207.992957904776
 31
0.0
  0
LINE
  5
2D9A
330
1F
100
AcDbEntity
  8
ﾎﾞﾃﾞｨｰ
100
AcDbLine
 10
81.1303081128741
 20
208.392957904776
 30
0.0
 11
81.1303081128741
 21
206.992957904776
 31
0.0
  0
LINE
  5
2D9B
330
1F
100
AcDbEntity
  8
ﾎﾞﾃﾞｨｰ
100
AcDbLine
 10
63.13030811287413
 20
208.392957904776
 30
0.0
 11
63.13030811287413
 21
206.992957904776
 31
0.0
  0
LINE
  5
2D9C
330
1F
100
AcDbEntity
  8
ﾎﾞﾃﾞｨｰ
100
AcDbLine
 10
61.04627243342799
 20
208.392957904776
 30
0.0
 11
61.04627243342799
 21
207.992957904776
 31
0.0
  0
LINE
  5
2D9D
330
1F
100
AcDbEntity
  8
ﾎﾞﾃﾞｨｰ
100
AcDbLine
 10
83.21434379232028
 20
208.392957904776
 30
0.0
 11
61.04627243342799
 21
208.392957904776
 31
0.0
  0
LINE
  5
2D9E
330
1F
100
AcDbEntity
  8
ﾎﾞﾃﾞｨｰ
100
AcDbLine
 10
83.21434379232028
 20
202.092957904776
 30
0.0
 11
61.04627243342799
 21
202.092957904776
 31
0.0
  0
LINE
  5
2D9F
330
1F
100
AcDbEntity
  8
ﾎﾞﾃﾞｨｰ
100
AcDbLine
 10
61.04627243342799
 20
202.492957904776
 30
0.0
 11
61.04627243342799
 21
202.092957904776
 31
0.0
  0
LINE
  5
2DA0
330
1F
100
AcDbEntity
  8
ﾎﾞﾃﾞｨｰ
100
AcDbLine
 10
83.21434379232028
 20
202.492957904776
 30
0.0
 11
83.21434379232028
 21
202.092957904776
 31
0.0
  0
LINE
  5
2DA1
330
1F
100
AcDbEntity
  8
ﾎﾞﾃﾞｨｰ
100
AcDbLine
 10
63.13030811287413
 20
203.492957904776
 30
0.0
 11
63.13030811287413
 21
202.092957904776
 31
0.0
  0
LINE
  5
2DA2
330
1F
100
AcDbEntity
  8
ﾎﾞﾃﾞｨｰ
100
AcDbLine
 10
81.1303081128741
 20
203.492957904776
 30
0.0
 11
81.1303081128741
 21
202.092957904776
 31
0.0
  0
LINE
  5
2DA3
330
1F
100
AcDbEntity
  8
ﾎﾞﾃﾞｨｰ
100
AcDbLine
 10
81.6035382428717
 20
206.992957904776
 30
0.0
 11
73.88030811287411
 21
206.992957904776
 31
0.0
  0
LINE
  5
2DA4
330
1F
100
AcDbEntity
  8
ﾎﾞﾃﾞｨｰ
100
AcDbLine
 10
70.3803081128741
 20
206.992957904776
 30
0.0
 11
62.65707798287659
 21
206.992957904776
 31
0.0
  0
LINE
  5
2DA5
330
1F
100
AcDbEntity
  8
ﾎﾞﾃﾞｨｰ
100
AcDbLine
 10
70.33030811287415
 20
203.492957904776
 30
0.0
 11
62.65707798287659
 21
203.492957904776
 31
0.0
  0
LINE
  5
2DA6
330
1F
100
AcDbEntity
  8
端子
100
AcDbLine
 10
66.7553081128741
 20
203.442957904776
 30
0.0
 11
66.7553081128741
 21
203.042957904776
 31
0.0
  0
LINE
  5
2DA7
330
1F
100
AcDbEntity
  8
端子
100
AcDbLine
 10
68.1303081128741
 20
203.442957904776
 30
0.0
 11
68.1303081128741
 21
202.942957904776
 31
0.0
  0
LINE
  5
2DA8
330
1F
100
AcDbEntity
  8
端子
100
AcDbLine
 10
76.1303081128741
 20
203.442957904776
 30
0.0
 11
76.1303081128741
 21
202.942957904776
 31
0.0
  0
LINE
  5
2DA9
330
1F
100
AcDbEntity
  8
端子
100
AcDbLine
 10
77.5053081128741
 20
203.442957904776
 30
0.0
 11
77.5053081128741
 21
203.042957904776
 31
0.0
  0
LINE
  5
2DAA
330
1F
100
AcDbEntity
  8
端子
100
AcDbLine
 10
113.1323978299621
 20
150.855412241289
 30
0.0
 11
113.1323978299621
 21
147.855412241289
 31
0.0
  0
LINE
  5
2DAB
330
1F
100
AcDbEntity
  8
端子
100
AcDbLine
 10
75.6303081128741
 20
202.4429579047759
 30
0.0
 11
68.6303081128741
 21
202.4429579047759
 31
0.0
  0
LINE
  5
2DAC
330
1F
100
AcDbEntity
  8
端子
100
AcDbLine
 10
112.1323978299621
 20
167.155412241289
 30
0.0
 11
112.182397829962
 21
167.0720789079557
 31
0.0
  0
LINE
  5
2DAD
330
1F
100
AcDbEntity
  8
端子
100
AcDbLine
 10
112.1323978299621
 20
167.155412241289
 30
0.0
 11
112.182397829962
 21
167.185412241289
 31
0.0
  0
LINE
  5
2DAE
330
1F
100
AcDbEntity
  8
端子
100
AcDbLine
 10
112.732397829962
 20
150.855412241289
 30
0.0
 11
112.7323978299621
 21
147.855412241289
 31
0.0
  0
LINE
  5
2DAF
330
1F
100
AcDbEntity
  8
端子
100
AcDbLine
 10
112.732397829962
 20
147.855412241289
 30
0.0
 11
113.1323978299621
 21
147.855412241289
 31
0.0
  0
LINE
  5
2DB0
330
1F
100
AcDbEntity
  8
端子
100
AcDbLine
 10
77.5053081128741
 20
203.442957904776
 30
0.0
 11
66.7553081128741
 21
203.442957904776
 31
0.0
  0
LINE
  5
2DB1
330
1F
100
AcDbEntity
  8
端子
100
AcDbLine
 10
77.5053081128741
 20
203.042957904776
 30
0.0
 11
76.1303081128741
 21
203.042957904776
 31
0.0
  0
ARC
  5
2DB2
330
1F
100
AcDbEntity
  8
端子
100
AcDbCircle
 10
68.6303081128741
 20
202.942957904776
 30
0.0
 40
0.5
100
AcDbArc
 50
179.9999999999967
 51
270.0000000000065
1001
GENIUS_GENOBJ-N-FIL_13
1002
{
1000
OWNER
1000
GEN
1002
}
1001
GENIUS_GENODEF_13
1002
{
1000
HIER
1070
     0
1002
}
1002
{
1000
MANEDIT
1070
     0
1002
}
1002
{
1000
NOSEL
1070
     0
1002
}
1002
{
1000
BEHIND
1070
     0
1002
}
1002
{
1000
OTHER
1070
     0
1002
}
1002
{
1000
REACTOR
1002
}
  0
ARC
  5
2DB3
330
1F
100
AcDbEntity
  8
端子
100
AcDbCircle
 10
75.6303081128741
 20
202.942957904776
 30
0.0
 40
0.5
100
AcDbArc
 50
270.0000000000033
 51
0.0
1001
GENIUS_GENODEF_13
1002
{
1000
HIER
1070
     0
1002
}
1002
{
1000
MANEDIT
1070
     0
1002
}
1002
{
1000
NOSEL
1070
     0
1002
}
1002
{
1000
BEHIND
1070
     0
1002
}
1002
{
1000
OTHER
1070
     0
1002
}
1002
{
1000
REACTOR
1002
}
1001
GENIUS_GENOBJ-N-FIL_13
1002
{
1000
OWNER
1000
GEN
1002
}
  0
LINE
  5
2DB4
330
1F
100
AcDbEntity
  8
端子
100
AcDbLine
 10
68.13030811287416
 20
203.042957904776
 30
0.0
 11
66.7553081128741
 21
203.042957904776
 31
0.0
  0
LINE
  5
2DB5
330
1F
100
AcDbEntity
  8
端子
 62
     5
100
AcDbLine
 10
70.3803081128741
 20
207.442957904776
 30
0.0
 11
70.3803081128741
 21
206.7429579047761
 31
0.0
  0
LINE
  5
2DB6
330
1F
100
AcDbEntity
  8
端子
 62
     5
100
AcDbLine
 10
73.88030811287411
 20
207.442957904776
 30
0.0
 11
73.88030811287411
 21
206.7429579047761
 31
0.0
  0
LINE
  5
2DB7
330
1F
100
AcDbEntity
  8
端子
 62
     5
100
AcDbLine
 10
73.88030811287411
 20
207.442957904776
 30
0.0
 11
70.3803081128741
 21
207.442957904776
 31
0.0
  0
LINE
  5
2DB8
330
1F
100
AcDbEntity
  8
端子
 62
     5
100
AcDbLine
 10
73.88030811287411
 20
207.042957904776
 30
0.0
 11
70.3803081128741
 21
207.042957904776
 31
0.0
  0
LINE
  5
2DB9
330
1F
100
AcDbEntity
  8
端子
 62
     5
100
AcDbLine
 10
116.7323978299621
 20
147.855412241289
 30
0.0
 11
117.1323978299621
 21
147.855412241289
 31
0.0
  0
LINE
  5
2DBA
330
1F
100
AcDbEntity
  8
端子
 62
     5
100
AcDbLine
 10
73.88030811287411
 20
206.7429579047761
 30
0.0
 11
70.3803081128741
 21
206.7429579047761
 31
0.0
  0
LINE
  5
2DBB
330
1F
100
AcDbEntity
  8
端子
 62
     5
100
AcDbLine
 10
116.7323978299621
 20
150.855412241289
 30
0.0
 11
116.7323978299621
 21
147.855412241289
 31
0.0
  0
LINE
  5
2DBC
330
1F
100
AcDbEntity
  8
端子
 62
     5
100
AcDbLine
 10
117.1323978299621
 20
150.855412241289
 30
0.0
 11
117.1323978299621
 21
147.855412241289
 31
0.0
  0
LINE
  5
2DBD
330
1F
100
AcDbEntity
  8
ﾎﾞﾃﾞｨｰ
100
AcDbLine
 10
77.8803081128741
 20
203.042957904776
 30
0.0
 11
77.8803081128741
 21
203.492957904776
 31
0.0
  0
LINE
  5
2DBE
330
1F
100
AcDbEntity
  8
ﾎﾞﾃﾞｨｰ
100
AcDbLine
 10
66.38030811287411
 20
203.492957904776
 30
0.0
 11
66.38030811287411
 21
203.042957904776
 31
0.0
  0
LINE
  5
2DBF
330
1F
100
AcDbEntity
  8
ﾎﾞﾃﾞｨｰ
100
AcDbLine
 10
81.1303081128741
 20
203.042957904776
 30
0.0
 11
76.1303081128741
 21
203.042957904776
 31
0.0
  0
LINE
  5
2DC0
330
1F
100
AcDbEntity
  8
ﾎﾞﾃﾞｨｰ
100
AcDbLine
 10
68.1303081128741
 20
203.042957904776
 30
0.0
 11
63.13030811287413
 21
203.0429579047759
 31
0.0
  0
LINE
  5
2DC1
330
1F
100
AcDbEntity
  8
ﾎﾞﾃﾞｨｰ
100
AcDbLine
 10
74.1303081128741
 20
207.4429579047761
 30
0.0
 11
74.1303081128741
 21
206.992957904776
 31
0.0
  0
LINE
  5
2DC2
330
1F
100
AcDbEntity
  8
ﾎﾞﾃﾞｨｰ
100
AcDbLine
 10
81.1303081128741
 20
207.4429579047761
 30
0.0
 11
63.13030811287413
 21
207.4429579047761
 31
0.0
  0
LINE
  5
2DC3
330
1F
100
AcDbEntity
  8
ﾎﾞﾃﾞｨｰ
100
AcDbLine
 10
70.13030811287411
 20
207.4429579047761
 30
0.0
 11
70.13030811287411
 21
206.992957904776
 31
0.0
  0
LINE
  5
2DC4
330
1F
100
AcDbEntity
  8
ﾎﾞﾃﾞｨｰ
100
AcDbLine
 10
77.53030811287414
 20
203.492957904776
 30
0.0
 11
77.53030811287414
 21
203.042957904776
 31
0.0
  0
LINE
  5
2DC5
330
1F
100
AcDbEntity
  8
ﾎﾞﾃﾞｨｰ
100
AcDbLine
 10
67.53030811287414
 20
203.442957904776
 30
0.0
 11
67.53030811287414
 21
203.492957904776
 31
0.0
  0
LINE
  5
2DC6
330
1F
100
AcDbEntity
  8
ﾎﾞﾃﾞｨｰ
100
AcDbLine
 10
76.73030811287413
 20
203.492957904776
 30
0.0
 11
76.73030811287413
 21
203.442957904776
 31
0.0
  0
LINE
  5
2DC7
330
1F
100
AcDbEntity
  8
ﾎﾞﾃﾞｨｰ
100
AcDbLine
 10
66.73030811287413
 20
203.042957904776
 30
0.0
 11
66.73030811287413
 21
203.492957904776
 31
0.0
  0
LINE
  5
2DC8
330
1F
100
AcDbEntity
  8
端子
 62
     5
100
AcDbLine
 10
27.01411950694029
 20
160.293705677166
 30
0.0
 11
26.62821839578612
 21
160.1884425192713
 31
0.0
  0
LINE
  5
2DC9
330
1F
100
AcDbEntity
  8
端子
 62
     5
100
AcDbLine
 10
27.01411950694029
 20
160.293705677166
 30
0.0
 11
27.12821839578612
 21
159.875412241289
 31
0.0
  0
LINE
  5
2DCA
330
1F
100
AcDbEntity
  8
端子
 62
     5
100
AcDbLine
 10
26.62821839578612
 20
160.1884425192713
 30
0.0
 11
27.12821839578612
 21
158.355412241289
 31
0.0
  0
LINE
  5
2DCB
330
1F
100
AcDbEntity
  8
端子
100
AcDbLine
 10
30.72821839578614
 20
154.0719273802801
 30
0.0
 11
31.09482445138269
 21
154.2319273802802
 31
0.0
  0
LINE
  5
2DCC
330
1F
100
AcDbEntity
  8
端子
100
AcDbLine
 10
31.09482445138269
 20
154.2319273802802
 30
0.0
 11
31.12821839578629
 21
154.155412241289
 31
0.0
  0
LINE
  5
2DCD
330
1F
100
AcDbEntity
  8
端子
100
AcDbLine
 10
30.72821839578614
 20
154.0719273802801
 30
0.0
 11
31.12821839578618
 21
153.155412241289
 31
0.0
  0
ARC
  5
2DCE
330
1F
100
AcDbEntity
  8
端子
 62
     5
100
AcDbCircle
 10
27.92821839578613
 20
162.4878677733202
 30
0.0
 40
0.8
100
AcDbArc
 50
180.0
 51
230.753867050193
1001
GENIUS_GENOBJ-N-FIL_13
1002
{
1000
OWNER
1000
GEN
1002
}
1001
GENIUS_GENODEF_13
1002
{
1000
HIER
1070
     0
1002
}
1002
{
1000
MANEDIT
1070
     0
1002
}
1002
{
1000
NOSEL
1070
     0
1002
}
1002
{
1000
BEHIND
1070
     0
1002
}
1002
{
1000
OTHER
1070
     0
1002
}
1002
{
1000
REACTOR
1002
}
  0
ARC
  5
2DCF
330
1F
100
AcDbEntity
  8
端子
 62
     5
100
AcDbCircle
 10
27.41155172911937
 20
161.855412241289
 30
0.0
 40
0.0166666666667118
100
AcDbArc
 50
309.246132949807
 51
50.75386705019296
  0
ARC
  5
2DD0
330
1F
100
AcDbEntity
  8
端子
 62
     5
100
AcDbCircle
 10
27.92821839578613
 20
161.2229567092577
 30
0.0
 40
0.8
100
AcDbArc
 50
129.246132949807
 51
180.0000000000016
1001
GENIUS_GENOBJ-N-FIL_13
1002
{
1000
OWNER
1000
GEN
1002
}
1001
GENIUS_GENODEF_13
1002
{
1000
HIER
1070
     0
1002
}
1002
{
1000
MANEDIT
1070
     0
1002
}
1002
{
1000
NOSEL
1070
     0
1002
}
1002
{
1000
BEHIND
1070
     0
1002
}
1002
{
1000
OTHER
1070
     0
1002
}
1002
{
1000
REACTOR
1002
}
  0
ARC
  5
2DD1
330
1F
100
AcDbEntity
  8
端子
 62
     5
100
AcDbCircle
 10
27.92821839578613
 20
161.2229567092577
 30
0.0
 40
0.4
100
AcDbArc
 50
129.246132949807
 51
180.0000000000016
1001
GENIUS_GENOBJ-N-FIL_13
1002
{
1000
OWNER
1000
GEN
1002
}
1001
GENIUS_GENODEF_13
1002
{
1000
HIER
1070
     0
1002
}
1002
{
1000
MANEDIT
1070
     0
1002
}
1002
{
1000
NOSEL
1070
     0
1002
}
1002
{
1000
BEHIND
1070
     0
1002
}
1002
{
1000
OTHER
1070
     0
1002
}
1002
{
1000
REACTOR
1002
}
  0
ARC
  5
2DD2
330
1F
100
AcDbEntity
  8
端子
 62
     5
100
AcDbCircle
 10
27.92821839578613
 20
162.4878677733202
 30
0.0
 40
0.4
100
AcDbArc
 50
180.0
 51
230.753867050193
1001
GENIUS_GENOBJ-N-FIL_13
1002
{
1000
OWNER
1000
GEN
1002
}
1001
GENIUS_GENODEF_13
1002
{
1000
HIER
1070
     0
1002
}
1002
{
1000
MANEDIT
1070
     0
1002
}
1002
{
1000
NOSEL
1070
     0
1002
}
1002
{
1000
BEHIND
1070
     0
1002
}
1002
{
1000
OTHER
1070
     0
1002
}
1002
{
1000
REACTOR
1002
}
  0
LINE
  5
2DD3
330
1F
100
AcDbEntity
  8
端子
 62
     5
100
AcDbLine
 10
27.12821839578612
 20
161.2229567092577
 30
0.0
 11
27.12821839578618
 21
147.855412241289
 31
0.0
  0
LINE
  5
2DD4
330
1F
100
AcDbEntity
  8
端子
 62
     5
100
AcDbLine
 10
27.52821839578615
 20
161.2229567092577
 30
0.0
 11
27.52821839578615
 21
147.855412241289
 31
0.0
  0
ARC
  5
2DD5
330
1F
100
AcDbEntity
  8
端子
 62
     5
100
AcDbCircle
 10
27.41155172911937
 20
161.855412241289
 30
0.0
 40
0.4166666666667118
100
AcDbArc
 50
309.246132949807
 51
50.75386705019296
  0
LINE
  5
2DD6
330
1F
100
AcDbEntity
  8
端子
 62
     5
100
AcDbLine
 10
27.52821839578615
 20
147.855412241289
 30
0.0
 11
27.12821839578618
 21
147.855412241289
 31
0.0
  0
LINE
  5
2DD7
330
1F
100
AcDbEntity
  8
端子
 62
     5
100
AcDbLine
 10
27.12821839578618
 20
164.855412241289
 30
0.0
 11
27.12821839578607
 21
162.4878677733202
 31
0.0
  0
LINE
  5
2DD8
330
1F
100
AcDbEntity
  8
端子
 62
     5
100
AcDbLine
 10
27.52821839578615
 20
164.855412241289
 30
0.0
 11
27.52821839578615
 21
162.4878677733202
 31
0.0
  0
LINE
  5
2DD9
330
1F
100
AcDbEntity
  8
端子
 62
     5
100
AcDbLine
 10
27.52821839578615
 20
152.255412241289
 30
0.0
 11
27.12821839578618
 21
152.255412241289
 31
0.0
  0
LINE
  5
2DDA
330
1F
100
AcDbEntity
  8
端子
 62
     5
100
AcDbLine
 10
27.52821839578615
 20
164.855412241289
 30
0.0
 11
27.12821839578618
 21
164.855412241289
 31
0.0
  0
LINE
  5
2DDB
330
1F
100
AcDbEntity
  8
端子
100
AcDbLine
 10
31.52821839578621
 20
147.855412241289
 30
0.0
 11
31.12821839578618
 21
147.855412241289
 31
0.0
  0
ARC
  5
2DDC
330
1F
100
AcDbEntity
  8
端子
100
AcDbCircle
 10
31.52821839578627
 20
166.155412241289
 30
0.0
 40
0.4
100
AcDbArc
 50
149.0362434679281
 51
179.9999999999967
1001
GENIUS_GENOBJ-N-FIL_13
1002
{
1000
OWNER
1000
GEN
1002
}
1001
GENIUS_GENODEF_13
1002
{
1000
HIER
1070
     0
1002
}
1002
{
1000
MANEDIT
1070
     0
1002
}
1002
{
1000
NOSEL
1070
     0
1002
}
1002
{
1000
BEHIND
1070
     0
1002
}
1002
{
1000
OTHER
1070
     0
1002
}
1002
{
1000
REACTOR
1002
}
  0
LINE
  5
2DDD
330
1F
100
AcDbEntity
  8
端子
100
AcDbLine
 10
31.52821839578616
 20
166.155412241289
 30
0.0
 11
31.52821839578616
 21
151.1554122412889
 31
0.0
  0
LINE
  5
2DDE
330
1F
100
AcDbEntity
  8
端子
100
AcDbLine
 10
31.52821839578616
 20
150.855412241289
 30
0.0
 11
31.52821839578616
 21
147.855412241289
 31
0.0
  0
LINE
  5
2DDF
330
1F
100
AcDbEntity
  8
端子
100
AcDbLine
 10
31.78522122550112
 20
167.36121054346
 30
0.0
 11
31.18522122550115
 21
166.3612105434601
 31
0.0
  0
LINE
  5
2DE0
330
1F
100
AcDbEntity
  8
端子
100
AcDbLine
 10
32.12821839578618
 20
167.155412241289
 30
0.0
 11
31.78522122550112
 21
167.36121054346
 31
0.0
  0
LINE
  5
2DE1
330
1F
100
AcDbEntity
  8
端子
100
AcDbLine
 10
32.12821839578618
 20
167.155412241289
 30
0.0
 11
31.52821839578616
 21
166.155412241289
 31
0.0
  0
LINE
  5
2DE2
330
1F
100
AcDbEntity
  8
端子
100
AcDbLine
 10
31.12821839578618
 20
166.1554122412891
 30
0.0
 11
31.12821839578618
 21
151.155412241289
 31
0.0
  0
LINE
  5
2DE3
330
1F
100
AcDbEntity
  8
端子
100
AcDbLine
 10
31.12821839578618
 20
150.855412241289
 30
0.0
 11
31.12821839578618
 21
147.855412241289
 31
0.0
  0
LINE
  5
2DE4
330
1F
100
AcDbEntity
  8
端子
100
AcDbLine
 10
31.12821839578618
 20
150.855412241289
 30
0.0
 11
31.12821839578618
 21
147.855412241289
 31
0.0
  0
LINE
  5
2DE5
330
1F
100
AcDbEntity
  8
端子
100
AcDbLine
 10
31.12821839578618
 20
147.855412241289
 30
0.0
 11
31.52821839578621
 21
147.855412241289
 31
0.0
  0
LINE
  5
2DE6
330
1F
100
AcDbEntity
  8
端子
100
AcDbLine
 10
31.52821839578621
 20
150.855412241289
 30
0.0
 11
31.52821839578621
 21
147.855412241289
 31
0.0
  0
LINE
  5
2DE7
330
1F
100
AcDbEntity
  8
ﾎﾞﾃﾞｨｰ
100
AcDbLine
 10
31.52821839578621
 20
165.355412241289
 30
0.0
 11
32.4782183957862
 21
165.355412241289
 31
0.0
  0
LINE
  5
2DE8
330
1F
100
AcDbEntity
  8
ﾎﾞﾃﾞｨｰ
100
AcDbLine
 10
26.17821839578619
 20
165.355412241289
 30
0.0
 11
27.12821839578618
 21
165.355412241289
 31
0.0
  0
LINE
  5
2DE9
330
1F
100
AcDbEntity
  8
ﾎﾞﾃﾞｨｰ
100
AcDbLine
 10
32.4782183957862
 20
150.855412241289
 30
0.0
 11
31.12821839578618
 21
150.855412241289
 31
0.0
  0
LINE
  5
2DEA
330
1F
100
AcDbEntity
  8
ﾎﾞﾃﾞｨｰ
100
AcDbLine
 10
31.12821839578618
 20
150.855412241289
 30
0.0
 11
27.52821839578615
 21
150.855412241289
 31
0.0
  0
LINE
  5
2DEB
330
1F
100
AcDbEntity
  8
ﾎﾞﾃﾞｨｰ
100
AcDbLine
 10
27.12821839578618
 20
150.855412241289
 30
0.0
 11
26.17821839578619
 21
150.855412241289
 31
0.0
  0
LINE
  5
2DEC
330
1F
100
AcDbEntity
  8
ﾎﾞﾃﾞｨｰ
100
AcDbLine
 10
26.17821839578619
 20
165.355412241289
 30
0.0
 11
26.17821839578619
 21
150.855412241289
 31
0.0
  0
LINE
  5
2DED
330
1F
100
AcDbEntity
  8
ﾎﾞﾃﾞｨｰ
100
AcDbLine
 10
26.57821839578617
 20
165.355412241289
 30
0.0
 11
26.57821839578622
 21
168.955412241289
 31
0.0
  0
LINE
  5
2DEE
330
1F
100
AcDbEntity
  8
ﾎﾞﾃﾞｨｰ
100
AcDbLine
 10
32.07821839578623
 20
165.355412241289
 30
0.0
 11
32.07821839578623
 21
168.955412241289
 31
0.0
  0
LINE
  5
2DEF
330
1F
100
AcDbEntity
  8
ﾎﾞﾃﾞｨｰ
100
AcDbLine
 10
32.4782183957862
 20
165.355412241289
 30
0.0
 11
32.4782183957862
 21
150.855412241289
 31
0.0
  0
LINE
  5
2DF0
330
1F
100
AcDbEntity
  8
ﾎﾞﾃﾞｨｰ
100
AcDbLine
 10
26.57821839578622
 20
168.955412241289
 30
0.0
 11
32.07821839578623
 21
168.955412241289
 31
0.0
  0
LINE
  5
2DF1
330
1F
100
AcDbEntity
  8
ﾎﾞﾃﾞｨｰ
100
AcDbLine
 10
28.4782183957862
 20
154.155412241289
 30
0.0
 11
30.91950624326404
 21
154.155412241289
 31
0.0
  0
LINE
  5
2DF2
330
1F
100
AcDbEntity
  8
ﾎﾞﾃﾞｨｰ
100
AcDbLine
 10
31.52821839578616
 20
154.155412241289
 30
0.0
 11
32.4782183957862
 21
154.155412241289
 31
0.0
  0
LINE
  5
2DF3
330
1F
100
AcDbEntity
  8
ﾎﾞﾃﾞｨｰ
100
AcDbLine
 10
28.4782183957862
 20
152.155412241289
 30
0.0
 11
28.4782183957862
 21
154.155412241289
 31
0.0
  0
LINE
  5
2DF4
330
1F
100
AcDbEntity
  8
ﾎﾞﾃﾞｨｰ
100
AcDbLine
 10
28.4782183957862
 20
152.155412241289
 30
0.0
 11
32.4782183957862
 21
152.155412241289
 31
0.0
  0
LINE
  5
2DF5
330
1F
100
AcDbEntity
  8
ﾎﾞﾃﾞｨｰ
100
AcDbLine
 10
26.17821839578619
 20
151.155412241289
 30
0.0
 11
27.12821839578618
 21
151.155412241289
 31
0.0
  0
LINE
  5
2DF6
330
1F
100
AcDbEntity
  8
ﾎﾞﾃﾞｨｰ
100
AcDbLine
 10
27.52821839578615
 20
151.155412241289
 30
0.0
 11
27.67821839578619
 21
151.155412241289
 31
0.0
  0
LINE
  5
2DF7
330
1F
100
AcDbEntity
  8
ﾎﾞﾃﾞｨｰ
100
AcDbLine
 10
31.12821839578618
 20
151.1554122412889
 30
0.0
 11
31.52821839578616
 21
151.1554122412889
 31
0.0
  0
ARC
  5
2DF8
330
1F
100
AcDbEntity
  8
ﾎﾞﾃﾞｨｰ
100
AcDbCircle
 10
72.1303081128741
 20
165.2207739534707
 30
0.0
 40
11.4
100
AcDbArc
 50
163.7250096453855
 51
235.237539473914
  0
ARC
  5
2DF9
330
1F
100
AcDbEntity
  8
ﾎﾞﾃﾞｨｰ
100
AcDbCircle
 10
61.90707798287661
 20
168.205412241289
 30
0.0
 40
0.75
100
AcDbArc
 50
297.0573066899401
 51
163.7250096453855
  0
ARC
  5
2DFA
330
1F
100
AcDbEntity
  8
ﾎﾞﾃﾞｨｰ
100
AcDbCircle
 10
82.35353824287164
 20
168.205412241289
 30
0.0
 40
0.75
100
AcDbArc
 50
16.27499035461443
 51
242.9426933100598
  0
ARC
  5
2DFB
330
1F
100
AcDbEntity
  8
ﾎﾞﾃﾞｨｰ
100
AcDbCircle
 10
72.1303081128741
 20
165.2207739534707
 30
0.0
 40
10.15
100
AcDbArc
 50
166.8060128131561
 51
195.2242275565557
  0
ARC
  5
2DFC
330
1F
100
AcDbEntity
  8
ﾎﾞﾃﾞｨｰ
100
AcDbCircle
 10
72.1303081128741
 20
165.2207739534707
 30
0.0
 40
10.15
100
AcDbArc
 50
344.7757724434443
 51
13.1939871868439
  0
ARC
  5
2DFD
330
1F
100
AcDbEntity
  8
ﾎﾞﾃﾞｨｰ
100
AcDbCircle
 10
72.1303081128741
 20
165.2207739534707
 30
0.0
 40
11.4
100
AcDbArc
 50
304.762460526086
 51
16.27499035461443
  0
ARC
  5
2DFE
330
1F
100
AcDbEntity
  8
ﾎﾞﾃﾞｨｰ
100
AcDbCircle
 10
157.73448754705
 20
165.2207739534707
 30
0.0
 40
11.4
100
AcDbArc
 50
163.7250096453855
 51
235.237539473914
  0
ARC
  5
2DFF
330
1F
100
AcDbEntity
  8
ﾎﾞﾃﾞｨｰ
100
AcDbCircle
 10
157.73448754705
 20
165.2207739534707
 30
0.0
 40
10.15
100
AcDbArc
 50
166.8060128131561
 51
195.2242275565557
  0
ARC
  5
2E00
330
1F
100
AcDbEntity
  8
ﾎﾞﾃﾞｨｰ
100
AcDbCircle
 10
147.5112574170525
 20
168.205412241289
 30
0.0
 40
0.75
100
AcDbArc
 50
297.0573066899401
 51
163.7250096453855
  0
ARC
  5
2E01
330
1F
100
AcDbEntity
  8
ﾎﾞﾃﾞｨｰ
100
AcDbCircle
 10
148.53448754705
 20
162.7554122412889
 30
0.0
 40
0.2
100
AcDbArc
 50
270.0
 51
0.0000000000081422
1001
GENIUS_GENOBJ-N-FIL_13
1002
{
1000
OWNER
1000
GEN
1002
}
1001
GENIUS_GENODEF_13
1002
{
1000
HIER
1070
     0
1002
}
1002
{
1000
MANEDIT
1070
     0
1002
}
1002
{
1000
NOSEL
1070
     0
1002
}
1002
{
1000
BEHIND
1070
     0
1002
}
1002
{
1000
OTHER
1070
     0
1002
}
1002
{
1000
REACTOR
1002
}
  0
LINE
  5
2E02
330
1F
100
AcDbEntity
  8
ﾎﾞﾃﾞｨｰ
100
AcDbLine
 10
146.6504518676038
 20
162.555412241289
 30
0.0
 11
148.53448754705
 21
162.555412241289
 31
0.0
  0
ARC
  5
2E03
330
1F
100
AcDbEntity
  8
ﾎﾞﾃﾞｨｰ
100
AcDbCircle
 10
157.73448754705
 20
165.2207739534707
 30
0.0
 40
10.15
100
AcDbArc
 50
344.7757724434443
 51
13.1939871868439
  0
ARC
  5
2E04
330
1F
100
AcDbEntity
  8
ﾎﾞﾃﾞｨｰ
100
AcDbCircle
 10
167.9577176770476
 20
168.205412241289
 30
0.0
 40
0.75
100
AcDbArc
 50
16.27499035461443
 51
242.9426933100598
  0
ARC
  5
2E05
330
1F
100
AcDbEntity
  8
ﾎﾞﾃﾞｨｰ
100
AcDbCircle
 10
157.73448754705
 20
165.2207739534707
 30
0.0
 40
11.4
100
AcDbArc
 50
304.762460526086
 51
16.27499035461443
  0
ARC
  5
2E06
330
1F
100
AcDbEntity
  8
ﾎﾞﾃﾞｨｰ
100
AcDbCircle
 10
166.93448754705
 20
162.7554122412889
 30
0.0
 40
0.2
100
AcDbArc
 50
179.9999999999918
 51
269.9999999999919
1001
GENIUS_GENODEF_13
1002
{
1000
HIER
1070
     0
1002
}
1002
{
1000
MANEDIT
1070
     0
1002
}
1002
{
1000
NOSEL
1070
     0
1002
}
1002
{
1000
BEHIND
1070
     0
1002
}
1002
{
1000
OTHER
1070
     0
1002
}
1002
{
1000
REACTOR
1002
}
1001
GENIUS_GENOBJ-N-FIL_13
1002
{
1000
OWNER
1000
GEN
1002
}
  0
LINE
  5
2E07
330
1F
100
AcDbEntity
  8
ﾎﾞﾃﾞｨｰ
100
AcDbLine
 10
166.93448754705
 20
162.555412241289
 30
0.0
 11
168.8185232264961
 21
162.555412241289
 31
0.0
  0
LINE
  5
2E08
330
1F
100
AcDbEntity
  8
ﾎﾞﾃﾞｨｰ
100
AcDbLine
 10
30.9782183957862
 20
155.655412241289
 30
0.0
 11
27.67821839578619
 21
155.655412241289
 31
0.0
  0
LINE
  5
2E09
330
1F
100
AcDbEntity
  8
ﾎﾞﾃﾞｨｰ
100
AcDbLine
 10
27.12821839578618
 20
165.355412241289
 30
0.0
 11
27.12821839578618
 21
151.155412241289
 31
0.0
  0
LINE
  5
2E0A
330
1F
100
AcDbEntity
  8
ﾎﾞﾃﾞｨｰ
100
AcDbLine
 10
27.67821839578619
 20
162.5554122412876
 30
0.0
 11
27.67821839578619
 21
162.1755684531605
 31
0.0
  0
LINE
  5
2E0B
330
1F
100
AcDbEntity
  8
ﾎﾞﾃﾞｨｰ
100
AcDbLine
 10
27.67821839578619
 20
161.5352560294174
 30
0.0
 11
27.67821839578619
 21
150.855412241289
 31
0.0
  0
LINE
  5
2E0C
330
1F
100
AcDbEntity
  8
ﾎﾞﾃﾞｨｰ
100
AcDbLine
 10
30.9782183957862
 20
162.5554122412874
 30
0.0
 11
30.9782183957862
 21
161.980412241289
 31
0.0
  0
LINE
  5
2E0D
330
1F
100
AcDbEntity
  8
ﾎﾞﾃﾞｨｰ
100
AcDbLine
 10
30.9782183957862
 20
160.1365033498302
 30
0.0
 11
30.9782183957862
 21
154.1810363253982
 31
0.0
  0
LINE
  5
2E0E
330
1F
100
AcDbEntity
  8
ﾎﾞﾃﾞｨｰ
100
AcDbLine
 10
27.67821839578625
 20
162.5554122412874
 30
0.0
 11
27.52821839578615
 21
163.3190486049246
 31
0.0
  0
LINE
  5
2E0F
330
1F
100
AcDbEntity
  8
ﾎﾞﾃﾞｨｰ
100
AcDbLine
 10
27.22643268150043
 20
164.855412241289
 30
0.0
 11
27.12821839578618
 21
165.355412241289
 31
0.0
  0
LINE
  5
2E10
330
1F
100
AcDbEntity
  8
ﾎﾞﾃﾞｨｰ
100
AcDbLine
 10
31.12821839578618
 20
163.319048604924
 30
0.0
 11
30.9782183957862
 21
162.5554122412874
 31
0.0
  0
LINE
  5
2E11
330
1F
100
AcDbEntity
  8
ﾎﾞﾃﾞｨｰ
100
AcDbLine
 10
31.52821839578621
 20
151.155412241289
 30
0.0
 11
31.52821839578621
 21
152.155412241289
 31
0.0
  0
LINE
  5
2E12
330
1F
100
AcDbEntity
  8
ﾎﾞﾃﾞｨｰ
100
AcDbLine
 10
31.52821839578621
 20
154.155412241289
 30
0.0
 11
31.52821839578621
 21
165.355412241289
 31
0.0
  0
LINE
  5
2E13
330
1F
100
AcDbEntity
  8
ﾎﾞﾃﾞｨｰ
100
AcDbLine
 10
27.12821839578618
 20
160.255412241289
 30
0.0
 11
27.024564897924
 21
160.255412241289
 31
0.0
  0
LINE
  5
2E14
330
1F
100
AcDbEntity
  8
ﾎﾞﾃﾞｨｰ
100
AcDbLine
 10
26.87373345211921
 20
160.255412241289
 30
0.0
 11
26.17821839578619
 21
160.255412241289
 31
0.0
  0
LINE
  5
2E15
330
1F
100
AcDbEntity
  8
ﾎﾞﾃﾞｨｰ
100
AcDbLine
 10
27.12821839578618
 20
158.055412241289
 30
0.0
 11
26.17821839578619
 21
158.055412241289
 31
0.0
  0
LINE
  5
2E16
330
1F
100
AcDbEntity
  8
ﾎﾞﾃﾞｨｰ
100
AcDbLine
 10
32.07821839578623
 20
167.5374982400581
 30
0.0
 11
26.57821839578622
 21
167.5374982400581
 31
0.0
  0
LINE
  5
2E17
330
1F
100
AcDbEntity
  8
ﾎﾞﾃﾞｨｰ
100
AcDbLine
 10
26.17821839578619
 20
163.005412241289
 30
0.0
 11
26.37821839578618
 21
163.005412241289
 31
0.0
  0
LINE
  5
2E18
330
1F
100
AcDbEntity
  8
ﾎﾞﾃﾞｨｰ
100
AcDbLine
 10
26.17821839578619
 20
162.005412241289
 30
0.0
 11
26.37821839578618
 21
162.005412241289
 31
0.0
  0
LINE
  5
2E19
330
1F
100
AcDbEntity
  8
ﾎﾞﾃﾞｨｰ
100
AcDbLine
 10
26.37821839578618
 20
163.005412241289
 30
0.0
 11
26.37821839578618
 21
162.005412241289
 31
0.0
  0
LINE
  5
2E1A
330
1F
100
AcDbEntity
  8
ﾎﾞﾃﾞｨｰ
100
AcDbLine
 10
32.27821839578621
 20
164.255412241289
 30
0.0
 11
32.27821839578621
 21
160.755412241289
 31
0.0
  0
LINE
  5
2E1B
330
1F
100
AcDbEntity
  8
ﾎﾞﾃﾞｨｰ
100
AcDbLine
 10
32.27821839578621
 20
164.255412241289
 30
0.0
 11
32.4782183957862
 21
164.255412241289
 31
0.0
  0
LINE
  5
2E1C
330
1F
100
AcDbEntity
  8
ﾎﾞﾃﾞｨｰ
100
AcDbLine
 10
32.27821839578621
 20
163.005412241289
 30
0.0
 11
32.4782183957862
 21
163.005412241289
 31
0.0
  0
LINE
  5
2E1D
330
1F
100
AcDbEntity
  8
ﾎﾞﾃﾞｨｰ
100
AcDbLine
 10
32.27821839578621
 20
162.005412241289
 30
0.0
 11
32.4782183957862
 21
162.005412241289
 31
0.0
  0
LINE
  5
2E1E
330
1F
100
AcDbEntity
  8
ﾎﾞﾃﾞｨｰ
100
AcDbLine
 10
32.27821839578621
 20
160.755412241289
 30
0.0
 11
32.4782183957862
 21
160.755412241289
 31
0.0
  0
LINE
  5
2E1F
330
1F
100
AcDbEntity
  8
端子
100
AcDbLine
 10
31.52821839578616
 20
152.155412241289
 30
0.0
 11
31.12821839578618
 21
152.155412241289
 31
0.0
  0
LINE
  5
2E20
330
1F
100
AcDbEntity
  8
端子
100
AcDbLine
 10
30.52821839578616
 20
157.455412241289
 30
0.0
 11
30.92821839578619
 21
157.455412241289
 31
0.0
  0
LINE
  5
2E21
330
1F
100
AcDbEntity
  8
端子
100
AcDbLine
 10
30.52821839578616
 20
159.8566172355071
 30
0.0
 11
30.52821839578616
 21
157.455412241289
 31
0.0
  0
LINE
  5
2E22
330
1F
100
AcDbEntity
  8
端子
100
AcDbLine
 10
30.92821839578619
 20
159.8566172355069
 30
0.0
 11
30.92821839578619
 21
157.455412241289
 31
0.0
  0
LINE
  5
2E23
330
1F
100
AcDbEntity
  8
端子
100
AcDbLine
 10
30.54965004162062
 20
160.0518546475439
 30
0.0
 11
31.12821839578618
 21
162.655412241289
 31
0.0
  0
LINE
  5
2E24
330
1F
100
AcDbEntity
  8
端子
100
AcDbLine
 10
30.9401248656942
 20
159.9650824644163
 30
0.0
 11
31.12821839578618
 21
160.8115033498302
 31
0.0
  0
ARC
  5
2E25
330
1F
100
AcDbEntity
  8
端子
100
AcDbCircle
 10
31.42821839578807
 20
159.8566172355068
 30
0.0
 40
0.5
100
AcDbArc
 50
167.4711922908788
 51
179.9999999999821
1001
GENIUS_GENOBJ-N-FIL_13
1002
{
1000
OWNER
1000
GEN
1002
}
1001
GENIUS_GENODEF_13
1002
{
1000
HIER
1070
     0
1002
}
1002
{
1000
MANEDIT
1070
     0
1002
}
1002
{
1000
NOSEL
1070
     0
1002
}
1002
{
1000
BEHIND
1070
     0
1002
}
1002
{
1000
OTHER
1070
     0
1002
}
1002
{
1000
REACTOR
1002
}
  0
ARC
  5
2E26
330
1F
100
AcDbEntity
  8
端子
100
AcDbCircle
 10
31.42821839578755
 20
159.8566172355069
 30
0.0
 40
0.9
100
AcDbArc
 50
167.4711922908571
 51
179.9999999999902
1001
GENIUS_GENOBJ-N-FIL_13
1002
{
1000
OWNER
1000
GEN
1002
}
1001
GENIUS_GENODEF_13
1002
{
1000
HIER
1070
     0
1002
}
1002
{
1000
MANEDIT
1070
     0
1002
}
1002
{
1000
NOSEL
1070
     0
1002
}
1002
{
1000
BEHIND
1070
     0
1002
}
1002
{
1000
OTHER
1070
     0
1002
}
1002
{
1000
REACTOR
1002
}
  0
LINE
  5
2E27
330
1F
100
AcDbEntity
  8
端子
100
AcDbLine
 10
70.33030811287415
 20
203.442957904776
 30
0.0
 11
70.33030811287415
 21
204.042957904776
 31
0.0
  0
LINE
  5
2E28
330
1F
100
AcDbEntity
  8
端子
100
AcDbLine
 10
73.93030811287417
 20
203.442957904776
 30
0.0
 11
73.93030811287417
 21
204.042957904776
 31
0.0
  0
LINE
  5
2E29
330
1F
100
AcDbEntity
  8
端子
100
AcDbLine
 10
73.93030811287417
 20
204.042957904776
 30
0.0
 11
70.33030811287415
 21
204.042957904776
 31
0.0
  0
LINE
  5
2E2A
330
1F
100
AcDbEntity
  8
ﾎﾞﾃﾞｨｰ
100
AcDbLine
 10
76.73030811287413
 20
112.717866577802
 30
0.0
 11
76.73030811287413
 21
113.167866577802
 31
0.0
  0
LINE
  5
2E2B
330
1F
100
AcDbEntity
  8
ﾎﾞﾃﾞｨｰ
100
AcDbLine
 10
67.53030811287414
 20
113.167866577802
 30
0.0
 11
67.53030811287414
 21
112.717866577802
 31
0.0
  0
LINE
  5
2E2C
330
1F
100
AcDbEntity
  8
ﾎﾞﾃﾞｨｰ
100
AcDbLine
 10
71.73030811287413
 20
108.7678665778019
 30
0.0
 11
71.73030811287413
 21
109.217866577802
 31
0.0
  0
LINE
  5
2E2D
330
1F
100
AcDbEntity
  8
ﾎﾞﾃﾞｨｰ
100
AcDbLine
 10
72.53030811287408
 20
109.217866577802
 30
0.0
 11
72.53030811287408
 21
108.7678665778019
 31
0.0
  0
LINE
  5
2E2E
330
1F
100
AcDbEntity
  8
ﾎﾞﾃﾞｨｰ
100
AcDbLine
 10
72.53030811287414
 20
108.7678665778019
 30
0.0
 11
71.73030811287407
 21
108.7678665778019
 31
0.0
  0
LINE
  5
2E2F
330
1F
100
AcDbEntity
  8
ﾎﾞﾃﾞｨｰ
100
AcDbLine
 10
77.53030811287414
 20
113.1678665778021
 30
0.0
 11
76.73030811287413
 21
113.1678665778021
 31
0.0
  0
LINE
  5
2E30
330
1F
100
AcDbEntity
  8
端子
 62
     5
100
AcDbLine
 10
72.53030811287408
 20
109.167866577802
 30
0.0
 11
71.73030811287413
 21
109.167866577802
 31
0.0
  0
LINE
  5
2E31
330
1F
100
AcDbEntity
  8
端子
 62
     5
100
AcDbLine
 10
72.53030811287408
 20
108.767866577802
 30
0.0
 11
71.73030811287413
 21
108.767866577802
 31
0.0
  0
LINE
  5
2E32
330
1F
100
AcDbEntity
  8
端子
100
AcDbLine
 10
77.5053081128741
 20
113.167866577802
 30
0.0
 11
76.73030811287413
 21
113.167866577802
 31
0.0
  0
LINE
  5
2E33
330
1F
100
AcDbEntity
  8
端子
100
AcDbLine
 10
67.53030811287414
 20
113.167866577802
 30
0.0
 11
66.7553081128741
 21
113.167866577802
 31
0.0
  0
LINE
  5
2E34
330
1F
100
AcDbEntity
  8
端子
100
AcDbLine
 10
77.5053081128741
 20
112.767866577802
 30
0.0
 11
76.73030811287413
 21
112.767866577802
 31
0.0
  0
LINE
  5
2E35
330
1F
100
AcDbEntity
  8
端子
100
AcDbLine
 10
77.5053081128741
 20
112.767866577802
 30
0.0
 11
77.5053081128741
 21
113.167866577802
 31
0.0
  0
LINE
  5
2E36
330
1F
100
AcDbEntity
  8
端子
100
AcDbLine
 10
66.7553081128741
 20
112.767866577802
 30
0.0
 11
66.7553081128741
 21
113.167866577802
 31
0.0
  0
LINE
  5
2E37
330
1F
100
AcDbEntity
  8
ﾎﾞﾃﾞｨｰ
100
AcDbLine
 10
77.53030811287408
 20
112.717866577802
 30
0.0
 11
76.73030811287413
 21
112.717866577802
 31
0.0
  0
LINE
  5
2E38
330
1F
100
AcDbEntity
  8
ﾎﾞﾃﾞｨｰ
100
AcDbLine
 10
72.53030811287414
 20
109.217866577802
 30
0.0
 11
71.73030811287413
 21
109.217866577802
 31
0.0
  0
LINE
  5
2E39
330
1F
100
AcDbEntity
  8
ﾎﾞﾃﾞｨｰ
100
AcDbLine
 10
83.21434379232028
 20
114.117866577802
 30
0.0
 11
61.04627243342799
 21
114.117866577802
 31
0.0
  0
LINE
  5
2E3A
330
1F
100
AcDbEntity
  8
ﾎﾞﾃﾞｨｰ
100
AcDbLine
 10
83.21434379232028
 20
107.817866577802
 30
0.0
 11
61.04627243342799
 21
107.817866577802
 31
0.0
  0
LINE
  5
2E3B
330
1F
100
AcDbEntity
  8
ﾎﾞﾃﾞｨｰ
100
AcDbLine
 10
61.04627243342799
 20
107.817866577802
 30
0.0
 11
61.04627243342799
 21
108.2178665778021
 31
0.0
  0
LINE
  5
2E3C
330
1F
100
AcDbEntity
  8
ﾎﾞﾃﾞｨｰ
100
AcDbLine
 10
83.21434379232028
 20
107.817866577802
 30
0.0
 11
83.21434379232028
 21
108.2178665778021
 31
0.0
  0
LINE
  5
2E3D
330
1F
100
AcDbEntity
  8
ﾎﾞﾃﾞｨｰ
100
AcDbLine
 10
83.53030811287414
 20
113.717866577802
 30
0.0
 11
83.21434379232028
 21
113.717866577802
 31
0.0
  0
LINE
  5
2E3E
330
1F
100
AcDbEntity
  8
ﾎﾞﾃﾞｨｰ
100
AcDbLine
 10
83.53030811287414
 20
108.217866577802
 30
0.0
 11
83.21434379232028
 21
108.217866577802
 31
0.0
  0
LINE
  5
2E3F
330
1F
100
AcDbEntity
  8
ﾎﾞﾃﾞｨｰ
100
AcDbLine
 10
61.04627243342799
 20
108.217866577802
 30
0.0
 11
60.73030811287407
 21
108.217866577802
 31
0.0
  0
LINE
  5
2E40
330
1F
100
AcDbEntity
  8
ﾎﾞﾃﾞｨｰ
100
AcDbLine
 10
61.04627243342799
 20
113.717866577802
 30
0.0
 11
60.73030811287413
 21
113.717866577802
 31
0.0
  0
LINE
  5
2E41
330
1F
100
AcDbEntity
  8
ﾎﾞﾃﾞｨｰ
100
AcDbLine
 10
60.73030811287413
 20
108.217866577802
 30
0.0
 11
60.73030811287413
 21
113.717866577802
 31
0.0
  0
LINE
  5
2E42
330
1F
100
AcDbEntity
  8
ﾎﾞﾃﾞｨｰ
100
AcDbLine
 10
83.53030811287414
 20
108.217866577802
 30
0.0
 11
83.53030811287414
 21
113.717866577802
 31
0.0
  0
LINE
  5
2E43
330
1F
100
AcDbEntity
  8
ﾎﾞﾃﾞｨｰ
100
AcDbLine
 10
67.53030811287414
 20
113.1678665778021
 30
0.0
 11
66.73030811287413
 21
113.1678665778021
 31
0.0
  0
LINE
  5
2E44
330
1F
100
AcDbEntity
  8
ﾎﾞﾃﾞｨｰ
100
AcDbLine
 10
67.5303081128742
 20
112.717866577802
 30
0.0
 11
66.73030811287413
 21
112.717866577802
 31
0.0
  0
LINE
  5
2E45
330
1F
100
AcDbEntity
  8
ﾎﾞﾃﾞｨｰ
100
AcDbLine
 10
65.63030811287413
 20
114.117866577802
 30
0.0
 11
65.63030811287413
 21
107.817866577802
 31
0.0
  0
LINE
  5
2E46
330
1F
100
AcDbEntity
  8
ﾎﾞﾃﾞｨｰ
100
AcDbLine
 10
66.73030811287413
 20
114.117866577802
 30
0.0
 11
66.73030811287413
 21
107.817866577802
 31
0.0
  0
LINE
  5
2E47
330
1F
100
AcDbEntity
  8
ﾎﾞﾃﾞｨｰ
100
AcDbLine
 10
77.53030811287414
 20
114.117866577802
 30
0.0
 11
77.53030811287414
 21
107.817866577802
 31
0.0
  0
LINE
  5
2E48
330
1F
100
AcDbEntity
  8
ﾎﾞﾃﾞｨｰ
100
AcDbLine
 10
78.6303081128741
 20
114.117866577802
 30
0.0
 11
78.6303081128741
 21
107.817866577802
 31
0.0
  0
LINE
  5
2E49
330
1F
100
AcDbEntity
  8
ﾎﾞﾃﾞｨｰ
100
AcDbLine
 10
83.21434379232028
 20
113.7178665778021
 30
0.0
 11
83.21434379232028
 21
114.117866577802
 31
0.0
  0
LINE
  5
2E4A
330
1F
100
AcDbEntity
  8
ﾎﾞﾃﾞｨｰ
100
AcDbLine
 10
61.04627243342799
 20
113.7178665778021
 30
0.0
 11
61.04627243342799
 21
114.117866577802
 31
0.0
  0
LINE
  5
2E4B
330
1F
100
AcDbEntity
  8
端子
100
AcDbLine
 10
67.5053081128741
 20
113.167866577802
 30
0.0
 11
67.5053081128741
 21
112.767866577802
 31
0.0
  0
LINE
  5
2E4C
330
1F
100
AcDbEntity
  8
端子
100
AcDbLine
 10
76.7553081128741
 20
113.167866577802
 30
0.0
 11
76.7553081128741
 21
112.767866577802
 31
0.0
  0
LINE
  5
2E4D
330
1F
100
AcDbEntity
  8
端子
 62
     5
100
AcDbLine
 10
71.75530811287416
 20
109.167866577802
 30
0.0
 11
71.75530811287416
 21
108.767866577802
 31
0.0
  0
LINE
  5
2E4E
330
1F
100
AcDbEntity
  8
端子
 62
     5
100
AcDbLine
 10
72.50530811287416
 20
108.767866577802
 30
0.0
 11
72.50530811287416
 21
109.167866577802
 31
0.0
  0
LINE
  5
2E4F
330
1F
100
AcDbEntity
  8
ﾎﾞﾃﾞｨｰ
100
AcDbLine
 10
73.93030811287417
 20
203.492957904776
 30
0.0
 11
81.60353824287165
 21
203.492957904776
 31
0.0
  0
LINE
  5
2E50
330
1F
100
AcDbEntity
  8
端子
100
AcDbLine
 10
67.53030811287414
 20
112.767866577802
 30
0.0
 11
66.7553081128741
 21
112.767866577802
 31
0.0
  0
LINE
  5
2E51
330
1F
100
AcDbEntity
  8
AM_8
100
AcDbLine
 10
26.17821839578619
 20
164.1191166434147
 30
0.0
 11
27.12821839578618
 21
165.0691166434147
 31
0.0
1001
GENIUS_GENODEF_13
1002
{
1000
HIER
1070
     0
1002
}
1002
{
1000
MANEDIT
1070
     0
1002
}
1002
{
1000
NOSEL
1070
     0
1002
}
1002
{
1000
BEHIND
1070
     0
1002
}
1002
{
1000
OTHER
1070
     0
1002
}
1002
{
1000
REACTOR
1002
}
1001
GENIUS_GENOBJ-N-HTC_13
1002
{
1000
OWNER
1000
GEN
1002
}
1001
GENIUS_GENHATCH_13
1002
{
1000
DATA
1040
45.0
1042
2.5
1000
_U
1070
     0
1011
26.49067685704364
1021
160.5169570395835
1031
0.0
1002
}
1002
{
1000
UCS
1010
0.0
1020
0.0
1030
0.0
1010
1.0
1020
0.0
1030
0.0
1010
0.0
1020
1.0
1030
0.0
1002
}
  0
LINE
  5
2E52
330
1F
100
AcDbEntity
  8
AM_8
100
AcDbLine
 10
26.37821839578618
 20
162.5513496904483
 30
0.0
 11
27.12821839578618
 21
163.3013496904483
 31
0.0
1001
GENIUS_GENODEF_13
1002
{
1000
HIER
1070
     0
1002
}
1002
{
1000
MANEDIT
1070
     0
1002
}
1002
{
1000
NOSEL
1070
     0
1002
}
1002
{
1000
BEHIND
1070
     0
1002
}
1002
{
1000
OTHER
1070
     0
1002
}
1002
{
1000
REACTOR
1002
}
1001
GENIUS_GENOBJ-N-HTC_13
1002
{
1000
OWNER
1000
GEN
1002
}
1001
GENIUS_GENHATCH_13
1002
{
1000
DATA
1040
45.0
1042
2.5
1000
_U
1070
     0
1011
26.49067685704364
1021
160.5169570395835
1031
0.0
1002
}
1002
{
1000
UCS
1010
0.0
1020
0.0
1030
0.0
1010
1.0
1020
0.0
1030
0.0
1010
0.0
1020
1.0
1030
0.0
1002
}
  0
LINE
  5
2E53
330
1F
100
AcDbEntity
  8
AM_8
100
AcDbLine
 10
26.17821839578619
 20
160.583582737482
 30
0.0
 11
27.12821839578618
 21
161.5335827374819
 31
0.0
1001
GENIUS_GENODEF_13
1002
{
1000
HIER
1070
     0
1002
}
1002
{
1000
MANEDIT
1070
     0
1002
}
1002
{
1000
NOSEL
1070
     0
1002
}
1002
{
1000
BEHIND
1070
     0
1002
}
1002
{
1000
OTHER
1070
     0
1002
}
1002
{
1000
REACTOR
1002
}
1001
GENIUS_GENOBJ-N-HTC_13
1002
{
1000
OWNER
1000
GEN
1002
}
1001
GENIUS_GENHATCH_13
1002
{
1000
DATA
1040
45.0
1042
2.5
1000
_U
1070
     0
1011
26.49067685704364
1021
160.5169570395835
1031
0.0
1002
}
1002
{
1000
UCS
1010
0.0
1020
0.0
1030
0.0
1010
1.0
1020
0.0
1030
0.0
1010
0.0
1020
1.0
1030
0.0
1002
}
  0
LINE
  5
2E54
330
1F
100
AcDbEntity
  8
AM_8
100
AcDbLine
 10
26.17821839578619
 20
157.0480488315492
 30
0.0
 11
27.12821839578618
 21
157.9980488315492
 31
0.0
1001
GENIUS_GENODEF_13
1002
{
1000
HIER
1070
     0
1002
}
1002
{
1000
MANEDIT
1070
     0
1002
}
1002
{
1000
NOSEL
1070
     0
1002
}
1002
{
1000
BEHIND
1070
     0
1002
}
1002
{
1000
OTHER
1070
     0
1002
}
1002
{
1000
REACTOR
1002
}
1001
GENIUS_GENOBJ-N-HTC_13
1002
{
1000
OWNER
1000
GEN
1002
}
1001
GENIUS_GENHATCH_13
1002
{
1000
DATA
1040
45.0
1042
2.5
1000
_U
1070
     0
1011
26.49067685704364
1021
160.5169570395835
1031
0.0
1002
}
1002
{
1000
UCS
1010
0.0
1020
0.0
1030
0.0
1010
1.0
1020
0.0
1030
0.0
1010
0.0
1020
1.0
1030
0.0
1002
}
  0
LINE
  5
2E55
330
1F
100
AcDbEntity
  8
AM_8
100
AcDbLine
 10
26.17821839578619
 20
155.2802818785829
 30
0.0
 11
27.12821839578618
 21
156.2302818785829
 31
0.0
1001
GENIUS_GENODEF_13
1002
{
1000
HIER
1070
     0
1002
}
1002
{
1000
MANEDIT
1070
     0
1002
}
1002
{
1000
NOSEL
1070
     0
1002
}
1002
{
1000
BEHIND
1070
     0
1002
}
1002
{
1000
OTHER
1070
     0
1002
}
1002
{
1000
REACTOR
1002
}
1001
GENIUS_GENOBJ-N-HTC_13
1002
{
1000
OWNER
1000
GEN
1002
}
1001
GENIUS_GENHATCH_13
1002
{
1000
DATA
1040
45.0
1042
2.5
1000
_U
1070
     0
1011
26.49067685704364
1021
160.5169570395835
1031
0.0
1002
}
1002
{
1000
UCS
1010
0.0
1020
0.0
1030
0.0
1010
1.0
1020
0.0
1030
0.0
1010
0.0
1020
1.0
1030
0.0
1002
}
  0
LINE
  5
2E56
330
1F
100
AcDbEntity
  8
AM_8
100
AcDbLine
 10
26.17821839578619
 20
153.5125149256165
 30
0.0
 11
27.12821839578618
 21
154.4625149256165
 31
0.0
1001
GENIUS_GENODEF_13
1002
{
1000
HIER
1070
     0
1002
}
1002
{
1000
MANEDIT
1070
     0
1002
}
1002
{
1000
NOSEL
1070
     0
1002
}
1002
{
1000
BEHIND
1070
     0
1002
}
1002
{
1000
OTHER
1070
     0
1002
}
1002
{
1000
REACTOR
1002
}
1001
GENIUS_GENOBJ-N-HTC_13
1002
{
1000
OWNER
1000
GEN
1002
}
1001
GENIUS_GENHATCH_13
1002
{
1000
DATA
1040
45.0
1042
2.5
1000
_U
1070
     0
1011
26.49067685704364
1021
160.5169570395835
1031
0.0
1002
}
1002
{
1000
UCS
1010
0.0
1020
0.0
1030
0.0
1010
1.0
1020
0.0
1030
0.0
1010
0.0
1020
1.0
1030
0.0
1002
}
  0
LINE
  5
2E57
330
1F
100
AcDbEntity
  8
AM_8
100
AcDbLine
 10
26.17821839578619
 20
151.7447479726501
 30
0.0
 11
27.12821839578618
 21
152.6947479726501
 31
0.0
1001
GENIUS_GENODEF_13
1002
{
1000
HIER
1070
     0
1002
}
1002
{
1000
MANEDIT
1070
     0
1002
}
1002
{
1000
NOSEL
1070
     0
1002
}
1002
{
1000
BEHIND
1070
     0
1002
}
1002
{
1000
OTHER
1070
     0
1002
}
1002
{
1000
REACTOR
1002
}
1001
GENIUS_GENOBJ-N-HTC_13
1002
{
1000
OWNER
1000
GEN
1002
}
1001
GENIUS_GENHATCH_13
1002
{
1000
DATA
1040
45.0
1042
2.5
1000
_U
1070
     0
1011
26.49067685704364
1021
160.5169570395835
1031
0.0
1002
}
1002
{
1000
UCS
1010
0.0
1020
0.0
1030
0.0
1010
1.0
1020
0.0
1030
0.0
1010
0.0
1020
1.0
1030
0.0
1002
}
  0
HATCH
  5
2E58
330
1F
100
AcDbEntity
  8
AM_8
100
AcDbHatch
 10
0.0
 20
0.0
 30
0.0
210
0.0
220
0.0
230
1.0
  2
_U
 70
     0
 71
     0
 91
        1
 92
        1
 93
        8
 72
     1
 10
32.4782183957862
 20
164.255412241289
 11
32.4782183957862
 21
165.355412241289
 72
     1
 10
32.4782183957862
 20
165.355412241289
 11
31.52821839578621
 21
165.355412241289
 72
     1
 10
31.52821839578621
 20
165.355412241289
 11
31.52821839578621
 21
154.155412241289
 72
     1
 10
31.52821839578621
 20
154.155412241289
 11
32.4782183957862
 21
154.155412241289
 72
     1
 10
32.4782183957862
 20
154.155412241289
 11
32.4782183957862
 21
160.755412241289
 72
     1
 10
32.4782183957862
 20
160.755412241289
 11
32.27821839578621
 21
160.755412241289
 72
     1
 10
32.27821839578621
 20
160.755412241289
 11
32.27821839578621
 21
164.255412241289
 72
     1
 10
32.27821839578621
 20
164.255412241289
 11
32.4782183957862
 21
164.255412241289
 97
        0
 75
     0
 76
     0
 52
45.0
 41
1.25
 77
     0
 78
     1
 53
45.0
 43
-4.971218542330859
 44
64.02676853960932
 45
-0.8838834764831842
 46
0.8838834764831844
 79
     0
 98
        1
 10
-4.971218542330859
 20
64.02676853960932
1001
GENIUS_GENOBJ-N-HTC_13
1002
{
1000
OWNER
1000
GEN
1002
}
1001
GENIUS_GENODEF_13
1002
{
1000
HIER
1070
     0
1002
}
1002
{
1000
MANEDIT
1070
     0
1002
}
1002
{
1000
NOSEL
1070
     0
1002
}
1002
{
1000
BEHIND
1070
     0
1002
}
1002
{
1000
OTHER
1070
     0
1002
}
1002
{
1000
REACTOR
1002
}
1001
GENIUS_GENHATCH_13
1002
{
1000
DATA
1040
45.0
1042
2.5
1000
_U
1070
     0
1011
31.93404262325163
1021
164.1830682380041
1031
0.0
1002
}
1002
{
1000
UCS
1010
0.0
1020
0.0
1030
0.0
1010
1.0
1020
0.0
1030
0.0
1010
0.0
1020
1.0
1030
0.0
1002
}
  0
HATCH
  5
2E59
330
1F
100
AcDbEntity
  8
AM_8
100
AcDbHatch
 10
0.0
 20
0.0
 30
0.0
210
0.0
220
0.0
230
1.0
  2
_U
 70
     0
 71
     0
 91
        1
 92
        1
 93
       15
 72
     1
 10
30.9782183957862
 20
154.1810363253982
 11
30.9782183957862
 21
155.655412241289
 72
     1
 10
30.9782183957862
 20
155.655412241289
 11
27.67821839578619
 21
155.655412241289
 72
     1
 10
27.67821839578619
 20
155.655412241289
 11
27.67821839578618
 21
150.855412241289
 72
     1
 10
27.67821839578619
 20
150.855412241289
 11
31.12821839578618
 21
150.855412241289
 72
     1
 10
31.12821839578618
 20
150.855412241289
 11
31.52821839578616
 21
150.855412241289
 72
     1
 10
31.52821839578616
 20
150.855412241289
 11
32.4782183957862
 21
150.855412241289
 72
     1
 10
32.4782183957862
 20
150.855412241289
 11
32.4782183957862
 21
152.155412241289
 72
     1
 10
32.4782183957862
 20
152.155412241289
 11
31.52821839578616
 21
152.155412241289
 72
     1
 10
31.52821839578616
 20
152.155412241289
 11
31.52821839578616
 21
151.155412241289
 72
     1
 10
31.52821839578616
 20
151.1554122412889
 11
31.12821839578617
 21
151.1554122412889
 72
     1
 10
31.12821839578618
 20
151.1554122412889
 11
31.12821839578618
 21
152.155412241289
 72
     1
 10
31.12821839578618
 20
152.155412241289
 11
28.4782183957862
 21
152.155412241289
 72
     1
 10
28.4782183957862
 20
152.155412241289
 11
28.4782183957862
 21
154.155412241289
 72
     1
 10
28.4782183957862
 20
154.155412241289
 11
30.91950624326404
 21
154.155412241289
 72
     1
 10
30.91950624326404
 20
154.155412241289
 11
30.9782183957862
 21
154.1810363253982
 97
        0
 75
     0
 76
     0
 52
45.0
 41
1.25
 77
     0
 78
     1
 53
45.0
 43
-4.971218542330859
 44
64.02676853960932
 45
-0.8838834764831842
 46
0.8838834764831844
 79
     0
 98
        1
 10
-4.971218542330859
 20
64.02676853960932
1001
GENIUS_GENODEF_13
1002
{
1000
HIER
1070
     0
1002
}
1002
{
1000
MANEDIT
1070
     0
1002
}
1002
{
1000
NOSEL
1070
     0
1002
}
1002
{
1000
BEHIND
1070
     0
1002
}
1002
{
1000
OTHER
1070
     0
1002
}
1002
{
1000
REACTOR
1002
}
1001
GENIUS_GENOBJ-N-HTC_13
1002
{
1000
OWNER
1000
GEN
1002
}
1001
GENIUS_GENHATCH_13
1002
{
1000
DATA
1040
45.0
1042
2.5
1000
_U
1070
     0
1011
29.54456673441342
1021
154.7908450878895
1031
0.0
1002
}
1002
{
1000
UCS
1010
0.0
1020
0.0
1030
0.0
1010
1.0
1020
0.0
1030
0.0
1010
0.0
1020
1.0
1030
0.0
1002
}
  0
LINE
  5
2E5B
330
1F
100
AcDbEntity
  8
ﾎﾞﾃﾞｨｰ
 62
     8
100
AcDbLine
 10
151.7995773112613
 20
88.59765146080276
 30
0.0
 11
151.7995773112613
 21
89.04765146080279
 31
0.0
  0
LINE
  5
2E5C
330
1F
100
AcDbEntity
  8
ﾎﾞﾃﾞｨｰ
 62
     8
100
AcDbLine
 10
142.5995773112614
 20
89.04765146080279
 30
0.0
 11
142.5995773112614
 21
88.59765146080276
 31
0.0
  0
LINE
  5
2E5D
330
1F
100
AcDbEntity
  8
ﾎﾞﾃﾞｨｰ
 62
     8
100
AcDbLine
 10
146.7995773112614
 20
84.64765146080271
 30
0.0
 11
146.7995773112614
 21
85.09765146080274
 31
0.0
  0
LINE
  5
2E5E
330
1F
100
AcDbEntity
  8
ﾎﾞﾃﾞｨｰ
 62
     8
100
AcDbLine
 10
147.5995773112613
 20
85.09765146080274
 30
0.0
 11
147.5995773112613
 21
84.64765146080271
 31
0.0
  0
LINE
  5
2E5F
330
1F
100
AcDbEntity
  8
ﾎﾞﾃﾞｨｰ
 62
     8
100
AcDbLine
 10
147.5995773112614
 20
84.64765146080271
 30
0.0
 11
146.7995773112613
 21
84.64765146080271
 31
0.0
  0
LINE
  5
2E60
330
1F
100
AcDbEntity
  8
ﾎﾞﾃﾞｨｰ
 62
     8
100
AcDbLine
 10
152.5995773112614
 20
89.04765146080285
 30
0.0
 11
151.7995773112613
 21
89.04765146080285
 31
0.0
  0
LINE
  5
2E61
330
1F
100
AcDbEntity
  8
端子
 62
     8
100
AcDbLine
 10
147.5995773112613
 20
85.04765146080279
 30
0.0
 11
146.7995773112614
 21
85.04765146080279
 31
0.0
  0
LINE
  5
2E62
330
1F
100
AcDbEntity
  8
端子
 62
     8
100
AcDbLine
 10
147.5995773112613
 20
84.64765146080276
 30
0.0
 11
146.7995773112614
 21
84.64765146080276
 31
0.0
  0
LINE
  5
2E63
330
1F
100
AcDbEntity
  8
端子
 62
     8
100
AcDbLine
 10
152.5745773112613
 20
89.04765146080279
 30
0.0
 11
151.7995773112613
 21
89.04765146080279
 31
0.0
  0
LINE
  5
2E64
330
1F
100
AcDbEntity
  8
端子
 62
     8
100
AcDbLine
 10
142.5995773112614
 20
89.04765146080277
 30
0.0
 11
141.8245773112613
 21
89.04765146080279
 31
0.0
  0
LINE
  5
2E65
330
1F
100
AcDbEntity
  8
端子
 62
     8
100
AcDbLine
 10
152.5745773112613
 20
88.64765146080282
 30
0.0
 11
151.7995773112613
 21
88.64765146080282
 31
0.0
  0
LINE
  5
2E66
330
1F
100
AcDbEntity
  8
端子
 62
     8
100
AcDbLine
 10
152.5745773112613
 20
88.64765146080282
 30
0.0
 11
152.5745773112613
 21
89.04765146080279
 31
0.0
  0
LINE
  5
2E67
330
1F
100
AcDbEntity
  8
端子
 62
     8
100
AcDbLine
 10
141.8245773112613
 20
88.64765146080282
 30
0.0
 11
141.8245773112613
 21
89.04765146080279
 31
0.0
  0
LINE
  5
2E68
330
1F
100
AcDbEntity
  8
ﾎﾞﾃﾞｨｰ
 62
     8
100
AcDbLine
 10
152.5995773112613
 20
88.59765146080276
 30
0.0
 11
151.7995773112613
 21
88.59765146080276
 31
0.0
  0
LINE
  5
2E69
330
1F
100
AcDbEntity
  8
ﾎﾞﾃﾞｨｰ
 62
     8
100
AcDbLine
 10
147.5995773112614
 20
85.09765146080281
 30
0.0
 11
146.7995773112614
 21
85.09765146080274
 31
0.0
  0
LINE
  5
2E6A
330
1F
100
AcDbEntity
  8
ﾎﾞﾃﾞｨｰ
 62
     8
100
AcDbLine
 10
158.2836129907075
 20
89.99765146080278
 30
0.0
 11
136.1155416318152
 21
89.99765146080278
 31
0.0
  0
LINE
  5
2E6B
330
1F
100
AcDbEntity
  8
ﾎﾞﾃﾞｨｰ
 62
     8
100
AcDbLine
 10
158.2836129907075
 20
83.69765146080277
 30
0.0
 11
136.1155416318152
 21
83.69765146080277
 31
0.0
  0
LINE
  5
2E6C
330
1F
100
AcDbEntity
  8
ﾎﾞﾃﾞｨｰ
 62
     8
100
AcDbLine
 10
136.1155416318152
 20
83.69765146080277
 30
0.0
 11
136.1155416318152
 21
84.09765146080287
 31
0.0
  0
LINE
  5
2E6D
330
1F
100
AcDbEntity
  8
ﾎﾞﾃﾞｨｰ
 62
     8
100
AcDbLine
 10
158.2836129907075
 20
83.69765146080277
 30
0.0
 11
158.2836129907075
 21
84.09765146080287
 31
0.0
  0
LINE
  5
2E6E
330
1F
100
AcDbEntity
  8
ﾎﾞﾃﾞｨｰ
 62
     8
100
AcDbLine
 10
158.5995773112614
 20
89.59765146080281
 30
0.0
 11
158.2836129907075
 21
89.59765146080281
 31
0.0
  0
LINE
  5
2E6F
330
1F
100
AcDbEntity
  8
ﾎﾞﾃﾞｨｰ
 62
     8
100
AcDbLine
 10
158.5995773112614
 20
84.0976514608028
 30
0.0
 11
158.2836129907075
 21
84.0976514608028
 31
0.0
  0
LINE
  5
2E70
330
1F
100
AcDbEntity
  8
ﾎﾞﾃﾞｨｰ
 62
     8
100
AcDbLine
 10
136.1155416318152
 20
84.0976514608028
 30
0.0
 11
135.7995773112613
 21
84.0976514608028
 31
0.0
  0
LINE
  5
2E71
330
1F
100
AcDbEntity
  8
ﾎﾞﾃﾞｨｰ
 62
     8
100
AcDbLine
 10
136.1155416318152
 20
89.59765146080281
 30
0.0
 11
135.7995773112613
 21
89.59765146080281
 31
0.0
  0
LINE
  5
2E72
330
1F
100
AcDbEntity
  8
ﾎﾞﾃﾞｨｰ
 62
     8
100
AcDbLine
 10
135.7995773112613
 20
84.0976514608028
 30
0.0
 11
135.7995773112613
 21
89.59765146080281
 31
0.0
  0
LINE
  5
2E73
330
1F
100
AcDbEntity
  8
ﾎﾞﾃﾞｨｰ
 62
     8
100
AcDbLine
 10
158.5995773112614
 20
84.0976514608028
 30
0.0
 11
158.5995773112614
 21
89.59765146080281
 31
0.0
  0
LINE
  5
2E74
330
1F
100
AcDbEntity
  8
ﾎﾞﾃﾞｨｰ
 62
     8
100
AcDbLine
 10
142.5995773112614
 20
89.04765146080285
 30
0.0
 11
141.7995773112614
 21
89.04765146080285
 31
0.0
  0
LINE
  5
2E75
330
1F
100
AcDbEntity
  8
ﾎﾞﾃﾞｨｰ
 62
     8
100
AcDbLine
 10
142.5995773112614
 20
88.59765146080281
 30
0.0
 11
141.7995773112614
 21
88.59765146080276
 31
0.0
  0
LINE
  5
2E76
330
1F
100
AcDbEntity
  8
ﾎﾞﾃﾞｨｰ
 62
     8
100
AcDbLine
 10
140.6995773112614
 20
89.99765146080278
 30
0.0
 11
140.6995773112614
 21
83.69765146080277
 31
0.0
  0
LINE
  5
2E77
330
1F
100
AcDbEntity
  8
ﾎﾞﾃﾞｨｰ
 62
     8
100
AcDbLine
 10
141.7995773112614
 20
89.99765146080278
 30
0.0
 11
141.7995773112614
 21
83.69765146080277
 31
0.0
  0
LINE
  5
2E78
330
1F
100
AcDbEntity
  8
ﾎﾞﾃﾞｨｰ
 62
     8
100
AcDbLine
 10
152.5995773112614
 20
89.99765146080278
 30
0.0
 11
152.5995773112614
 21
83.69765146080277
 31
0.0
  0
LINE
  5
2E79
330
1F
100
AcDbEntity
  8
ﾎﾞﾃﾞｨｰ
 62
     8
100
AcDbLine
 10
153.6995773112613
 20
89.99765146080278
 30
0.0
 11
153.6995773112613
 21
83.69765146080277
 31
0.0
  0
LINE
  5
2E7A
330
1F
100
AcDbEntity
  8
ﾎﾞﾃﾞｨｰ
 62
     8
100
AcDbLine
 10
158.2836129907075
 20
89.59765146080286
 30
0.0
 11
158.2836129907075
 21
89.99765146080278
 31
0.0
  0
LINE
  5
2E7B
330
1F
100
AcDbEntity
  8
ﾎﾞﾃﾞｨｰ
 62
     8
100
AcDbLine
 10
136.1155416318152
 20
89.59765146080286
 30
0.0
 11
136.1155416318152
 21
89.99765146080278
 31
0.0
  0
LINE
  5
2E7C
330
1F
100
AcDbEntity
  8
端子
 62
     8
100
AcDbLine
 10
142.5745773112613
 20
89.04765146080279
 30
0.0
 11
142.5745773112613
 21
88.64765146080282
 31
0.0
  0
LINE
  5
2E7D
330
1F
100
AcDbEntity
  8
端子
 62
     8
100
AcDbLine
 10
151.8245773112613
 20
89.04765146080279
 30
0.0
 11
151.8245773112613
 21
88.64765146080282
 31
0.0
  0
LINE
  5
2E7E
330
1F
100
AcDbEntity
  8
端子
 62
     8
100
AcDbLine
 10
146.8245773112614
 20
85.04765146080279
 30
0.0
 11
146.8245773112614
 21
84.64765146080276
 31
0.0
  0
LINE
  5
2E7F
330
1F
100
AcDbEntity
  8
端子
 62
     8
100
AcDbLine
 10
147.5745773112614
 20
84.64765146080276
 30
0.0
 11
147.5745773112614
 21
85.04765146080279
 31
0.0
  0
LINE
  5
2E80
330
1F
100
AcDbEntity
  8
端子
 62
     8
100
AcDbLine
 10
142.5995773112614
 20
88.64765146080282
 30
0.0
 11
141.8245773112613
 21
88.64765146080282
 31
0.0
  0
INSERT
  5
2E8B
330
1F
100
AcDbEntity
  8
0
100
AcDbBlockReference
  2
A$C4EF1171D
 10
72.1303081128741
 20
144.855412241289
 30
0.0
 41
2.0
 42
2.0
 43
2.0
  0
INSERT
  5
2E8C
330
1F
100
AcDbEntity
  8
0
100
AcDbBlockReference
  2
A$C736D53F2
 10
64.1303081128741
 20
144.855412241289
 30
0.0
 41
2.0
 42
2.0
 43
2.0
  0
MTEXT
  5
2E8D
330
1F
100
AcDbEntity
  8
0
100
AcDbMText
 10
147.285728573267
 20
114.1918248097224
 30
0.0
 40
3.0
 41
33.84370715662394
 71
     5
 72
     5
  1
{\fMS PGothic|b0|i0|c128|p50;取付穴寸法}
 73
     1
 44
1.0
1001
ACAD
1000
MTEXTBEGIN
1070
    73
1070
     1
1070
    44
1040
1.0
1070
    74
1070
     0
1000
MTEXTEND
  0
DIMENSION
  5
2E9D
330
1F
100
AcDbEntity
  8
AM_5
100
AcDbDimension
  2
*D15
 10
83.5303081128741
 20
177.2207739534708
 30
0.0
 11
72.1303081128741
 21
180.4711184416597
 31
0.0
 70
    32
 71
     5
 42
22.80000000000001
  3
AM_ISO$0
100
AcDbAlignedDimension
 13
60.73030811287409
 23
165.2207739534707
 33
0.0
 14
83.5303081128741
 24
165.2207739534707
 34
0.0
100
AcDbRotatedDimension
  0
DIMENSION
  5
2EBF
330
1F
100
AcDbEntity
  8
AM_5
100
AcDbDimension
  2
*D16
 10
48.73030710287409
 20
150.855412241289
 30
0.0
 11
45.48030710287406
 21
159.905412241289
 31
0.0
 70
    32
 71
     5
 42
18.09999999999999
  3
AM_ISO$0
100
AcDbAlignedDimension
 13
61.90707798287661
 23
168.955412241289
 33
0.0
 14
65.63030811287413
 24
150.855412241289
 34
0.0
 50
90.0
100
AcDbRotatedDimension
  0
DIMENSION
  5
2EE1
330
1F
100
AcDbEntity
  8
AM_5
100
AcDbDimension
  2
*D17
 10
118.0823978299621
 20
177.2207739534708
 30
0.0
 11
127.2096096128262
 21
180.4707739534708
 31
0.0
 70
    32
 71
     5
 42
6.300000000000011
  3
AM_ISO$0
100
AcDbAlignedDimension
 13
111.782397829962
 23
165.355412241289
 33
0.0
 14
118.0823978299621
 24
165.355412241289
 34
0.0
100
AcDbRotatedDimension
  0
CIRCLE
  5
2F34
330
1F
100
AcDbEntity
  8
zone
100
AcDbCircle
 10
142.1995773112614
 20
88.54765146080278
 30
0.0
 40
0.65
  0
CIRCLE
  5
2F35
330
1F
100
AcDbEntity
  8
zone
100
AcDbCircle
 10
147.1995773112614
 20
85.14765146080277
 30
0.0
 40
0.65
  0
CIRCLE
  5
2F36
330
1F
100
AcDbEntity
  8
zone
100
AcDbCircle
 10
152.1995773112614
 20
88.54765146080278
 30
0.0
 40
0.65
  0
LINE
  5
2F3D
330
1F
100
AcDbEntity
  8
AM_7
  6
AM_ISO08W050x2
100
AcDbLine
 10
152.1995773112614
 20
88.54765146080278
 30
0.0
 11
155.8495773112614
 21
88.54765146080278
 31
0.0
1001
GENIUS_GENOREF_13
1005
2F41
  0
LINE
  5
2F3E
330
1F
100
AcDbEntity
  8
AM_7
  6
AM_ISO08W050x2
100
AcDbLine
 10
152.1995773112614
 20
88.54765146080278
 30
0.0
 11
152.1995773112614
 21
92.19765146080279
 31
0.0
1001
GENIUS_GENOREF_13
1005
2F41
  0
LINE
  5
2F3F
330
1F
100
AcDbEntity
  8
AM_7
  6
AM_ISO08W050x2
100
AcDbLine
 10
152.1995773112614
 20
88.54765146080278
 30
0.0
 11
148.5495773112613
 21
88.54765146080278
 31
0.0
1001
GENIUS_GENOREF_13
1005
2F41
  0
LINE
  5
2F40
330
1F
100
AcDbEntity
  8
AM_7
  6
AM_ISO08W050x2
100
AcDbLine
 10
152.1995773112614
 20
88.54765146080278
 30
0.0
 11
152.1995773112614
 21
84.89765146080278
 31
0.0
1001
GENIUS_GENOREF_13
1005
2F41
  0
POINT
  5
2F41
330
1F
100
AcDbEntity
  8
0
 60
     1
100
AcDbPoint
 10
0.0
 20
0.0
 30
0.0
1001
GENIUS_GENOLIS_13
1002
{
1000
ENT
1005
2F40
1005
2F3F
1005
2F3E
1005
2F3D
1002
}
1001
GENIUS_GENOENT_13
1002
{
1000
MYREF
1005
2F41
1002
}
1002
{
1000
GRP
1005
0
1002
}
1001
GENIUS_GENOBJ-N-CRS_13
1002
{
1000
OWNER
1000
GEN
1002
}
1001
GENIUS_GENODEF_13
1002
{
1000
HIER
1070
    10
1002
}
1002
{
1000
MANEDIT
1070
     0
1002
}
1002
{
1000
NOSEL
1070
     0
1002
}
1002
{
1000
BEHIND
1070
     0
1002
}
1002
{
1000
OTHER
1070
     0
1002
}
1002
{
1000
REACTOR
1002
}
  0
LINE
  5
2F43
330
1F
100
AcDbEntity
  8
AM_7
  6
AM_ISO08W050x2
100
AcDbLine
 10
147.1995773112614
 20
85.14765146080277
 30
0.0
 11
150.8495773112614
 21
85.14765146080277
 31
0.0
1001
GENIUS_GENOREF_13
1005
2F47
  0
LINE
  5
2F44
330
1F
100
AcDbEntity
  8
AM_7
  6
AM_ISO08W050x2
100
AcDbLine
 10
147.1995773112614
 20
85.14765146080277
 30
0.0
 11
147.1995773112614
 21
88.79765146080279
 31
0.0
1001
GENIUS_GENOREF_13
1005
2F47
  0
LINE
  5
2F45
330
1F
100
AcDbEntity
  8
AM_7
  6
AM_ISO08W050x2
100
AcDbLine
 10
147.1995773112614
 20
85.14765146080277
 30
0.0
 11
143.5495773112613
 21
85.14765146080277
 31
0.0
1001
GENIUS_GENOREF_13
1005
2F47
  0
LINE
  5
2F46
330
1F
100
AcDbEntity
  8
AM_7
  6
AM_ISO08W050x2
100
AcDbLine
 10
147.1995773112614
 20
85.14765146080277
 30
0.0
 11
147.1995773112614
 21
81.49765146080277
 31
0.0
1001
GENIUS_GENOREF_13
1005
2F47
  0
POINT
  5
2F47
330
1F
100
AcDbEntity
  8
0
 60
     1
100
AcDbPoint
 10
0.0
 20
0.0
 30
0.0
1001
GENIUS_GENOLIS_13
1002
{
1000
ENT
1005
2F46
1005
2F45
1005
2F44
1005
2F43
1002
}
1001
GENIUS_GENOENT_13
1002
{
1000
MYREF
1005
2F47
1002
}
1002
{
1000
GRP
1005
0
1002
}
1001
GENIUS_GENOBJ-N-CRS_13
1002
{
1000
OWNER
1000
GEN
1002
}
1001
GENIUS_GENODEF_13
1002
{
1000
HIER
1070
    10
1002
}
1002
{
1000
MANEDIT
1070
     0
1002
}
1002
{
1000
NOSEL
1070
     0
1002
}
1002
{
1000
BEHIND
1070
     0
1002
}
1002
{
1000
OTHER
1070
     0
1002
}
1002
{
1000
REACTOR
1002
}
  0
LINE
  5
2F49
330
1F
100
AcDbEntity
  8
AM_7
  6
AM_ISO08W050x2
100
AcDbLine
 10
142.1995773112614
 20
88.54765146080278
 30
0.0
 11
145.8495773112614
 21
88.54765146080278
 31
0.0
1001
GENIUS_GENOREF_13
1005
2F4D
  0
LINE
  5
2F4A
330
1F
100
AcDbEntity
  8
AM_7
  6
AM_ISO08W050x2
100
AcDbLine
 10
142.1995773112614
 20
88.54765146080278
 30
0.0
 11
142.1995773112614
 21
92.19765146080279
 31
0.0
1001
GENIUS_GENOREF_13
1005
2F4D
  0
LINE
  5
2F4B
330
1F
100
AcDbEntity
  8
AM_7
  6
AM_ISO08W050x2
100
AcDbLine
 10
142.1995773112614
 20
88.54765146080278
 30
0.0
 11
138.5495773112614
 21
88.54765146080278
 31
0.0
1001
GENIUS_GENOREF_13
1005
2F4D
  0
LINE
  5
2F4C
330
1F
100
AcDbEntity
  8
AM_7
  6
AM_ISO08W050x2
100
AcDbLine
 10
142.1995773112614
 20
88.54765146080278
 30
0.0
 11
142.1995773112614
 21
84.89765146080278
 31
0.0
1001
GENIUS_GENOREF_13
1005
2F4D
  0
POINT
  5
2F4D
330
1F
100
AcDbEntity
  8
0
 60
     1
100
AcDbPoint
 10
0.0
 20
0.0
 30
0.0
1001
GENIUS_GENOLIS_13
1002
{
1000
ENT
1005
2F4C
1005
2F4B
1005
2F4A
1005
2F49
1002
}
1001
GENIUS_GENOENT_13
1002
{
1000
MYREF
1005
2F4D
1002
}
1002
{
1000
GRP
1005
0
1002
}
1001
GENIUS_GENOBJ-N-CRS_13
1002
{
1000
OWNER
1000
GEN
1002
}
1001
GENIUS_GENODEF_13
1002
{
1000
HIER
1070
    10
1002
}
1002
{
1000
MANEDIT
1070
     0
1002
}
1002
{
1000
NOSEL
1070
     0
1002
}
1002
{
1000
BEHIND
1070
     0
1002
}
1002
{
1000
OTHER
1070
     0
1002
}
1002
{
1000
REACTOR
1002
}
  0
DIMENSION
  5
2F5D
330
1F
100
AcDbEntity
  8
AM_5
100
AcDbDimension
  2
*D18
 10
152.1995773112614
 20
104.1976514608028
 30
0.0
 11
147.1995773112614
 21
107.4476514608028
 31
0.0
 70
    32
 71
     5
 42
10.0
  3
AM_ISO$0
100
AcDbAlignedDimension
 13
142.1995773112614
 23
92.19765146080279
 33
0.0
 14
152.1995773112614
 24
92.19765146080279
 34
0.0
100
AcDbRotatedDimension
  0
DIMENSION
  5
2F7F
330
1F
100
AcDbEntity
  8
AM_5
100
AcDbDimension
  2
*D19
 10
167.8495773112613
 20
85.14765146080277
 30
0.0
 11
164.5995773112613
 21
76.02265146080279
 31
0.0
 70
    32
 71
     5
 42
3.400000000000005
  3
AM_ISO$0
100
AcDbAlignedDimension
 13
155.8495773112614
 23
88.54765146080278
 33
0.0
 14
150.8495773112614
 24
85.14765146080277
 34
0.0
 50
90.0
100
AcDbRotatedDimension
  0
DIMENSION
  5
2F9A
330
1F
100
AcDbEntity
  8
AM_5
100
AcDbDimension
  2
*D20
 10
151.8089983288777
 20
88.02808620164848
 30
0.0
 11
162.7569269332159
 21
95.61106265205385
 31
0.0
 70
   163
 71
     5
 42
1.299999999999982
  3
AM_ISO$3
100
AcDbDiametricDimension
 15
152.590156293645
 25
89.0672167199572
 35
0.0
 40
0.0
  0
DIMENSION
  5
2FC1
330
1F
100
AcDbEntity
  8
AM_5
100
AcDbDimension
  2
*D21
 10
147.1995773112614
 20
71.69765046080276
 30
0.0
 11
149.6995773112614
 21
74.94765046080276
 31
0.0
 70
    32
 71
     5
 42
5.0
  3
AM_ISO$0
100
AcDbAlignedDimension
 13
152.1995773112614
 23
84.89765146080278
 33
0.0
 14
147.1995773112614
 24
81.49765146080277
 34
0.0
 50
0.0000000000001018
100
AcDbRotatedDimension
1001
ACAD
1000
DSTYLE
1002
{
1070
   173
1070
     1
1070
   174
1070
     1
1070
   343
1005
1F8
1070
   344
1005
C70
1002
}
  0
DIMENSION
  5
2FED
330
1F
100
AcDbEntity
  8
AM_5
100
AcDbDimension
  2
*D22
 10
147.1995773112614
 20
71.69765046080278
 30
0.0
 11
144.6995773112614
 21
74.94765046080278
 31
0.0
 70
    32
 71
     5
 42
5.0
  3
AM_ISO$0
100
AcDbAlignedDimension
 13
142.1995773112614
 23
84.89765146080278
 33
0.0
 14
147.1995773112614
 24
81.49765146080277
 34
0.0
100
AcDbRotatedDimension
1001
ACAD
1000
DSTYLE
1002
{
1070
   173
1070
     1
1070
   174
1070
     1
1070
   343
1005
1F8
1070
   344
1005
C70
1002
}
  0
INSERT
  5
3029
330
1F
100
AcDbEntity
  8
0
100
AcDbBlockReference
  2
A$C736D53F2
 10
80.13030811287411
 20
144.855412241289
 30
0.0
 41
2.0
 42
2.0
 43
2.0
  0
VIEWPORT
  5
186
102
{ACAD_XDICTIONARY
360
319F
102
}
330
23
100
AcDbEntity
 67
     1
  8
0
100
AcDbViewport
 10
5.249999639556163
 20
3.999999883606677
 30
0.0
 40
14.57585398793907
 41
8.992999745766947
 68
     1
 69
     1
 12
5.249999639556163
 22
3.999999883606677
 13
0.0
 23
0.0
 14
10.0
 24
10.0
 15
10.0
 25
10.0
 16
0.0
 26
0.0
 36
1.0
 17
0.0
 27
0.0
 37
0.0
 42
50.0
 43
0.0
 44
0.0
 45
8.992999745766947
 50
0.0
 51
0.0
 72
   100
 90
    32800
  1

281
     0
 71
     1
 74
     0
110
0.0
120
0.0
130
0.0
111
1.0
121
0.0
131
0.0
112
0.0
122
1.0
132
0.0
 79
     0
146
0.0
  0
ENDSEC
  0
SECTION
  2
OBJECTS
  0
DICTIONARY
  5
C
330
0
100
AcDbDictionary
281
     1
  3
ACAD_COLOR
350
C9
  3
ACAD_GROUP
350
D
  3
ACAD_LAYOUT
350
1A
  3
ACAD_MATERIAL
350
C8
  3
ACAD_MLEADERSTYLE
350
3151
  3
ACAD_MLINESTYLE
350
17
  3
ACAD_PLOTSETTINGS
350
19
  3
ACAD_PLOTSTYLENAME
350
E
  3
ACAD_SCALELIST
350
313F
  3
ACAD_TABLESTYLE
350
BD6
  3
ACAD_VISUALSTYLE
350
312E
  3
ACDB_RECOMPOSE_DATA
350
3199
  3
ACDBHEADERROUNDTRIPXREC
350
32E8
  3
AcDbVariableDictionary
350
9E
  3
AcmDictionary
350
63
  3
AMG
350
49
  3
AMGSNAPSETTINGS
350
234
  3
DWGPROPS
350
32E7
  0
DICTIONARY
  5
319A
330
8
100
AcDbDictionary
280
     1
281
     1
  3
ACAD_XREC_ROUNDTRIP
360
319B
  0
DICTIONARY
  5
2C1
330
2
100
AcDbDictionary
280
     1
281
     1
  3
ACAD_LAYERFILTERS
360
302E
  3
ACAD_LAYERSTATES
360
2C2
  3
ACLYDICTIONARY
360
302D
  0
DICTIONARY
  5
3185
330
10
100
AcDbDictionary
280
     1
281
     1
  3
ADSK_XREC_LAYER_RECONCILED
360
3186
  0
DICTIONARY
  5
3187
330
1F0
100
AcDbDictionary
280
     1
281
     1
  3
ADSK_XREC_LAYER_RECONCILED
360
3188
  0
DICTIONARY
  5
3189
330
23E
100
AcDbDictionary
280
     1
281
     1
  3
ADSK_XREC_LAYER_RECONCILED
360
318A
  0
DICTIONARY
  5
318B
330
23F
100
AcDbDictionary
280
     1
281
     1
  3
ADSK_XREC_LAYER_RECONCILED
360
318C
  0
DICTIONARY
  5
D8E
330
D8D
100
AcDbDictionary
280
     1
281
     1
  3
ADSK_XREC_LAYER_RECONCILED
360
D8F
  0
DICTIONARY
  5
318D
330
D90
100
AcDbDictionary
280
     1
281
     1
  3
ADSK_XREC_LAYER_RECONCILED
360
318E
  0
DICTIONARY
  5
318F
330
D91
100
AcDbDictionary
280
     1
281
     1
  3
ADSK_XREC_LAYER_RECONCILED
360
3190
  0
DICTIONARY
  5
3191
330
1343
100
AcDbDictionary
280
     1
281
     1
  3
ADSK_XREC_LAYER_RECONCILED
360
3192
  0
DICTIONARY
  5
3193
330
1344
100
AcDbDictionary
280
     1
281
     1
  3
ADSK_XREC_LAYER_RECONCILED
360
3194
  0
DICTIONARY
  5
3195
330
13DA
100
AcDbDictionary
280
     1
281
     1
  3
ADSK_XREC_LAYER_RECONCILED
360
3196
  0
DICTIONARY
  5
222F
330
222E
100
AcDbDictionary
280
     1
281
     1
  3
ADSK_XREC_LAYER_RECONCILED
360
2230
  0
DICTIONARY
  5
31A1
330
2A6
100
AcDbDictionary
280
     1
281
     1
  3
ACAD_XREC_ROUNDTRIP
360
31A2
  0
DICTIONARY
  5
31A3
330
2A7
100
AcDbDictionary
280
     1
281
     1
  3
ACAD_XREC_ROUNDTRIP
360
31A4
  0
DICTIONARY
  5
31A5
330
2A8
100
AcDbDictionary
280
     1
281
     1
  3
ACAD_XREC_ROUNDTRIP
360
31A6
  0
DICTIONARY
  5
31A7
330
2A9
100
AcDbDictionary
280
     1
281
     1
  3
ACAD_XREC_ROUNDTRIP
360
31A8
  0
DICTIONARY
  5
31A9
330
2AA
100
AcDbDictionary
280
     1
281
     1
  3
ACAD_XREC_ROUNDTRIP
360
31AA
  0
DICTIONARY
  5
31AB
330
2AB
100
AcDbDictionary
280
     1
281
     1
  3
ACAD_XREC_ROUNDTRIP
360
31AC
  0
DICTIONARY
  5
99
330
1F
100
AcDbDictionary
280
     1
281
     1
  0
DICTIONARY
  5
22D
330
224
100
AcDbDictionary
280
     1
281
     1
  0
DICTIONARY
  5
297
330
242
100
AcDbDictionary
280
     1
281
     1
  0
DICTIONARY
  5
A15
330
A0D
100
AcDbDictionary
280
     1
281
     1
  0
DICTIONARY
  5
A79
330
A20
100
AcDbDictionary
280
     1
281
     1
  0
DICTIONARY
  5
AA9
330
AA1
100
AcDbDictionary
280
     1
281
     1
  0
DICTIONARY
  5
AF1
330
AE9
100
AcDbDictionary
280
     1
281
     1
  0
DICTIONARY
  5
B55
330
AFC
100
AcDbDictionary
280
     1
281
     1
  0
DICTIONARY
  5
C57
330
C4F
100
AcDbDictionary
280
     1
281
     1
  0
DICTIONARY
  5
136D
330
1366
100
AcDbDictionary
280
     1
281
     1
  0
DICTIONARY
  5
1383
330
1374
100
AcDbDictionary
280
     1
281
     1
  0
DICTIONARY
  5
319D
330
182
100
AcDbDictionary
280
     1
281
     1
  3
ACAD_XREC_ROUNDTRIP
360
319E
  0
DICTIONARY
  5
319F
330
186
100
AcDbDictionary
280
     1
281
     1
  3
ACAD_XREC_ROUNDTRIP
360
31A0
  0
DICTIONARY
  5
C9
102
{ACAD_REACTORS
330
C
102
}
330
C
100
AcDbDictionary
281
     1
  0
DICTIONARY
  5
D
102
{ACAD_REACTORS
330
C
102
}
330
C
100
AcDbDictionary
281
     1
  0
DICTIONARY
  5
1A
102
{ACAD_REACTORS
330
C
102
}
330
C
100
AcDbDictionary
281
     1
  3
Model
350
22
  3
レイアウト1
350
1E
  3
レイアウト2
350
26
  0
DICTIONARY
  5
C8
102
{ACAD_REACTORS
330
C
102
}
330
C
100
AcDbDictionary
281
     1
  3
ByBlock
350
311E
  3
ByLayer
350
3116
  3
Global
350
3126
  0
DICTIONARY
  5
3151
102
{ACAD_REACTORS
330
C
102
}
330
C
100
AcDbDictionary
281
     1
  3
Standard
350
3152
  0
DICTIONARY
  5
17
102
{ACAD_REACTORS
330
C
102
}
330
C
100
AcDbDictionary
281
     1
  3
Standard
350
18
  0
DICTIONARY
  5
19
102
{ACAD_REACTORS
330
C
102
}
330
C
100
AcDbDictionary
281
     1
  0
ACDBDICTIONARYWDFLT
  5
E
102
{ACAD_REACTORS
330
C
102
}
330
C
100
AcDbDictionary
281
     1
  3
Normal
350
F
100
AcDbDictionaryWithDefault
340
F
  0
DICTIONARY
  5
313F
102
{ACAD_REACTORS
330
C
102
}
330
C
100
AcDbDictionary
281
     1
  3
A0
350
3140
  3
A1
350
3141
  3
A2
350
3142
  3
A3
350
3143
  3
A4
350
3144
  3
A5
350
3145
  3
A6
350
3146
  3
A7
350
3147
  3
A8
350
3148
  3
A9
350
3149
  3
B0
350
314A
  3
B1
350
314B
  3
B2
350
314C
  3
B3
350
314D
  3
B4
350
314E
  3
B5
350
314F
  3
B6
350
3150
  0
DICTIONARY
  5
BD6
102
{ACAD_REACTORS
330
C
102
}
330
C
100
AcDbDictionary
281
     1
  3
Standard
350
BD7
  0
DICTIONARY
  5
312E
102
{ACAD_REACTORS
330
C
102
}
330
C
100
AcDbDictionary
281
     1
  3
2dWireframe
350
3134
  3
3D Hidden
350
3136
  3
3dWireframe
350
3135
  3
Basic
350
3133
  3
Brighten
350
313A
  3
ColorChange
350
313E
  3
Conceptual
350
3137
  3
Dim
350
3139
  3
Facepattern
350
313D
  3
Flat
350
312F
  3
FlatWithEdges
350
3130
  3
Gouraud
350
3131
  3
GouraudWithEdges
350
3132
  3
Linepattern
350
313C
  3
Realistic
350
3138
  3
Thicken
350
313B
  0
XRECORD
  5
3199
102
{ACAD_REACTORS
330
C
102
}
330
C
100
AcDbXrecord
280
     1
 90
        1
330
BD7
  0
DICTIONARY
  5
32E8
102
{ACAD_REACTORS
330
C
102
}
330
C
100
AcDbDictionary
281
     1
  0
DICTIONARY
  5
9E
102
{ACAD_REACTORS
330
C
102
}
330
C
100
AcDbDictionary
281
     1
  3
CANNOSCALE
350
31B4
  3
CMLEADERSTYLE
350
31B3
  3
CTABLESTYLE
350
C25
  3
DIMASSOC
350
A0
  3
INDEXCTL
350
9F
  3
PROJECTNAME
350
30ED
  0
DICTIONARY
  5
63
102
{ACAD_REACTORS
330
C
102
}
330
C
100
AcDbDictionary
281
     1
  3
AcmBOM
350
9A7
  3
AcmStdDictionary
350
69
  3
AMDTSECTSYM_ARROWCOLOR
350
BE7
  0
DICTIONARY
  5
49
102
{ACAD_REACTORS
330
C
102
}
330
C
100
AcDbDictionary
281
     1
  0
DICTIONARY
  5
234
102
{ACAD_REACTORS
330
C
102
}
330
C
100
AcDbDictionary
281
     1
  0
XRECORD
  5
32E7
102
{ACAD_REACTORS
330
C
102
}
330
C
100
AcDbXrecord
280
     1
  1
DWGPROPS COOKIE
  2

  3

  4

  6

  7

  8
Administrator
  9

300
AmdtFileType=84
301
=
302
=
303
=
304
=
305
=
306
=
307
=
308
=
309
=
 40
0.5069368402777778
 41
2454678.564949722
 42
2454978.570809456
  1

 90
        1
  0
XRECORD
  5
319B
102
{ACAD_REACTORS
330
319A
102
}
330
319A
100
AcDbXrecord
280
     1
102
VTR_0.000_0.000_1.000_1.000_VISUALSTYLE
340
3134
102
VTR_0.000_0.000_1.000_1.000_GRIDDISPLAY
 70
     3
102
VTR_0.000_0.000_1.000_1.000_GRIDMAJOR
 70
     5
102
VTR_0.000_0.000_1.000_1.000_DEFAULTLIGHTING
280
     1
102
VTR_0.000_0.000_1.000_1.000_DEFAULTLIGHTINGTYPE
 70
     1
102
VTR_0.000_0.000_1.000_1.000_BRIGHTNESS
141
0.0
102
VTR_0.000_0.000_1.000_1.000_CONTRAST
142
0.0
  0
DICTIONARY
  5
302E
102
{ACAD_REACTORS
330
2C1
102
}
330
2C1
100
AcDbDictionary
281
     1
  0
DICTIONARY
  5
2C2
102
{ACAD_REACTORS
330
2C1
102
}
330
2C1
100
AcDbDictionary
281
     1
  0
DICTIONARY
  5
302D
102
{ACAD_REACTORS
330
2C1
102
}
330
2C1
100
AcDbDictionary
281
     1
1001
ACAD
1000
<All
  0
XRECORD
  5
3186
102
{ACAD_REACTORS
330
3185
102
}
330
3185
100
AcDbXrecord
280
     1
290
     1
  0
XRECORD
  5
3188
102
{ACAD_REACTORS
330
3187
102
}
330
3187
100
AcDbXrecord
280
     1
290
     1
  0
XRECORD
  5
318A
102
{ACAD_REACTORS
330
3189
102
}
330
3189
100
AcDbXrecord
280
     1
290
     1
  0
XRECORD
  5
318C
102
{ACAD_REACTORS
330
318B
102
}
330
318B
100
AcDbXrecord
280
     1
290
     1
  0
XRECORD
  5
D8F
102
{ACAD_REACTORS
330
D8E
102
}
330
D8E
100
AcDbXrecord
280
     1
290
     1
  0
XRECORD
  5
318E
102
{ACAD_REACTORS
330
318D
102
}
330
318D
100
AcDbXrecord
280
     1
290
     1
  0
XRECORD
  5
3190
102
{ACAD_REACTORS
330
318F
102
}
330
318F
100
AcDbXrecord
280
     1
290
     1
  0
XRECORD
  5
3192
102
{ACAD_REACTORS
330
3191
102
}
330
3191
100
AcDbXrecord
280
     1
290
     1
  0
XRECORD
  5
3194
102
{ACAD_REACTORS
330
3193
102
}
330
3193
100
AcDbXrecord
280
     1
290
     1
  0
XRECORD
  5
3196
102
{ACAD_REACTORS
330
3195
102
}
330
3195
100
AcDbXrecord
280
     1
290
     1
  0
XRECORD
  5
2230
102
{ACAD_REACTORS
330
222F
102
}
330
222F
100
AcDbXrecord
280
     1
290
     1
  0
XRECORD
  5
31A2
102
{ACAD_REACTORS
330
31A1
102
}
330
31A1
100
AcDbXrecord
280
     1
102
CAMERAPLOTTABLE
 70
     0
102
VISUALSTYLE
340
3134
  0
XRECORD
  5
31A4
102
{ACAD_REACTORS
330
31A3
102
}
330
31A3
100
AcDbXrecord
280
     1
102
CAMERAPLOTTABLE
 70
     0
102
VISUALSTYLE
340
3134
  0
XRECORD
  5
31A6
102
{ACAD_REACTORS
330
31A5
102
}
330
31A5
100
AcDbXrecord
280
     1
102
CAMERAPLOTTABLE
 70
     0
102
VISUALSTYLE
340
3134
  0
XRECORD
  5
31A8
102
{ACAD_REACTORS
330
31A7
102
}
330
31A7
100
AcDbXrecord
280
     1
102
CAMERAPLOTTABLE
 70
     0
102
VISUALSTYLE
340
3134
  0
XRECORD
  5
31AA
102
{ACAD_REACTORS
330
31A9
102
}
330
31A9
100
AcDbXrecord
280
     1
102
CAMERAPLOTTABLE
 70
     0
102
VISUALSTYLE
340
3134
  0
XRECORD
  5
31AC
102
{ACAD_REACTORS
330
31AB
102
}
330
31AB
100
AcDbXrecord
280
     1
102
CAMERAPLOTTABLE
 70
     0
102
VISUALSTYLE
340
3134
  0
XRECORD
  5
319E
102
{ACAD_REACTORS
330
319D
102
}
330
319D
100
AcDbXrecord
280
     1
102
VISUALSTYLE
340
3134
102
GRIDDISPLAY
 70
     0
102
GRIDMAJOR
 70
     5
102
DEFAULTLIGHTING
280
     1
102
DEFAULTLIGHTINGTYPE
 70
     1
102
BRIGHTNESS
141
0.0
102
CONTRAST
142
0.0
102
SHADEPLOT
 70
     0
  0
XRECORD
  5
31A0
102
{ACAD_REACTORS
330
319F
102
}
330
319F
100
AcDbXrecord
280
     1
102
VISUALSTYLE
340
3134
102
GRIDDISPLAY
 70
     0
102
GRIDMAJOR
 70
     5
102
DEFAULTLIGHTING
280
     1
102
DEFAULTLIGHTINGTYPE
 70
     1
102
BRIGHTNESS
141
0.0
102
CONTRAST
142
0.0
102
SHADEPLOT
 70
     0
  0
LAYOUT
  5
22
102
{ACAD_XDICTIONARY
360
32EB
102
}
102
{ACAD_REACTORS
330
1A
102
}
330
1A
100
AcDbPlotSettings
  1

  2
RICOH IPSiO CX7200 RPCS
  4
A3
  6
AM_VIEW1
 40
5.873749732971191
 41
5.873747825622558
 42
5.873748779296875
 43
5.873748779296875
 44
296.9259948730469
 45
419.9466552734374
 46
2.589999999999999
 47
4.099999999999999
 48
10.00000000000003
 49
0.0
140
410.0
141
280.0
142
1.0
143
1.0
 70
 11956
 72
     1
 73
     1
 74
     4
  7
takachi-2.ctb
 75
    16
147
1.0
148
-10.00000000000003
149
0.0
100
AcDbLayout
  1
Model
 70
     1
 71
     0
 10
0.0
 20
0.0
 11
12.0
 21
9.0
 12
0.0
 22
0.0
 32
0.0
 14
0.0
 24
0.0
 34
0.0
 15
0.0
 25
0.0
 35
0.0
146
0.0
 13
0.0
 23
0.0
 33
0.0
 16
1.0
 26
0.0
 36
0.0
 17
0.0
 27
1.0
 37
0.0
 76
     0
330
1F
331
3114
  0
LAYOUT
  5
1E
102
{ACAD_XDICTIONARY
360
32E9
102
}
102
{ACAD_REACTORS
330
1A
102
}
330
1A
100
AcDbPlotSettings
  1

  2
none_device
  4
Letter_(8.50_x_11.00_Inches)
  6

 40
6.349999904632568
 41
6.349999904632568
 42
6.350006103515625
 43
6.350006103515625
 44
215.8999938964844
 45
279.3999938964844
 46
0.0
 47
0.0
 48
0.0
 49
0.0
140
0.0
141
0.0
142
1.0
143
1.0
 70
   688
 72
     0
 73
     1
 74
     5
  7
takachi-2.ctb
 75
    16
147
1.0
148
0.0
149
0.0
100
AcDbLayout
  1
レイアウト1
 70
     1
 71
     1
 10
-0.2500002402958907
 20
-0.2499999962453767
 11
10.74999951940821
 21
8.249999763458731
 12
0.0
 22
0.0
 32
0.0
 14
1.000000000000000E+20
 24
1.000000000000000E+20
 34
1.000000000000000E+20
 15
-1.000000000000000E+20
 25
-1.000000000000000E+20
 35
-1.000000000000000E+20
146
0.0
 13
0.0
 23
0.0
 33
0.0
 16
1.0
 26
0.0
 36
0.0
 17
0.0
 27
1.0
 37
0.0
 76
     0
330
1B
331
182
  0
LAYOUT
  5
26
102
{ACAD_XDICTIONARY
360
32ED
102
}
102
{ACAD_REACTORS
330
1A
102
}
330
1A
100
AcDbPlotSettings
  1

  2
none_device
  4
Letter_(8.50_x_11.00_Inches)
  6

 40
6.349999904632568
 41
6.349999904632568
 42
6.350006103515625
 43
6.350006103515625
 44
215.8999938964844
 45
279.3999938964844
 46
0.0
 47
0.0
 48
0.0
 49
0.0
140
0.0
141
0.0
142
1.0
143
1.0
 70
   688
 72
     0
 73
     1
 74
     5
  7
takachi-2.ctb
 75
    16
147
1.0
148
0.0
149
0.0
100
AcDbLayout
  1
レイアウト2
 70
     1
 71
     2
 10
-0.2500002402958907
 20
-0.2499999962453767
 11
10.74999951940821
 21
8.249999763458731
 12
0.0
 22
0.0
 32
0.0
 14
1.000000000000000E+20
 24
1.000000000000000E+20
 34
1.000000000000000E+20
 15
-1.000000000000000E+20
 25
-1.000000000000000E+20
 35
-1.000000000000000E+20
146
0.0
 13
0.0
 23
0.0
 33
0.0
 16
1.0
 26
0.0
 36
0.0
 17
0.0
 27
1.0
 37
0.0
 76
     0
330
23
331
186
  0
MATERIAL
  5
311E
102
{ACAD_XDICTIONARY
360
311F
102
}
102
{ACAD_REACTORS
330
C8
102
}
330
C8
100
AcDbMaterial
  1
ByBlock
 72
     0
 73
     2
 43
0.0008202099737533
 43
0.0
 43
0.0
 43
0.0
 43
0.0
 43
0.0008202099737533
 43
0.0
 43
0.0
 43
0.0
 43
0.0
 43
1.0
 43
0.0
 43
0.0
 43
0.0
 43
0.0
 43
1.0
 77
     0
 78
     2
 47
0.0008202099737533
 47
0.0
 47
0.0
 47
0.0
 47
0.0
 47
0.0008202099737533
 47
0.0
 47
0.0
 47
0.0
 47
0.0
 47
1.0
 47
0.0
 47
0.0
 47
0.0
 47
0.0
 47
1.0
171
     0
172
     2
 49
0.0008202099737533
 49
0.0
 49
0.0
 49
0.0
 49
0.0
 49
0.0008202099737533
 49
0.0
 49
0.0
 49
0.0
 49
0.0
 49
1.0
 49
0.0
 49
0.0
 49
0.0
 49
0.0
 49
1.0
175
     0
176
     2
142
0.0008202099737533
142
0.0
142
0.0
142
0.0
142
0.0
142
0.0008202099737533
142
0.0
142
0.0
142
0.0
142
0.0
142
1.0
142
0.0
142
0.0
142
0.0
142
0.0
142
1.0
179
     0
270
     2
144
0.0008202099737533
144
0.0
144
0.0
144
0.0
144
0.0
144
0.0008202099737533
144
0.0
144
0.0
144
0.0
144
0.0
144
1.0
144
0.0
144
0.0
144
0.0
144
0.0
144
1.0
274
     2
147
0.0008202099737533
147
0.0
147
0.0
147
0.0
147
0.0
147
0.0008202099737533
147
0.0
147
0.0
147
0.0
147
0.0
147
1.0
147
0.0
147
0.0
147
0.0
147
0.0
147
1.0
  0
MATERIAL
  5
3116
102
{ACAD_XDICTIONARY
360
3117
102
}
102
{ACAD_REACTORS
330
C8
102
}
330
C8
100
AcDbMaterial
  1
ByLayer
 72
     0
 73
     2
 43
0.0008202099737533
 43
0.0
 43
0.0
 43
0.0
 43
0.0
 43
0.0008202099737533
 43
0.0
 43
0.0
 43
0.0
 43
0.0
 43
1.0
 43
0.0
 43
0.0
 43
0.0
 43
0.0
 43
1.0
 77
     0
 78
     2
 47
0.0008202099737533
 47
0.0
 47
0.0
 47
0.0
 47
0.0
 47
0.0008202099737533
 47
0.0
 47
0.0
 47
0.0
 47
0.0
 47
1.0
 47
0.0
 47
0.0
 47
0.0
 47
0.0
 47
1.0
171
     0
172
     2
 49
0.0008202099737533
 49
0.0
 49
0.0
 49
0.0
 49
0.0
 49
0.0008202099737533
 49
0.0
 49
0.0
 49
0.0
 49
0.0
 49
1.0
 49
0.0
 49
0.0
 49
0.0
 49
0.0
 49
1.0
175
     0
176
     2
142
0.0008202099737533
142
0.0
142
0.0
142
0.0
142
0.0
142
0.0008202099737533
142
0.0
142
0.0
142
0.0
142
0.0
142
1.0
142
0.0
142
0.0
142
0.0
142
0.0
142
1.0
179
     0
270
     2
144
0.0008202099737533
144
0.0
144
0.0
144
0.0
144
0.0
144
0.0008202099737533
144
0.0
144
0.0
144
0.0
144
0.0
144
1.0
144
0.0
144
0.0
144
0.0
144
0.0
144
1.0
274
     2
147
0.0008202099737533
147
0.0
147
0.0
147
0.0
147
0.0
147
0.0008202099737533
147
0.0
147
0.0
147
0.0
147
0.0
147
1.0
147
0.0
147
0.0
147
0.0
147
0.0
147
1.0
  0
MATERIAL
  5
3126
102
{ACAD_XDICTIONARY
360
3127
102
}
102
{ACAD_REACTORS
330
C8
102
}
330
C8
100
AcDbMaterial
  1
Global
 72
     0
 73
     2
 43
0.0008202099737533
 43
0.0
 43
0.0
 43
0.0
 43
0.0
 43
0.0008202099737533
 43
0.0
 43
0.0
 43
0.0
 43
0.0
 43
1.0
 43
0.0
 43
0.0
 43
0.0
 43
0.0
 43
1.0
 77
     0
 78
     2
 47
0.0008202099737533
 47
0.0
 47
0.0
 47
0.0
 47
0.0
 47
0.0008202099737533
 47
0.0
 47
0.0
 47
0.0
 47
0.0
 47
1.0
 47
0.0
 47
0.0
 47
0.0
 47
0.0
 47
1.0
171
     0
172
     2
 49
0.0008202099737533
 49
0.0
 49
0.0
 49
0.0
 49
0.0
 49
0.0008202099737533
 49
0.0
 49
0.0
 49
0.0
 49
0.0
 49
1.0
 49
0.0
 49
0.0
 49
0.0
 49
0.0
 49
1.0
175
     0
176
     2
142
0.0008202099737533
142
0.0
142
0.0
142
0.0
142
0.0
142
0.0008202099737533
142
0.0
142
0.0
142
0.0
142
0.0
142
1.0
142
0.0
142
0.0
142
0.0
142
0.0
142
1.0
179
     0
270
     2
144
0.0008202099737533
144
0.0
144
0.0
144
0.0
144
0.0
144
0.0008202099737533
144
0.0
144
0.0
144
0.0
144
0.0
144
1.0
144
0.0
144
0.0
144
0.0
144
0.0
144
1.0
274
     2
147
0.0008202099737533
147
0.0
147
0.0
147
0.0
147
0.0
147
0.0008202099737533
147
0.0
147
0.0
147
0.0
147
0.0
147
1.0
147
0.0
147
0.0
147
0.0
147
0.0
147
1.0
  0
ACAD_PROXY_OBJECT
  5
3152
102
{ACAD_REACTORS
330
3151
102
}
330
3151
100
AcDbProxyObject
 90
      499
 91
      608
 95
  6815769
 70
     0
 93
      744
310
40901902A40600000030400FEFFFFFF8000000000000008102B5E8DC0F42B5CFD095374616E646172640000000000000004102405064068000000C1000000000000000410000000000000004102000000304015D90000000000000C03F00
340
14
340
0
340
11
340
0
 94
        0
1001
ACAD_MLEADERVER
1070
     2
1001
ACAD
1000
AcRTDxfName
1000
MLEADERSTYLE
  0
MLINESTYLE
  5
18
102
{ACAD_REACTORS
330
17
102
}
330
17
100
AcDbMlineStyle
  2
STANDARD
 70
     0
  3

 62
   256
 51
90.0
 52
90.0
 71
     2
 49
0.5
 62
   256
  6
BYLAYER
 49
-0.5
 62
   256
  6
BYLAYER
  0
ACDBPLACEHOLDER
  5
F
102
{ACAD_REACTORS
330
E
102
}
330
E
  0
ACAD_PROXY_OBJECT
  5
3140
102
{ACAD_REACTORS
330
313F
102
}
330
313F
100
AcDbProxyObject
 90
      499
 91
      607
 95
  6815769
 70
     0
 93
       49
310
904313A3100580
 94
        0
1001
ACAD
1000
AcRTDxfName
1000
SCALE
  0
ACAD_PROXY_OBJECT
  5
3141
102
{ACAD_REACTORS
330
313F
102
}
330
313F
100
AcDbProxyObject
 90
      499
 91
      607
 95
  6815769
 70
     0
 93
      113
310
904313A32004000000000000004040
 94
        0
1001
ACAD
1000
AcRTDxfName
1000
SCALE
  0
ACAD_PROXY_OBJECT
  5
3142
102
{ACAD_REACTORS
330
313F
102
}
330
313F
100
AcDbProxyObject
 90
      499
 91
      607
 95
  6815769
 70
     0
 93
      113
310
904313A34004000000000000104040
 94
        0
1001
ACAD
1000
AcRTDxfName
1000
SCALE
  0
ACAD_PROXY_OBJECT
  5
3143
102
{ACAD_REACTORS
330
313F
102
}
330
313F
100
AcDbProxyObject
 90
      499
 91
      607
 95
  6815769
 70
     0
 93
      113
310
904313A35004000000000000144040
 94
        0
1001
ACAD
1000
AcRTDxfName
1000
SCALE
  0
ACAD_PROXY_OBJECT
  5
3144
102
{ACAD_REACTORS
330
313F
102
}
330
313F
100
AcDbProxyObject
 90
      499
 91
      607
 95
  6815769
 70
     0
 93
      113
310
904313A38004000000000000204040
 94
        0
1001
ACAD
1000
AcRTDxfName
1000
SCALE
  0
ACAD_PROXY_OBJECT
  5
3145
102
{ACAD_REACTORS
330
313F
102
}
330
313F
100
AcDbProxyObject
 90
      499
 91
      607
 95
  6815769
 70
     0
 93
      121
310
905313A3130004000000000000244040
 94
        0
1001
ACAD
1000
AcRTDxfName
1000
SCALE
  0
ACAD_PROXY_OBJECT
  5
3146
102
{ACAD_REACTORS
330
313F
102
}
330
313F
100
AcDbProxyObject
 90
      499
 91
      607
 95
  6815769
 70
     0
 93
      121
310
905313A3136004000000000000304001
 94
        0
1001
ACAD
1000
AcRTDxfName
1000
SCALE
  0
ACAD_PROXY_OBJECT
  5
3147
102
{ACAD_REACTORS
330
313F
102
}
330
313F
100
AcDbProxyObject
 90
      499
 91
      607
 95
  6815769
 70
     0
 93
      121
310
905313A3230004000000000000344040
 94
        0
1001
ACAD
1000
AcRTDxfName
1000
SCALE
  0
ACAD_PROXY_OBJECT
  5
3148
102
{ACAD_REACTORS
330
313F
102
}
330
313F
100
AcDbProxyObject
 90
      499
 91
      607
 95
  6815769
 70
     0
 93
      121
310
905313A33300040000000000003E4001
 94
        0
1001
ACAD
1000
AcRTDxfName
1000
SCALE
  0
ACAD_PROXY_OBJECT
  5
3149
102
{ACAD_REACTORS
330
313F
102
}
330
313F
100
AcDbProxyObject
 90
      499
 91
      607
 95
  6815769
 70
     0
 93
      121
310
905313A3430004000000000000444040
 94
        0
1001
ACAD
1000
AcRTDxfName
1000
SCALE
  0
ACAD_PROXY_OBJECT
  5
314A
102
{ACAD_REACTORS
330
313F
102
}
330
313F
100
AcDbProxyObject
 90
      499
 91
      607
 95
  6815769
 70
     0
 93
      121
310
905313A3530004000000000000494001
 94
        0
1001
ACAD
1000
AcRTDxfName
1000
SCALE
  0
ACAD_PROXY_OBJECT
  5
314B
102
{ACAD_REACTORS
330
313F
102
}
330
313F
100
AcDbProxyObject
 90
      499
 91
      607
 95
  6815769
 70
     0
 93
      129
310
906313A313030004000000000000594000
 94
        0
1001
ACAD
1000
AcRTDxfName
1000
SCALE
  0
ACAD_PROXY_OBJECT
  5
314C
102
{ACAD_REACTORS
330
313F
102
}
330
313F
100
AcDbProxyObject
 90
      499
 91
      607
 95
  6815769
 70
     0
 93
      113
310
904323A31000000000000000010165
 94
        0
1001
ACAD
1000
AcRTDxfName
1000
SCALE
  0
ACAD_PROXY_OBJECT
  5
314D
102
{ACAD_REACTORS
330
313F
102
}
330
313F
100
AcDbProxyObject
 90
      499
 91
      607
 95
  6815769
 70
     0
 93
      113
310
904343A31000000000000000410101
 94
        0
1001
ACAD
1000
AcRTDxfName
1000
SCALE
  0
ACAD_PROXY_OBJECT
  5
314E
102
{ACAD_REACTORS
330
313F
102
}
330
313F
100
AcDbProxyObject
 90
      499
 91
      607
 95
  6815769
 70
     0
 93
      113
310
904383A31000000000000000810165
 94
        0
1001
ACAD
1000
AcRTDxfName
1000
SCALE
  0
ACAD_PROXY_OBJECT
  5
314F
102
{ACAD_REACTORS
330
313F
102
}
330
313F
100
AcDbProxyObject
 90
      499
 91
      607
 95
  6815769
 70
     0
 93
      121
310
90531303A31000000000000000910178
 94
        0
1001
ACAD
1000
AcRTDxfName
1000
SCALE
  0
ACAD_PROXY_OBJECT
  5
3150
102
{ACAD_REACTORS
330
313F
102
}
330
313F
100
AcDbProxyObject
 90
      499
 91
      607
 95
  6815769
 70
     0
 93
      129
310
9063130303A31000000000000001650100
 94
        0
1001
ACAD
1000
AcRTDxfName
1000
SCALE
  0
TABLESTYLE
  5
BD7
102
{ACAD_XDICTIONARY
360
3197
102
}
102
{ACAD_REACTORS
330
BD6
102
}
330
BD6
100
AcDbTableStyle
  3
Standard
 70
     0
 71
     0
 40
1.5
 41
1.5
280
     0
281
     0
  7
STANDARD
140
4.5
170
     2
 62
     0
 63
     7
283
     0
274
    -2
284
     1
 64
     0
275
    -2
285
     1
 65
     0
276
    -2
286
     1
 66
     0
277
    -2
287
     1
 67
     0
278
    -2
288
     1
 68
     0
279
    -2
289
     1
 69
     0
  7
STANDARD
140
6.0
170
     5
 62
     0
 63
     7
283
     0
274
    -2
284
     1
 64
     0
275
    -2
285
     1
 65
     0
276
    -2
286
     1
 66
     0
277
    -2
287
     1
 67
     0
278
    -2
288
     1
 68
     0
279
    -2
289
     1
 69
     0
  7
STANDARD
140
4.5
170
     5
 62
     0
 63
     7
283
     0
274
    -2
284
     1
 64
     0
275
    -2
285
     1
 65
     0
276
    -2
286
     1
 66
     0
277
    -2
287
     1
 67
     0
278
    -2
288
     1
 68
     0
279
    -2
289
     1
 69
     0
1001
ACAD
1000
AcRTDxfName
1000
TABLESTYLE
  0
ACAD_PROXY_OBJECT
  5
3134
102
{ACAD_REACTORS
330
312E
102
}
330
312E
100
AcDbProxyObject
 90
      499
 91
      606
 95
  6815769
 70
     0
 93
      598
310
430C9915DA5C99599C985B59401049028333333333333E3BF0000000000000FB023FFFFFF0802405048070000C3008000000C800405A000000320014050640A01C00030C010500920280D3
 94
        0
1001
ACAD
1000
AcDbSavedByObjectVersion
1070
     0
1000
AcRTDxfName
1000
VISUALSTYLE
  0
ACAD_PROXY_OBJECT
  5
3136
102
{ACAD_REACTORS
330
312E
102
}
330
312E
100
AcDbProxyObject
 90
      499
 91
      606
 95
  6815769
 70
     0
 93
      662
310
428CD108121A5919195B8010640502408333333333333E3BF0000000000000FB023FFFFFF0802409028070000C3008000000C8004080000000000004440A000000320014050640A01C00030C010300920280D1
 94
        0
1001
ACAD
1000
AcDbSavedByObjectVersion
1070
     0
1000
AcRTDxfName
1000
VISUALSTYLE
  0
ACAD_PROXY_OBJECT
  5
3135
102
{ACAD_REACTORS
330
312E
102
}
330
312E
100
AcDbProxyObject
 90
      499
 91
      606
 95
  6815769
 70
     0
 93
      598
310
430CD915DA5C99599C985B59401059028333333333333E3BF0000000000000FB023FFFFFF0802405048070000C3008000000C800405A000000320014050640A01C00030C010500920280D0
 94
        0
1001
ACAD
1000
AcDbSavedByObjectVersion
1070
     0
1000
AcRTDxfName
1000
VISUALSTYLE
  0
ACAD_PROXY_OBJECT
  5
3133
102
{ACAD_REACTORS
330
312E
102
}
330
312E
100
AcDbProxyObject
 90
      499
 91
      606
 95
  6815769
 70
     0
 93
      558
310
4190985CDA58C0107406404333333333333E3BF0000000000000FB023FFFFFF08029048070000C3008000000C80040542201C00030C014050640A01C00030C010500920280D5
 94
        0
1001
ACAD
1000
AcDbSavedByObjectVersion
1070
     0
1000
AcRTDxfName
1000
VISUALSTYLE
  0
ACAD_PROXY_OBJECT
  5
313A
102
{ACAD_REACTORS
330
312E
102
}
330
312E
100
AcDbProxyObject
 90
      499
 91
      606
 95
  6815769
 70
     0
 93
      598
310
42509C9A59DA1D195B8010C409028333333333333E3BF0000000000000FB023FFFFFF0802405048070000C3008000000C80040542201C00030C014050640A01C00030C010500920280A656
 94
        0
1001
ACAD
1000
AcDbSavedByObjectVersion
1070
     0
1000
AcRTDxfName
1000
VISUALSTYLE
  0
ACAD_PROXY_OBJECT
  5
313E
102
{ACAD_REACTORS
330
312E
102
}
330
312E
100
AcDbProxyObject
 90
      499
 91
      606
 95
  6815769
 70
     0
 93
      622
310
4310DBDB1BDC90DA185B99D9401104090240C333333333333E3BF0000000000000FB0220202030802405048070000C3008000000C800405422202020308014050640A01C00030C010500920280D4
 94
        0
1001
ACAD
1000
AcDbSavedByObjectVersion
1070
     0
1000
AcRTDxfName
1000
VISUALSTYLE
  0
ACAD_PROXY_OBJECT
  5
3137
102
{ACAD_REACTORS
330
312E
102
}
330
312E
100
AcDbProxyObject
 90
      499
 91
      606
 95
  6815769
 70
     0
 93
      670
310
42D0DBDB98D95C1D1D585B0010940D028333333333333E3BF0000000000000FB023FFFFFF0802409028070000C3008000000C800404000000000000444042201C00030C014050640A01C00030C010300920280D0
 94
        0
1001
ACAD
1000
AcDbSavedByObjectVersion
1070
     0
1000
AcRTDxfName
1000
VISUALSTYLE
  0
ACAD_PROXY_OBJECT
  5
3139
102
{ACAD_REACTORS
330
312E
102
}
330
312E
100
AcDbProxyObject
 90
      499
 91
      606
 95
  6815769
 70
     0
 93
      582
310
41111A5B4010B409028333333333333E3BF0000000000000FB023FFFFFF0802405048070000C3008000000C80040542201C00030C014050640A01C00030C01050092028099DFFFFFF4
 94
        0
1001
ACAD
1000
AcDbSavedByObjectVersion
1070
     0
1000
AcRTDxfName
1000
VISUALSTYLE
  0
ACAD_PROXY_OBJECT
  5
313D
102
{ACAD_REACTORS
330
312E
102
}
330
312E
100
AcDbProxyObject
 90
      499
 91
      606
 95
  6815769
 70
     0
 93
      614
310
43119858D95C185D1D195C9B8010F409028333333333333E3BF0000000000000FB023FFFFFF0802405048070000C3008000000C80040542201C00030C014050640A01C00030C010500920280D5
 94
        0
1001
ACAD
1000
AcDbSavedByObjectVersion
1070
     0
1000
AcRTDxfName
1000
VISUALSTYLE
  0
ACAD_PROXY_OBJECT
  5
312F
102
{ACAD_REACTORS
330
312E
102
}
330
312E
100
AcDbProxyObject
 90
      499
 91
      606
 95
  6815769
 70
     0
 93
      558
310
41519B185D00240901404333333333333E3BF0000000000000F9023FFFFFF0801029048070000C3008000000C80040542201C00030C014050640A01C00030C010500920286D6
 94
        0
1001
ACAD
1000
AcDbSavedByObjectVersion
1070
     0
1000
AcRTDxfName
1000
VISUALSTYLE
  0
ACAD_PROXY_OBJECT
  5
3130
102
{ACAD_REACTORS
330
312E
102
}
330
312E
100
AcDbProxyObject
 90
      499
 91
      606
 95
  6815769
 70
     0
 93
      638
310
43919B185D15DA5D1A115919D95CC010140901404333333333333E3BF0000000000000F9023FFFFFF080102405048070000C3008000000C800405A000000320014050640A01C00030C010500920286D6
 94
        0
1001
ACAD
1000
AcDbSavedByObjectVersion
1070
     0
1000
AcRTDxfName
1000
VISUALSTYLE
  0
ACAD_PROXY_OBJECT
  5
3131
102
{ACAD_REACTORS
330
312E
102
}
330
312E
100
AcDbProxyObject
 90
      499
 91
      606
 95
  6815769
 70
     0
 93
      582
310
4211DBDD5C985D590010240902404333333333333E3BF0000000000000F9023FFFFFF0801029048070000C3008000000C800405A01C00030C014050640A01C00030C010500920286D6
 94
        0
1001
ACAD
1000
AcDbSavedByObjectVersion
1070
     0
1000
AcRTDxfName
1000
VISUALSTYLE
  0
ACAD_PROXY_OBJECT
  5
3132
102
{ACAD_REACTORS
330
312E
102
}
330
312E
100
AcDbProxyObject
 90
      499
 91
      606
 95
  6815769
 70
     0
 93
      662
310
4451DBDD5C985D5915DA5D1A115919D95CC010340902404333333333333E3BF0000000000000F9023FFFFFF080102405048070000C3008000000C800405A000000320014050640A01C00030C010500920286D5
 94
        0
1001
ACAD
1000
AcDbSavedByObjectVersion
1070
     0
1000
AcRTDxfName
1000
VISUALSTYLE
  0
ACAD_PROXY_OBJECT
  5
313C
102
{ACAD_REACTORS
330
312E
102
}
330
312E
100
AcDbProxyObject
 90
      499
 91
      606
 95
  6815769
 70
     0
 93
      614
310
43131A5B995C185D1D195C9B8010E409028333333333333E3BF0000000000000FB023FFFFFF0802405048070000C3008000000C80041D42201C00030C014050640A01C00030C010500920E80D4
 94
        0
1001
ACAD
1000
AcDbSavedByObjectVersion
1070
     0
1000
AcRTDxfName
1000
VISUALSTYLE
  0
ACAD_PROXY_OBJECT
  5
3138
102
{ACAD_REACTORS
330
312E
102
}
330
312E
100
AcDbProxyObject
 90
      499
 91
      606
 95
  6815769
 70
     0
 93
      590
310
429499585B1A5CDD1A58C0108409028333333333333E3BF0000000000000FB023FFFFFF08024068070000C3008000000C8004054221E1E1E308014050640A01C00030C010500920286D2
 94
        0
1001
ACAD
1000
AcDbSavedByObjectVersion
1070
     0
1000
AcRTDxfName
1000
VISUALSTYLE
  0
ACAD_PROXY_OBJECT
  5
313B
102
{ACAD_REACTORS
330
312E
102
}
330
312E
100
AcDbProxyObject
 90
      499
 91
      606
 95
  6815769
 70
     0
 93
      582
310
42151A1A58DAD95B8010D409028333333333333E3BF0000000000000FB023FFFFFF0802405048070000C3008000000C80040543201C00030C014050640A01C00030C010500920280D4
 94
        0
1001
ACAD
1000
AcDbSavedByObjectVersion
1070
     0
1000
AcRTDxfName
1000
VISUALSTYLE
  0
DICTIONARYVAR
  5
31B4
102
{ACAD_REACTORS
330
9E
102
}
330
9E
100
DictionaryVariables
280
     0
  1
1:1
  0
DICTIONARYVAR
  5
31B3
102
{ACAD_REACTORS
330
9E
102
}
330
9E
100
DictionaryVariables
280
     0
  1
STANDARD
  0
DICTIONARYVAR
  5
C25
102
{ACAD_REACTORS
330
9E
102
}
330
9E
100
DictionaryVariables
280
     0
  1
STANDARD
  0
DICTIONARYVAR
  5
A0
102
{ACAD_REACTORS
330
9E
102
}
330
9E
100
DictionaryVariables
280
     0
  1
1
  0
DICTIONARYVAR
  5
9F
102
{ACAD_REACTORS
330
9E
102
}
330
9E
100
DictionaryVariables
280
     0
  1
0
  0
DICTIONARYVAR
  5
30ED
102
{ACAD_REACTORS
330
9E
102
}
330
9E
100
DictionaryVariables
280
     0
  1

  0
DICTIONARY
  5
9A7
102
{ACAD_REACTORS
330
63
102
}
330
63
100
AcDbDictionary
281
     1
  0
DICTIONARY
  5
69
102
{ACAD_REACTORS
330
63
102
}
330
63
100
AcDbDictionary
281
     1
  0
XRECORD
  5
BE7
102
{ACAD_REACTORS
330
63
102
}
330
63
100
AcDbXrecord
280
     1
 90
-1023410169
  0
DICTIONARY
  5
32EB
330
22
100
AcDbDictionary
280
     1
281
     1
  3
ACAD_XREC_ROUNDTRIP
360
32EC
  0
DICTIONARY
  5
32E9
330
1E
100
AcDbDictionary
280
     1
281
     1
  3
ACAD_XREC_ROUNDTRIP
360
32EA
  0
DICTIONARY
  5
32ED
330
26
100
AcDbDictionary
280
     1
281
     1
  3
ACAD_XREC_ROUNDTRIP
360
32EE
  0
DICTIONARY
  5
311F
330
311E
100
AcDbDictionary
280
     1
281
     1
  3
ACAD_XREC_ROUNDTRIP
360
31B1
  3
BUMPTILE
360
3121
  3
DIFFUSETILE
360
3120
  3
OPACITYTILE
360
3124
  3
REFLECTIONTILE
360
3123
  3
REFRACTIONTILE
360
3125
  3
SPECULARTILE
360
3122
  0
DICTIONARY
  5
3117
330
3116
100
AcDbDictionary
280
     1
281
     1
  3
ACAD_XREC_ROUNDTRIP
360
31B0
  3
BUMPTILE
360
3119
  3
DIFFUSETILE
360
3118
  3
OPACITYTILE
360
311C
  3
REFLECTIONTILE
360
311B
  3
REFRACTIONTILE
360
311D
  3
SPECULARTILE
360
311A
  0
DICTIONARY
  5
3127
330
3126
100
AcDbDictionary
280
     1
281
     1
  3
ACAD_XREC_ROUNDTRIP
360
31B2
  3
BUMPTILE
360
3129
  3
DIFFUSETILE
360
3128
  3
OPACITYTILE
360
312C
  3
REFLECTIONTILE
360
312B
  3
REFRACTIONTILE
360
312D
  3
SPECULARTILE
360
312A
  0
DICTIONARY
  5
3197
330
BD7
100
AcDbDictionary
280
     1
281
     1
  3
ACAD_ROUNDTRIP_2008_TABLESTYLE_CELLSTYLEMAP
360
3198
  3
ACAD_XREC_ROUNDTRIP
360
31AD
  0
XRECORD
  5
32EC
102
{ACAD_REACTORS
330
32EB
102
}
330
32EB
100
AcDbXrecord
280
     1
102
SHADEPLOT
 70
     0
102
SHADEPLOTRESLEVEL
 70
     2
102
SHADEPLOTCUSTOMDPI
 70
   300
  0
XRECORD
  5
32EA
102
{ACAD_REACTORS
330
32E9
102
}
330
32E9
100
AcDbXrecord
280
     1
102
SHADEPLOT
 70
     1
102
SHADEPLOTRESLEVEL
 70
     2
102
SHADEPLOTCUSTOMDPI
 70
   300
  0
XRECORD
  5
32EE
102
{ACAD_REACTORS
330
32ED
102
}
330
32ED
100
AcDbXrecord
280
     1
102
SHADEPLOT
 70
     1
102
SHADEPLOTRESLEVEL
 70
     2
102
SHADEPLOTCUSTOMDPI
 70
   300
  0
XRECORD
  5
31B1
102
{ACAD_REACTORS
330
311F
102
}
330
311F
100
AcDbXrecord
280
     1
102
MATERIAL
148
0.0
149
0.0
149
0.0
 93
        0
 94
      127
282
     0
 72
     0
 77
     0
171
     0
175
     0
179
     0
273
     0
  0
XRECORD
  5
3121
102
{ACAD_REACTORS
330
311F
102
}
330
311F
100
AcDbXrecord
280
     1
270
     1
271
     1
  0
XRECORD
  5
3120
102
{ACAD_REACTORS
330
311F
102
}
330
311F
100
AcDbXrecord
280
     1
270
     1
271
     1
  0
XRECORD
  5
3124
102
{ACAD_REACTORS
330
311F
102
}
330
311F
100
AcDbXrecord
280
     1
270
     1
271
     1
  0
XRECORD
  5
3123
102
{ACAD_REACTORS
330
311F
102
}
330
311F
100
AcDbXrecord
280
     1
270
     1
271
     1
  0
XRECORD
  5
3125
102
{ACAD_REACTORS
330
311F
102
}
330
311F
100
AcDbXrecord
280
     1
270
     1
271
     1
  0
XRECORD
  5
3122
102
{ACAD_REACTORS
330
311F
102
}
330
311F
100
AcDbXrecord
280
     1
270
     1
271
     1
  0
XRECORD
  5
31B0
102
{ACAD_REACTORS
330
3117
102
}
330
3117
100
AcDbXrecord
280
     1
102
MATERIAL
148
0.0
149
0.0
149
0.0
 93
        0
 94
      127
282
     0
 72
     0
 77
     0
171
     0
175
     0
179
     0
273
     0
  0
XRECORD
  5
3119
102
{ACAD_REACTORS
330
3117
102
}
330
3117
100
AcDbXrecord
280
     1
270
     1
271
     1
  0
XRECORD
  5
3118
102
{ACAD_REACTORS
330
3117
102
}
330
3117
100
AcDbXrecord
280
     1
270
     1
271
     1
  0
XRECORD
  5
311C
102
{ACAD_REACTORS
330
3117
102
}
330
3117
100
AcDbXrecord
280
     1
270
     1
271
     1
  0
XRECORD
  5
311B
102
{ACAD_REACTORS
330
3117
102
}
330
3117
100
AcDbXrecord
280
     1
270
     1
271
     1
  0
XRECORD
  5
311D
102
{ACAD_REACTORS
330
3117
102
}
330
3117
100
AcDbXrecord
280
     1
270
     1
271
     1
  0
XRECORD
  5
311A
102
{ACAD_REACTORS
330
3117
102
}
330
3117
100
AcDbXrecord
280
     1
270
     1
271
     1
  0
XRECORD
  5
31B2
102
{ACAD_REACTORS
330
3127
102
}
330
3127
100
AcDbXrecord
280
     1
102
MATERIAL
148
0.0
149
0.0
149
0.0
 93
        0
 94
      127
282
     0
 72
     0
 77
     0
171
     0
175
     0
179
     0
273
     0
  0
XRECORD
  5
3129
102
{ACAD_REACTORS
330
3127
102
}
330
3127
100
AcDbXrecord
280
     1
270
     1
271
     1
  0
XRECORD
  5
3128
102
{ACAD_REACTORS
330
3127
102
}
330
3127
100
AcDbXrecord
280
     1
270
     1
271
     1
  0
XRECORD
  5
312C
102
{ACAD_REACTORS
330
3127
102
}
330
3127
100
AcDbXrecord
280
     1
270
     1
271
     1
  0
XRECORD
  5
312B
102
{ACAD_REACTORS
330
3127
102
}
330
3127
100
AcDbXrecord
280
     1
270
     1
271
     1
  0
XRECORD
  5
312D
102
{ACAD_REACTORS
330
3127
102
}
330
3127
100
AcDbXrecord
280
     1
270
     1
271
     1
  0
XRECORD
  5
312A
102
{ACAD_REACTORS
330
3127
102
}
330
3127
100
AcDbXrecord
280
     1
270
     1
271
     1
  0
ACAD_PROXY_OBJECT
  5
3198
102
{ACAD_REACTORS
330
3197
102
}
330
3197
100
AcDbProxyObject
 90
      499
 91
      619
 95
  6815769
 70
     0
 93
     5232
310
40D054060020000020000003200101A412A5058000000C10000000000000006101010000000000003E0FC000000000000F83F0000000000003E0FC000000000000F83F02B5E8DC0F42B1CFC0AD7A3703D0AC73F419019018000000C1003FBFFFFFE02B5E8DC0F42A9CFD029018000000C1003FBFFFFFE02B5E8DC0F42A9CFD
310
049018000000C1003FBFFFFFE02B5E8DC0F42A9CFD089018000000C1003FBFFFFFE02B5E8DC0F42A9CFD109018000000C1003FBFFFFFE02B5E8DC0F42A9CFD209018000000C1003FBFFFFFE02B5E8DC0F42A9CFD01405075F5449544C450041501A8000000C800406904A94160000003040000000000000012404040000000
310
00000F83F0000000000003E0FC000000000000F83F0000000000003E0FC0AD7A3703D0AC73F02B5E8DC0F42B1CFD0640640600000030400FEFFFFFF80AD7A3703D0AA73F40A40600000030400FEFFFFFF80AD7A3703D0AA73F41240600000030400FEFFFFFF80AD7A3703D0AA73F42240600000030400FEFFFFFF80AD7A370
310
3D0AA73F44240600000030400FEFFFFFF80AD7A3703D0AA73F48240600000030400FEFFFFFF80AD7A3703D0AA73F409014217D2115051115480105406A0000003200101A412A5028000000C10000000000000004901010000000000003E0FC000000000000F83F0000000000003E0FC000000000000F83F02B5E8DC0F42B1C
310
FC0AD7A3703D0AC73F419019018000000C1003FBFFFFFE02B5E8DC0F42A9CFD029018000000C1003FBFFFFFE02B5E8DC0F42A9CFD049018000000C1003FBFFFFFE02B5E8DC0F42A9CFD089018000000C1003FBFFFFFE02B5E8DC0F42A9CFD109018000000C1003FBFFFFFE02B5E8DC0F42A9CFD209018000000C1003FBFFFF
310
FE02B5E8DC0F42A9CFD03409065F444154410000
340
11
340
0
340
0
340
0
340
0
340
0
340
0
340
11
340
0
340
0
340
0
340
0
340
0
340
0
340
11
340
0
340
0
340
0
340
0
340
0
340
0
 94
        0
1001
ACAD
1000
AcRTDxfName
1000
CELLSTYLEMAP
  0
XRECORD
  5
31AD
102
{ACAD_REACTORS
330
3197
102
}
330
3197
100
AcDbXrecord
280
     1
102
ACAD_ROUNDTRIP_PRE2007_TABLESTYLE
 90
        4
 91
        0
  1

 92
        4
 93
        0
  2

 94
        4
 95
        0
  3

  0
ENDSEC
  0
EOF
